#TITLE:rumrum triplets;
#SUBTITLE:;
#ARTIST:yu_tokiwa.djw;
#TITLETRANSLIT:;
#SUBTITLETRANSLIT:;
#ARTISTTRANSLIT:;
#CREDIT:DigiMindAxel;
#BANNER:rumrum triplets.png;
#BACKGROUND:rumrum triplets-bg.png;
#LYRICSPATH:rumrum triplets.lrc;
#CDTITLE:beatmania IIDX.png;
#MUSIC:rumrum triplets.mp3;
#METERTYPE:DDR X;
#OFFSET:-5.352;
#SAMPLESTART:66.130;
#SAMPLELENGTH:12.000;
#SELECTABLE:YES;
#BPMS:0.000=192.000;
#STOPS:;
#BGCHANGES:;

//---------------dance-single - ----------------
#NOTES:
     dance-single:
     :
     Easy:
     7:
     0.291,0.370,0.070,0.078,0.000:
0001
1000
0001
1000
,
0001
1000
0001
1000
,
0001
1000
0001
1000
,
0001
1000
0001
1000
,
1001
0000
0000
0110
,
0000
0000
0000
0000
,
0110
0000
0110
0000
,
0200
0000
0000
0000
,
0000
0000
0300
0000
,
0001
0000
0000
0000
,
0000
0000
0000
0000
,
1000
0000
0000
0000
,
0000
0000
0000
0000
,
0100
0010
0100
0010
,
0100
0010
0100
0010
,
0001
1000
0001
1000
,
0200
0000
0000
0000
,
1300
0100
1000
0000
,
0010
0100
0010
0000
,
1000
0001
1000
0000
,
0001
0010
0001
0000
,
0100
0010
0100
0000
,
0001
1000
0001
0000
,
1000
0000
0100
0000
,
0010
0000
0001
1000
,
0001
0000
0000
0000
,
0000
0000
0000
0000
,
0010
0001
0010
0001
,
0010
0001
0010
0001
,
1000
1000
1000
1000
,
0001
0001
0001
0001
,
1000
1000
1000
1000
,
0001
0010
0100
1000
,
0002
0000
1003
0000
,
0002
0000
1003
0000
,
0010
0000
0100
0000
,
0001
0000
1000
0000
,
0200
0000
1300
0000
,
0002
0000
1003
0000
,
0002
0000
0013
0000
,
0001
1000
0001
1000
,
0001
0000
0010
0000
,
0100
0000
1000
0000
,
0010
0000
0100
0000
,
0001
0000
1000
0000
,
0001
0001
0001
0001
,
1000
1000
1000
1000
,
0001
0010
0100
1000
,
0001
0000
0000
0000
,
1001
1000
0001
1000
,
0000
0100
0010
0001
,
2000
0000
0000
3001
,
1000
0100
1000
0001
,
0100
0000
0010
0000
,
0100
0000
0001
1000
,
0100
0000
0010
0000
,
0001
0000
0000
0000
,
1000
0100
0010
0000
,
0100
1000
0010
0000
,
0110
0000
0110
0000
,
0110
0000
0000
0000
,
1000
0100
1000
0000
,
0001
0010
0001
0000
,
0100
0010
0100
0001
,
0010
0100
1000
0001
,
1000
1000
1000
1000
,
0001
0001
0001
0001
,
1000
1000
1000
1000
,
0002
0000
0000
0000
,
0000
0000
0000
0000
,
1003
0000
0000
0000
,
0000
0000
0000
0000
,
0000
0000
0000
0000
,
0000
0000
0000
0000
,
0001
1000
0001
1000
,
0001
1000
0001
1000
,
0100
1000
0100
1000
,
0100
0000
0000
0000
,
1001
0000
0001
0100
,
0001
0000
0010
0100
,
1000
0000
0010
0100
,
0010
1000
0100
0010
,
0001
1000
0001
0000
,
1000
0001
1000
0100
,
0010
0001
1000
0100
,
1000
0000
0001
1000
,
0001
0000
0100
0000
,
0010
0000
1000
0000
,
0010
0000
0100
0000
,
0001
0000
1000
0000
,
0001
0001
0001
0001
,
1000
1000
1000
1000
,
0001
0010
0100
1000
,
0001
0200
0000
0000
,
0000
0000
0000
0000
,
0300
0000
0000
0000
;

//---------------dance-single - ----------------
#NOTES:
     dance-single:
     :
     Medium:
     9:
     0.466,0.517,0.101,0.101,0.000:
1000
1000
1000
1000
,
0001
0001
0001
0001
,
1000
1000
1000
1000
,
0001
0001
0001
0001
,
1001
0000
0000
1000
0000
0000
1001
0000
,
0000
0001
0000
0000
0101
0000
0100
0000
,
0000
0010
0100
0000
0010
0100
0000
0002
,
0000
0000
0000
0000
,
0000
0000
0000
0000
,
1003
0000
0000
0000
0000
0001
1000
0001
,
0000
0000
0000
0000
0000
0000
1000
0001
,
1000
0000
0000
0000
0100
1000
0100
1000
,
0000
0000
0000
0000
,
0001
0001
0001
0001
,
0001
0001
0001
0001
,
1000
1000
1000
1000
,
1000
0001
1000
0001
,
0100
0000
0010
0000
0100
0000
0001
0100
,
0001
0000
0100
0000
0010
0000
0100
0010
,
0100
0001
1000
0100
,
1000
0001
1000
0000
0100
0000
0010
0000
,
0001
0000
1000
0000
0010
0100
0010
1000
,
0000
1000
0000
2000
0000
0000
3001
0000
,
1000
0100
0000
0100
0000
0100
0000
2000
,
0000
0000
0000
0000
3001
1000
0100
0010
,
0001
0000
0000
0000
,
0000
0000
0000
0000
,
1000
1000
1000
1000
,
0001
0001
0001
0001
,
1000
0001
1000
0000
0001
1000
0001
0000
,
1000
0001
1000
0000
0001
1000
0001
0000
,
0100
0001
0100
0000
0001
1000
0001
0000
,
1000
0010
1000
0000
0001
1000
0001
0000
,
1000
0100
0010
0000
,
0100
0000
1000
0000
0010
0000
0000
0100
,
0010
0000
0000
0100
0010
0000
0000
1000
,
0001
0000
0000
1000
0001
0000
0000
0000
,
1000
0001
1000
0010
,
1000
0100
0010
0001
,
0100
0010
0100
0001
,
0010
0000
0100
0000
1000
0100
1000
0100
,
0000
1000
0001
0000
1000
0001
0000
1000
,
0100
0000
1000
0100
0000
1000
0001
0000
,
0000
1000
0010
0000
1000
0001
0000
1000
,
0010
0000
1000
0001
0000
0000
0000
0000
,
1000
1000
0001
0001
,
1000
1000
0001
0001
,
1000
0100
0010
0001
0010
0100
1000
0000
,
0001
1001
0000
0000
,
1001
0000
0001
0000
1000
0000
0001
0100
,
0010
2000
3200
0320
,
0032
0000
0000
0000
0000
0000
1003
0001
,
1000
0000
0010
0100
0001
0000
1000
0000
,
1001
0000
0001
0010
0000
0001
1000
0000
,
0001
0010
0000
0001
1000
0000
1001
0000
,
1000
0000
0010
0100
0000
0001
1000
0000
,
0100
1000
0100
1000
0010
0000
0010
0000
,
1001
0000
1000
0000
0001
0000
1000
0010
,
0100
0000
0010
0100
0010
0000
1000
0000
,
1001
0000
1001
0000
,
0001
0010
0100
1000
0000
0000
0000
0000
,
0001
0000
0100
0010
0000
0000
1000
0001
,
1000
0000
0100
1000
0000
1000
0000
0000
,
0001
0100
0000
0100
0000
0100
0000
0001
,
1000
0100
1000
0000
0001
0010
0001
0000
,
2001
0000
0001
0000
0001
0000
3001
1000
,
0200
0000
1000
0000
1000
0000
1300
0001
,
0200
0001
0001
0301
,
2000
0000
0000
0000
,
0000
0000
0000
0000
,
3001
0000
0000
0000
1000
0100
0010
0001
,
0000
1000
0100
0010
,
0001
0000
0000
0000
1000
0010
0100
0001
,
0000
0000
0000
0000
,
1000
1000
0001
0001
,
1000
1000
0001
0001
,
1000
0100
0010
0001
,
0010
0000
0000
0000
0001
1000
0100
1000
,
0001
1001
1000
0100
,
0010
0000
0100
1000
0100
1000
0010
0000
,
0110
0000
0100
0000
0001
0010
0100
1000
,
0001
1000
0100
0010
,
0001
0000
1000
0100
1000
0100
1000
0001
,
0000
1000
0000
0200
0000
0000
1000
1300
,
0000
0000
0001
0100
0010
1000
0010
0100
,
0001
0000
0001
0000
0001
1000
0100
0010
,
0000
0001
1000
0000
0001
0100
0000
0001
,
1000
0000
0001
0100
0000
0001
1000
0000
,
0000
0100
0010
0000
0001
0100
0000
0010
,
1000
0000
0100
0010
0000
0001
1000
0000
,
0001
0001
1000
1000
,
0001
0001
1000
1000
,
0001
0010
0001
0010
0001
1000
0001
1000
,
0001
0010
0100
2000
0000
0000
0000
0000
,
0000
0000
0000
0000
,
3000
0000
0000
0000
;

//---------------dance-single - ----------------
#NOTES:
     dance-single:
     :
     Hard:
     12:
     0.612,0.665,0.163,0.163,0.031: // measure 1
1000
0100
0001
0100
,  // measure 2
1000
0100
0001
0100
,  // measure 3
1000
0010
0001
0010
,  // measure 4
1000
0010
0001
0010
,  // measure 5
1000
0000
0001
0100
0000
0100
0010
0000
,  // measure 6
0100
0001
0000
0001
1000
0000
1001
0000
,  // measure 7
0000
0001
0001
1000
0100
0100
1000
0020
,  // measure 8
0000
0000
0000
0000
,  // measure 9
0200
0000
0000
0300
,  // measure 10
0130
0000
0000
0000
0001
1000
0100
0010
,  // measure 11
0000
0000
0000
0000
0000
0000
0001
1000
,  // measure 12
0010
0000
0000
0000
1000
0100
0010
0001
,  // measure 13
0000
0000
0000
0000
,  // measure 14
1001
1000
1000
0100
,  // measure 15
0010
0001
0100
0010
,  // measure 16
1000
0010
0100
0001
,  // measure 17
1000
0100
1000
0010
0100
0001
0010
0000
,  // measure 18
1001
0000
0001
0100
1000
0000
0100
0001
,  // measure 19
1000
0000
0001
0010
1000
0000
0010
0001
,  // measure 20
1000
0000
0001
0100
1000
0000
0100
0001
,  // measure 21
1000
0100
0001
0100
1000
0000
0010
1000
,  // measure 22
0001
0010
1000
0010
0001
0000
1000
0100
,  // measure 23
1000
0010
0001
0010
1000
0000
1001
0000
,  // measure 24
0001
1000
0000
0100
0000
0001
0000
0100
,  // measure 25
1000
0001
0001
0000
0010
0100
1000
0001
,  // measure 26
0020
0000
0000
0000
,  // measure 27
0000
0000
0030
1001
,  // measure 28
1000
0001
0010
0100
,  // measure 29
1000
0100
0010
0011
,  // measure 30
0001
1000
0001
1000
0100
1000
0100
1000
,  // measure 31
0001
1000
0001
1000
0010
1000
0010
1000
,  // measure 32
0001
1000
0001
1000
0100
1000
0100
1000
,  // measure 33
0001
0100
0100
0000
0110
0000
0001
0000
,  // measure 34
2000
3002
2003
3000
,  // measure 35
0020
0000
0230
0000
0320
0000
0030
1000
,  // measure 36
0002
0000
0003
0010
0200
0000
0300
1000
,  // measure 37
0020
0000
0030
1000
0002
0000
1003
0000
,  // measure 38
0001
1000
0100
0000
0100
0010
0001
0000
,  // measure 39
0010
0100
1000
0000
1000
0001
0100
0000
,  // measure 40
0001
0010
0100
0000
0100
1000
0010
0000
,  // measure 41
1000
0010
0100
0000
0100
0001
0010
0100
,  // measure 42
1000
0001
0001
0000
1000
1000
0000
0100
,  // measure 43
0100
0000
0010
0010
0000
0001
1000
0100
,  // measure 44
0010
0001
0001
0000
0100
0100
0000
0001
,  // measure 45
0001
0000
1000
1000
0000
0001
0010
0100
,  // measure 46
1000
0001
0100
0000
0100
0001
0000
0010
,  // measure 47
0100
0000
0100
0010
0000
0001
1000
0000
,  // measure 48
1000
0001
0010
0100
1000
0001
0100
0010
,  // measure 49
0100
0001
2000
0000
0000
0000
3000
0000
,  // measure 50
1001
0000
0001
0000
0011
0000
0100
1000
,  // measure 51
0001
0102
0023
0230
,  // measure 52
2300
0000
0001
0000
0100
0000
3001
1000
,  // measure 53
0100
0010
0100
1000
0001
0100
0001
0000
,  // measure 54
1001
0000
1000
0100
0000
0100
0010
0000
,  // measure 55
0001
1000
0000
1000
0010
0100
0010
0000
,  // measure 56
1000
0000
1000
0001
0000
0001
0100
0000
,  // measure 57
0100
0001
0010
0100
1000
0100
0010
0000
,  // measure 58
1001
0000
1000
0000
1010
0000
0100
0001
,  // measure 59
1000
0000
0100
0010
0001
0000
0100
0001
,  // measure 60
1000
1000
0000
0010
0100
0100
0000
0000
,  // measure 61
0001
1000
0100
0010
0000
0001
0010
0001
,  // measure 62
1000
0100
0010
0100
1000
0000
0100
0010
,  // measure 63
0100
1000
0001
0100
0010
0100
0001
0000
,  // measure 64
1000
0001
0000
0100
0000
1000
0000
0100
,  // measure 65
0001
0001
0000
1000
0100
0100
1000
0010
,  // measure 66
0110
0000
0100
0001
0010
0100
1000
0010
,  // measure 67
0110
0000
0010
1000
0100
0010
0001
0100
,  // measure 68
0110
0000
0100
0001
0010
0100
1000
0010
,  // measure 69
0120
0100
0100
0100
,  // measure 70
0100
0000
0100
0000
0130
0001
1000
0001
,  // measure 71
0000
0000
0000
0000
0010
0100
1000
0001
,  // measure 72
0000
0010
0100
0001
,  // measure 73
0100
0000
0000
0000
1000
0001
0010
0100
,  // measure 74
0000
0000
0000
0000
,  // measure 75
1001
1000
0001
0010
,  // measure 76
0100
1000
0100
0010
,  // measure 77
0001
1000
0100
0001
,  // measure 78
0100
0000
1000
0001
0010
0001
1000
0010
,  // measure 79
0100
0000
0110
0000
0100
0001
0100
1000
,  // measure 80
0100
0000
0001
1000
0100
0010
0100
0000
,  // measure 81
0110
0000
0010
1000
0010
0001
0010
1000
,  // measure 82
0001
0010
0100
1000
0100
0010
0001
0000
,  // measure 83
1000
0001
0100
0001
0100
0010
1000
0100
,  // measure 84
0010
0001
1000
0002
0000
0000
0100
0103
,  // measure 85
0000
0001
1000
0100
0001
0100
1000
0001
,  // measure 86
0100
0001
0101
0000
0010
1000
0100
0010
,  // measure 87
0001
1000
1000
0001
0100
0100
0001
1000
,  // measure 88
1000
0001
0010
0010
0001
0010
0100
1000
,  // measure 89
0001
1000
1000
0001
0010
0010
0001
1000
,  // measure 90
1000
0001
0100
0100
0001
1000
0100
0010
,  // measure 91
0001
0000
0000
0001
1000
0000
0000
1000
0001
0000
0000
0001
1000
0000
0000
1000
,  // measure 92
0001
0000
0000
0001
0100
0000
0000
0100
0010
0000
0000
0010
1000
0000
0000
1000
,  // measure 93
0001
0010
1000
0010
0001
0100
1000
0100
,  // measure 94
0010
1000
0001
0200
0000
0000
0000
0000
,  // measure 95
0000
0000
0000
0000
,  // measure 96
0300
0000
0000
0000
;

//---------------dance-single - ----------------
#NOTES:
     dance-single:
     :
     Challenge:
     15:
     0.764,0.776,0.210,0.195,0.327:
0001
1001
0001
1001
,
1000
1100
1000
1100
,
0001
0101
0001
0101
,
0100
0000
0000
0000
0110
0000
0000
0010
1000
0000
0100
0000
0010
0000
0001
0000
,
1000
0100
0001
0100
1000
0000
0001
0100
,
1000
0100
0001
0000
0101
0000
0110
0000
,
0010
0100
0001
0000
0010
0000
0100
0000
1000
0001
1000
0000
0100
0000
0020
0000
,
0200
0000
0000
0000
,
0000
0000
0000
0330
,
0101
0000
0000
0000
0001
1000
0100
0010
,
0000
0000
0000
0000
0000
0000
0001
1000
,
0100
0000
0000
0000
1000
0001
0010
0100
,
0000
0000
0000
0000
,
1001
0000
1000
0000
1000
0001
0100
0001
,
1000
0000
1000
0000
1000
0100
0010
0001
,
0010
0000
0010
0000
0010
0001
0100
0010
,
0100
0000
0001
0000
0010
0000
0100
0000
1000
0000
0001
0100
0001
0100
0010
0000
,
0110
0000
0100
0010
0100
1000
0100
0001
,
1000
0000
0001
0100
1000
0000
0100
0001
,
1000
0000
0100
0010
0100
0001
0100
1000
,
0001
0000
1000
0100
0001
0000
0100
1000
,
0001
0000
0010
0100
0010
0001
0010
1000
,
0001
0000
1000
0100
0001
0000
0100
1000
,
0001
1000
0000
0010
0000
0001
0000
0010
,
1000
0000
0001
1000
0001
0000
0000
0000
1000
0000
0001
0000
0100
0010
0100
0010
,
0100
0000
0000
0000
0001
1000
0000
1000
,
0000
0000
0000
0000
0010
0100
0000
0100
,
0000
0000
0000
0000
0001
1000
0000
1000
,
0000
0000
1001
1001
,
0001
0000
1000
0000
0100
1000
0100
0000
0010
0000
0100
0000
1000
0001
1000
0000
,
0001
0000
0100
0000
0010
0100
0010
0000
1000
0000
0100
0000
1000
0100
1000
0000
,
0010
0000
0100
0000
0001
0100
0001
0000
0010
0000
0100
0000
1000
0001
1000
0000
,
0010
0000
0010
0000
0010
0000
0100
0010
0100
0000
0001
0000
0010
0100
1000
0000
,
0002
0203
2300
3000
,
0200
0000
0302
0000
2003
0000
3000
0002
,
0020
0000
0033
0020
0200
0000
0330
0200
,
2000
0000
3300
2000
0002
0000
3003
0000
,
0001
0000
0010
0000
0001
0000
0100
0000
0001
1000
0100
1000
0100
0000
0000
0000
,
0010
0000
0100
0000
1000
0000
0010
0000
0100
0001
1000
0001
1000
0000
0000
0000
,
0100
0000
0010
0000
0001
0000
1000
0000
0010
1000
0001
1000
0001
0000
0010
0000
,
0100
0000
0010
0000
0001
0000
1000
0000
0010
0100
0010
0100
0010
0100
0010
0100
,
0010
1000
1000
0100
0001
0001
0100
1000
,
1000
0000
0010
0000
0100
0000
0100
0000
0000
0000
0010
0000
0100
0001
0010
0001
,
0010
0001
0001
0100
1000
1000
0100
0001
,
0001
0010
0100
0100
1000
0001
0001
0000
,
0100
0000
0000
0100
0001
0000
0000
0001
1000
0000
0000
1000
0100
0000
0000
0100
,
0010
0000
0000
0010
0001
0000
0000
0001
0100
0000
0000
0100
0010
0000
0000
0010
,
1000
0000
0100
0000
1000
0100
0010
0000
0001
0100
0010
0000
0100
0001
0100
0001
,
1000
0100
1000
0100
2000
0000
0000
0000
0000
0000
0000
0000
3000
0000
0000
0000
,
1001
0000
0001
1000
0100
0000
0010
0100
,
1000
1100
0110
0011
,
1002
0000
0010
0000
1000
0000
0013
0001
,
0100
0000
0010
0000
0100
0000
0001
0000
0010
0100
0010
0100
1000
0000
0000
0000
,
1001
0000
0001
0001
0100
1000
1000
0100
,
0001
0000
0001
0000
1000
0000
0010
0000
0100
0001
0100
0001
1000
0000
0000
0000
,
0001
1000
0001
0001
0010
1000
1000
0010
,
0001
0000
1000
0001
1000
0000
0010
1000
0010
0000
1000
0000
0001
0000
0010
0000
,
0011
0000
0000
0000
0001
1000
0001
1000
0100
0000
0010
0000
0001
0000
1000
0000
,
0010
0000
1000
0000
0100
0000
0010
0000
0001
0000
0000
0000
0100
0001
0010
0000
,
0100
0000
1100
0000
0000
0000
1000
0001
1000
0000
1001
0000
0000
0000
0010
0100
,
0010
0000
0100
0000
0001
0000
1001
0000
0000
0000
1000
0001
1000
0000
0100
0000
,
0010
0001
0100
1000
0100
0001
1000
0001
,
1000
0010
0001
0010
1000
0001
0010
0100
,
0010
0001
0000
0010
0000
1000
0000
0010
,
0001
0000
1000
0000
1000
0000
0001
0000
0100
0010
0100
0000
0010
0000
1000
0100
,
1000
0000
0100
0000
1000
0000
0001
1000
0001
0000
0010
0000
0100
0000
0010
0000
,
0001
0000
1000
0000
0010
0000
0100
0010
0100
0000
0001
0000
1000
0000
0100
0010
,
0001
0000
0010
0000
0100
0000
1000
0010
1000
0000
0001
0000
0100
0000
0010
0000
,
0200
0010
0010
0010
,
0010
0000
0010
0000
0310
1000
0100
1000
,
0000
0000
0000
0000
0100
0001
0100
1000
,
0000
0002
0203
0320
,
1030
0000
0000
0000
0100
0001
0100
1000
,
0000
0000
0000
0002
,
1000
0100
1000
0100
,
1000
0010
1000
0013
,
0110
0100
0001
0010
,
0100
0000
0000
0000
0010
0000
0001
0000
1000
0000
0010
0100
0010
0000
1000
0000
,
1000
0000
0001
0000
1001
0000
0000
0000
0001
0100
0010
0000
0100
0000
0001
0000
,
0010
0000
0000
0000
0100
1000
0010
0000
1000
0000
0100
0000
0010
0000
0001
0000
,
1000
0000
0000
0000
0100
1000
0010
0000
0100
0000
0010
0000
1000
0000
0100
0000
,
0010
0000
0100
0000
1000
0001
1000
0000
0100
1000
0100
1000
0010
0000
0010
0000
,
1000
0000
0100
0000
0010
0000
0100
0000
1000
0001
1000
0000
0010
0000
0100
0000
,
0001
0000
1000
0000
0100
1000
0100
0000
0010
0000
0001
0000
1000
0000
1000
0000
,
0001
0100
1000
0001
0010
1000
0001
0100
,
0001
0000
0100
0000
0110
0000
0000
0000
0100
1000
0100
1000
0100
1000
0100
0000
,
1000
0001
0001
0010
1000
1000
0010
0001
,
0001
0100
1000
1000
0100
0001
0001
0010
,
0100
1000
1000
0010
0001
0001
0010
1000
,
1000
0100
0001
0001
0100
1000
1000
0001
,
0100
0000
0000
0100
0001
0000
0000
0001
1000
0000
0000
1000
0100
0000
0000
0100
,
0010
0000
0000
0010
0001
0000
0000
0001
1000
0000
0000
1000
0010
0000
0000
0010
,
0100
0000
0001
0000
0010
0100
1000
0000
0010
0000
0010
0000
0100
0001
1000
0000
,
0100
0010
0001
0010
0200
0000
0020
0000
0000
0000
0000
0000
0000
0000
0000
0000
,
0000
0000
0000
0000
,
0330
0000
0000
0000
;

//---------------dance-single - ----------------
#NOTES:
     dance-single:
     :
     Beginner:
     3:
     0.100,0.145,0.078,0.000,0.000:
1000
0000
0000
0000
,
1000
0000
0000
0000
,
1000
0000
0000
0000
,
1000
0000
0000
0000
,
1001
0000
0000
0000
,
0000
0000
0000
0000
,
0001
0000
0000
0000
,
0000
0000
0000
0000
,
0000
0000
0000
0000
,
0100
0000
0000
0000
,
0000
0000
0000
0000
,
0010
0000
0000
0000
,
0000
0000
0000
0000
,
0110
0000
0000
0000
,
0100
0000
0000
0000
,
0010
0000
0000
0000
,
0100
0000
0000
0000
,
1001
0000
0000
0000
,
0001
0000
0000
0000
,
0010
0000
0000
0000
,
0100
0000
0000
0000
,
1000
0000
0000
0000
,
0100
0000
0000
0000
,
0110
0000
0000
0000
,
0010
0000
0000
0000
,
1001
0000
0000
0000
,
0000
0000
0000
0000
,
1000
0000
0000
0000
,
1000
0000
0000
0000
,
1001
0000
0000
0000
,
0001
0000
0000
0000
,
1000
0000
0000
0000
,
0001
0000
0100
0000
,
0001
0000
0000
0000
,
0000
0000
0000
0000
,
0000
0000
0000
0000
,
0000
0000
0000
0000
,
1000
0000
0001
0000
,
1000
0000
0000
0000
,
0001
0000
1000
0000
,
0001
0000
0000
0000
,
1001
0000
0000
0000
,
0001
0000
0000
0000
,
0100
0000
0000
0000
,
0010
0000
0000
0000
,
1000
0000
0000
0000
,
0000
0000
0000
0000
,
1000
0000
0000
0000
,
0000
0000
0000
0000
,
1001
0000
0000
0000
,
0000
0000
0001
0000
,
0000
0000
0000
0000
,
0000
0000
0000
0000
,
1000
0000
0100
0000
,
1000
0000
0000
0000
,
0010
0000
0100
0000
,
0010
0000
0000
0000
,
1000
0000
0000
0000
,
0100
0000
0000
0000
,
0010
0000
0000
0000
,
0110
0000
0000
0000
,
0100
0000
0000
0000
,
0001
0000
0000
0000
,
0010
0000
0000
0000
,
0001
0000
0000
0000
,
1000
0000
0000
0000
,
1000
0000
0000
0000
,
0001
0000
0000
0000
,
0001
0000
0000
0000
,
0000
0000
0000
0000
,
1000
0000
0000
0000
,
0000
0000
0000
0000
,
0000
0000
0000
0000
,
0000
0000
0000
0000
,
0010
0000
0000
0000
,
0010
0000
0000
0000
,
0100
0000
0000
0000
,
0100
0000
0000
0000
,
1001
0000
0000
0000
,
0001
0000
0000
0000
,
0010
0000
0000
0000
,
0001
0000
0000
0000
,
0100
0000
0000
0000
,
0010
0000
0000
0000
,
0100
0000
0000
0000
,
0001
0000
0000
0000
,
1000
0000
0000
0000
,
0000
0000
0000
0000
,
0100
0000
0000
0000
,
0000
0000
0000
0000
,
0010
0000
0000
0000
,
0000
0000
0000
0000
,
0001
0000
1000
0000
,
0001
0000
0000
0000
;
