#TITLE:quell;
#SUBTITLE:~the seventh slave~ ANOTHER;
#ARTIST:dj TAKA Vs. DJ YOSHITAKA;
#TITLETRANSLIT:;
#SUBTITLETRANSLIT:;
#ARTISTTRANSLIT:;
#CREDIT:DigiMindAxel;
#BANNER:quell ~the seventh slave~ ANOTHER.png;
#BACKGROUND:quell ~the seventh slave~ ANOTHER-bg.png;
#LYRICSPATH:;
#CDTITLE:beatmania IIDX.png;
#MUSIC:quell ~the seventh slave~ ANOTHER.mp3;
#METERTYPE:DDR X;
#OFFSET:-12.245;
#SAMPLESTART:27.031;
#SAMPLELENGTH:12.000;
#SELECTABLE:YES;
#BPMS:0.000=162.000,32.000=81.000,36.000=162.000,100.000=81.000,116.000=162.000;
#STOPS:;
#BGCHANGES:-36.000=quell ~the seventh slave~ ANOTHER.avi=1.000=1=1=0,
99999=-nosongbg-=1.000=0=0=0 // don't automatically add -songbackground-
;

//---------------dance-single - ----------------
#NOTES:
     dance-single:
     :
     Easy:
     5:
     0.234,0.263,0.122,0.150,0.000:
2002
0000
0000
0000
,
0000
0000
0000
0000
,
3003
0000
0000
0000
,
0000
0000
0000
0000
,
0220
0000
0000
0000
,
0000
0000
0000
0330
,
0002
0000
0000
0000
,
2003
0000
0000
3000
,
1001
0000
0000
0000
,
1000
0100
1000
0000
,
0001
0010
0001
0000
,
0100
0010
0100
0000
,
0001
0100
0001
0000
,
1000
0010
1000
0000
,
0001
1000
0001
0000
,
0100
0000
0010
0000
0100
0000
0000
0020
,
0000
0000
0130
0110
,
1001
1000
0100
1000
,
0001
0010
0001
1000
,
0100
0010
0100
0010
,
0001
1000
0010
0100
,
0110
0100
0010
0100
,
0001
0010
0001
0010
,
0001
0010
0100
1000
,
0002
0000
0000
0000
,
1003
0000
0000
0100
,
0100
0000
0000
0100
,
0100
0000
0000
0000
,
0010
0010
0001
1000
,
1001
0000
0000
0000
,
0100
0010
0100
0001
,
1001
0000
0000
0000
,
0010
0100
0010
1000
,
1002
0000
0000
0000
,
0203
0000
0000
0000
,
0320
0000
0000
0000
,
1030
0100
0010
0001
,
1001
0000
0000
0000
,
0000
0000
0000
0000
,
1001
1000
0001
0010
,
0100
0100
1000
0100
,
0010
0010
0001
1000
,
0001
0100
0010
1000
,
0001
0001
0100
0010
,
1000
1000
0100
0010
,
0001
0001
1000
1000
,
2002
0000
0000
3003
,
0100
0100
0010
1000
,
0010
0010
0100
0001
,
1000
0100
0010
0001
,
0100
0010
0200
0000
,
0310
0100
0010
1000
,
0100
1000
0100
0010
,
0001
0001
1000
1000
,
0001
0010
0100
1000
,
2002
0000
0000
0000
,
3003
0000
0000
0000
;

//---------------dance-single - ----------------
#NOTES:
     dance-single:
     :
     Hard:
     12:
     0.527,0.630,0.075,0.131,0.272:
1001
0000
0000
0000
2000
0000
0000
3200
,
0000
0000
0320
0000
0000
0032
0000
0000
,
0000
2003
0000
0000
3002
0000
0000
0203
,
0000
0000
0320
0000
0000
2030
0000
0000
,
3001
0100
0001
0000
0100
0010
0100
0000
,
0010
1000
0010
0000
1000
0100
1000
0000
,
0001
0010
0001
0000
0100
0010
0100
0000
,
0001
0010
0100
1000
0001
0100
0010
1000
,
2002
0000
0000
3003
,
0001
0100
0010
0000
0100
0010
0000
1000
,
0100
0000
1000
0001
0000
0010
0100
1000
,
0001
0100
0010
0000
0100
0010
0000
1000
,
0100
0000
1000
0001
0000
0010
0100
1000
,
0001
1000
0100
0000
1000
0010
0000
0100
,
0001
0000
0010
0100
0000
1000
0100
0010
,
0001
1000
0100
0000
1000
0010
0000
0100
,
0001
0000
0010
0100
0000
1000
0001
0010
,
0100
0100
0010
0000
0001
1000
0000
0100
,
0010
0001
0100
0001
0000
0010
0100
1000
,
0010
0010
1000
0000
0001
0100
0000
0010
,
1000
0100
0001
0100
0000
1000
0001
0010
,
1000
0010
0001
0000
1000
0001
0000
0010
,
0100
1000
0010
1000
0000
0100
0010
0001
,
0100
0100
0001
0000
1000
0010
0000
0100
,
0001
1000
1000
0100
0010
0001
1000
0000
,
1001
0000
0000
0000
0000
0000
0010
1000
,
0001
0000
0000
0000
0000
0000
0100
0001
,
1000
0000
0000
0000
0000
0001
0010
0100
1000
0001
0100
0001
0000
0100
0001
0100
,
0010
0000
0000
0000
1000
0001
1000
0001
1000
0000
0000
0000
0000
0000
0010
1000
0010
0000
1000
0000
0100
0000
0010
0000
0001
0000
0000
0000
1000
0000
0000
0000
,
1010
0010
0010
0010
,
0010
1000
0100
0010
0001
0000
1000
0000
,
1001
0000
1000
0000
1000
0001
0010
0001
,
1000
0100
0010
0001
1000
0000
1000
0000
,
1001
0000
0000
0000
0001
0000
0000
0001
0000
0000
0001
0000
1000
0000
0100
0000
,
0010
0000
0100
0000
1000
0000
0000
1000
0000
0000
1000
0000
0001
0000
0100
0000
,
0010
0000
0100
0000
0001
0000
0000
0001
0000
0000
0001
0000
0100
0000
0010
0000
,
1000
0100
0010
0001
1000
0010
0100
0001
,
1001
0000
0000
0000
,
0000
0000
0002
0000
,
1003
0000
0001
0000
0100
0000
0001
0000
1000
0000
0000
0100
0000
0000
1000
0000
,
0001
0000
1000
0000
0010
0000
1000
0000
0001
0000
0000
0010
0000
0000
0001
0000
,
1000
0000
0001
0000
0010
0000
0001
0000
1000
0000
0000
0010
1000
0000
0100
0000
,
0010
0001
0001
1000
1000
0010
0100
0001
,
1000
0010
1000
0000
0001
0000
0010
0000
0001
0000
0000
1000
0000
0000
0010
0000
,
1000
0000
0001
0000
0010
0000
0001
0000
0100
0010
0100
0000
0010
0100
0010
0000
,
0000
1000
0100
1000
0000
0100
0010
0100
0010
0001
1000
0001
1000
0001
1000
0001
,
0000
1000
0000
0000
0100
0000
0000
0001
0000
0000
0100
0000
1000
0000
1000
0000
,
0001
0100
0001
0000
1000
0000
0100
0000
1000
0000
0100
0010
0000
0100
0010
0000
,
0001
0010
0001
0000
1000
0000
0100
0000
1000
0000
0010
0100
0000
0010
0100
0000
,
0001
0100
0001
0000
1000
0000
0100
0000
1000
0000
0100
0010
0000
0100
0010
0000
,
0000
0001
1000
0000
0010
0000
0100
0000
0001
0000
1000
0000
0001
0000
0001
0000
,
1000
0010
1000
0000
0001
0000
0100
0000
0010
0000
1000
0100
1000
0100
1000
0000
,
0001
0100
0001
0000
1000
0000
0010
0000
0100
0000
0001
1000
0001
1000
0001
0000
,
0100
0000
0100
0001
0000
0001
1000
0000
0100
1000
0100
1000
0001
0100
0001
0100
,
0000
0010
1000
0000
0001
0100
0000
0001
1000
0000
0100
0000
0010
0000
0001
0000
,
2002
0000
0000
0000
,
3003
0000
0000
0000
;

//---------------dance-single - ----------------
#NOTES:
     dance-single:
     :
     Medium:
     8:
     0.383,0.394,0.141,0.094,0.009:
2002
0000
0000
0000
,
0000
0000
0000
3003
,
0000
0220
0000
0000
0000
0000
0000
0000
,
0000
0000
0000
0330
,
1001
0001
0001
0001
,
1000
1000
1000
1000
,
0001
0010
0100
1000
,
0001
0100
0001
0100
0001
1000
0100
1000
,
2002
0000
0000
3003
,
1001
0000
0001
0000
1000
0010
0000
1000
,
0010
0000
0100
0001
0000
0100
0001
0000
,
1000
0000
1000
0000
0001
0100
0000
0001
,
0100
0000
0010
1000
0000
0010
1000
0000
,
1001
0000
0001
0000
1000
0100
0000
1000
,
0100
0000
0010
0001
0000
0010
0001
0000
,
1000
0000
1000
0000
0001
0010
0000
0001
,
0010
0000
0100
0000
1000
1000
1000
0000
,
0001
0100
0001
0000
0100
0001
0000
1000
,
0001
0000
1000
0001
0000
0010
0100
0000
,
1000
0010
1000
0000
0010
1000
0000
0001
,
1000
0000
0001
1000
0000
0100
0010
0000
,
0001
0010
0001
0000
1000
0010
0000
1000
,
0001
0000
1000
0001
0000
0010
0100
0000
,
1000
0100
1000
0000
0001
0100
0000
0001
,
1000
0000
0001
1000
0000
0100
0010
0001
,
1000
0000
0000
0000
0000
0000
0010
0100
,
0010
0000
0000
0000
0000
0000
0100
0010
,
0100
0000
0000
0000
0000
0001
1000
0000
0100
0000
0010
0000
0001
0000
1000
0000
,
0100
0000
0010
0000
0110
0000
0000
1000
0001
0000
0010
0000
0100
0000
1000
0000
,
1000
0001
1000
0001
,
1000
0100
0010
0001
,
0100
0010
0100
0010
,
1000
0100
0010
0001
,
0101
0001
0100
0001
,
1000
0010
1000
0010
,
1000
0100
0010
0001
,
1010
0010
0011
0010
,
2002
0000
0000
0000
,
3003
0000
0000
0000
,
0010
0100
0010
1000
0001
0000
0001
0000
,
0100
0010
0100
0001
1000
0000
1000
0000
,
0010
0100
0010
1000
0001
0000
0001
0000
,
1000
0001
1000
0000
0001
1000
0001
1000
,
0100
0010
0100
1000
0001
0000
0001
0000
,
0010
0100
0010
0001
1000
0000
1000
0000
,
0001
0010
0100
0000
0010
0001
1000
0001
,
1000
0000
0010
0000
0100
0100
0100
0000
,
0001
1000
0001
1000
0010
0000
1010
0000
,
0100
0001
0100
0001
1000
0000
1001
0000
,
0100
1000
0001
0010
0001
0000
1001
0000
,
0010
0001
0010
1000
,
0001
0010
0100
1000
0001
0100
0000
0100
,
0001
0010
0100
1000
0001
0000
0001
0000
,
1000
0001
1000
0100
0010
0001
0010
0100
,
1000
0000
0100
0000
0001
0100
1000
0001
,
2002
0000
0000
0000
,
3003
0000
0000
0000
;

//---------------dance-single - ----------------
#NOTES:
     dance-single:
     :
     Beginner:
     3:
     0.105,0.103,0.084,0.000,0.000:
1001
0000
0000
0000
,
0000
0000
0000
0000
,
0000
0000
0000
0000
,
0000
0000
0000
0000
,
1001
0000
0000
0000
,
0000
0000
0000
0000
,
0000
0000
0000
0000
,
0001
0000
0000
0000
,
1001
0000
0000
0000
,
0000
1000
0000
1000
,
0000
1000
0000
0000
,
0000
0001
0000
0001
,
0000
0001
0000
0000
,
0000
0100
0000
0100
,
0000
0100
0000
0000
,
0000
0010
0000
0010
,
0000
0010
0000
0000
,
0000
1000
0000
0010
,
0000
1000
0000
0000
,
0000
0001
0000
0100
,
0000
0001
0000
0000
,
0000
0100
0000
0010
,
0000
0100
0000
0000
,
0000
0010
0000
0100
,
0000
0010
0000
0000
,
1001
0000
0000
0000
,
0000
0000
0000
0000
,
0000
0000
0000
0000
,
0000
0000
0000
0000
,
1001
0000
0000
0000
,
0100
0000
0000
0000
,
1001
0000
0000
0000
,
0010
0000
0000
0000
,
1001
0000
0000
0000
,
0000
0000
0000
0000
,
1000
0000
0000
0000
,
0001
0000
1000
0000
,
1001
0000
0000
0000
,
0000
0000
0000
0000
,
0000
0010
0000
0100
,
0000
0001
0000
0010
,
0000
0001
0000
1000
,
0000
0001
0000
1000
,
0000
0100
0000
1000
,
0000
0010
0000
0100
,
0000
0001
0000
0100
,
0000
0010
0000
1000
,
0000
0100
0000
0010
,
0000
0001
0000
1000
,
0000
0001
0000
1000
,
0000
0010
0000
0100
,
0000
0001
0000
1000
,
0000
0001
0000
1000
,
0000
0001
0000
1000
,
0000
0000
0000
0000
,
1001
0000
0000
0000
;

//---------------dance-single - ----------------
#NOTES:
     dance-single:
     :
     Challenge:
     14:
     0.694,0.735,0.056,0.159,0.680: // measure 1
1001
0100
0010
0001
,  // measure 2
1000
0100
0010
0001
,  // measure 3
1000
0010
0100
0001
,  // measure 4
1000
0010
0100
0001
,  // measure 5
0100
0010
0100
0010
0100
0010
0100
0010
,  // measure 6
1000
0100
1000
0100
1000
0100
1000
0100
,  // measure 7
1000
0001
1000
0001
1000
0001
1000
0001
,  // measure 8
1000
0010
1000
0010
1000
0010
1000
0001
1000
0001
1000
0001
1000
0001
1000
0001
,  // measure 9
2000
0000
0000
3000
,  // measure 10
0001
0000
1000
0010
0200
0000
0000
0000
0010
0000
0310
0000
1000
0000
0001
0010
,  // measure 11
0200
0000
0010
0310
0001
1000
0100
0001
,  // measure 12
0100
0000
1000
0010
0200
0000
0000
0000
0001
0000
0301
0000
1000
0000
0001
0010
,  // measure 13
0200
0000
1000
1300
0001
1000
0010
0001
,  // measure 14
0010
0000
1000
0001
0020
0000
0000
0000
0100
0000
0130
0000
1000
0000
0001
0100
,  // measure 15
0020
0000
0100
0130
0001
1000
0010
0001
,  // measure 16
0010
0000
1000
0001
0200
0000
0000
0000
0001
0000
0301
0000
1000
0000
0001
0010
,  // measure 17
0200
0000
1000
1300
0001
0001
1000
1000
,  // measure 18
0001
0000
0010
0001
0200
0000
0000
0000
0010
0000
0310
0000
1000
0000
0001
0010
,  // measure 19
0200
0000
0010
0310
0001
1000
0010
0001
,  // measure 20
0010
0000
1000
0100
0020
0000
0000
0000
0001
0000
0031
0000
1000
0000
0001
0100
,  // measure 21
0020
0000
1000
1030
0001
1000
0100
0001
,  // measure 22
0100
0000
1000
0001
0010
0000
0001
0000
1000
0000
1000
0000
0001
0000
0100
0010
,  // measure 23
1000
0010
1000
1000
0001
0010
0100
1000
,  // measure 24
1001
0000
0001
0100
0001
0000
0000
0000
1001
0000
1000
0010
1000
0000
0100
0010
,  // measure 25
0100
0010
0001
0100
0001
0100
0001
1000
0001
1000
0001
1000
0001
1000
0001
1000
,  // measure 26
0001
0000
0000
0000
0000
0000
0010
0100
,  // measure 27
1000
0000
0000
0000
0000
0000
0001
0010
,  // measure 28
0100
0000
0000
0000
0000
1000
0010
0100
0001
0100
0010
1000
0000
1000
0001
0010
,  // measure 29
0100
0000
0000
0000
1000
0001
0100
0001
1000
0000
0000
0000
0000
0000
0001
1000
0001
0000
0010
0000
0100
0000
1000
0000
0001
0000
0000
0000
0100
0000
0000
0000
,  // measure 30
0110
0000
0100
0010
0100
0000
0100
0010
,  // measure 31
1000
0100
1000
0100
0010
0001
0010
0001
1000
0000
0000
0000
1000
0000
0000
0000
,  // measure 32
1001
0000
0001
0100
0001
1000
0100
0000
,  // measure 33
1000
0010
1000
0010
0100
0001
0100
0001
1000
0000
0000
0000
0001
0000
0000
0000
,  // measure 34
1001
0000
0001
0000
0100
0000
0000
0100
0000
0000
0100
0000
0001
0000
0010
0000
,  // measure 35
0100
0000
0010
0000
0001
0000
0000
0001
0000
0000
0001
0000
1000
0000
0010
0000
,  // measure 36
0100
0000
0010
0000
1000
0000
0000
1000
0000
0000
1000
0001
0010
0001
1000
0000
,  // measure 37
0010
0100
0010
0100
0010
0100
0010
0100
0001
1000
0001
1000
0001
1000
0001
1000
,  // measure 38
0001
0000
0000
0000
,  // measure 39
0000
0000
0000
0000
0000
0000
0000
0000
1000
0010
0100
0000
0010
0100
0001
0000
,  // measure 40
1000
0100
1000
0000
0001
0000
0001
0000
0010
0000
0100
1000
0000
1000
0001
0000
,  // measure 41
0100
0001
0100
0000
0001
0000
0001
0000
1000
0000
0100
0010
0000
0010
0001
0000
,  // measure 42
1000
0001
1000
0000
0010
0000
0010
0000
0100
0000
0001
1000
0010
1000
0010
0100
,  // measure 43
0000
0001
0010
0100
1000
0010
0100
0010
1000
0001
0010
0100
0000
0100
0010
0000
,  // measure 44
0001
1000
0001
0000
0100
0000
0100
0000
0001
0000
1000
0010
0000
0010
0100
0000
,  // measure 45
0001
1000
0001
0000
0010
0000
0010
0000
0100
1000
0010
1000
0100
0010
0100
0010
,  // measure 46
0000
0001
1000
0100
0000
0100
1000
0010
0100
0010
1000
0100
1000
0100
0010
0001
,  // measure 47
0000
2000
0000
0000
3200
0000
0000
0302
0000
0000
0103
0000
1000
0000
0001
0000
,  // measure 48
1000
0010
1000
0000
0001
0000
0001
0000
0010
0000
0100
0010
0000
0010
0001
0000
,  // measure 49
0010
0100
0010
0000
0001
0000
0001
0000
1000
0000
0010
1000
0000
1000
0100
0000
,  // measure 50
0010
0100
0010
0000
0001
0000
0001
0000
1000
0000
0010
0100
0000
0100
0001
1000
,  // measure 51
0000
1000
0100
0010
0001
0100
0010
0100
0001
1000
0100
1000
0100
0010
0001
0000
,  // measure 52
0010
0100
1000
0000
1000
0100
0010
0001
0100
0000
0001
1000
0010
1000
0001
0000
,  // measure 53
0010
0100
1000
0000
1000
0100
0010
0001
0100
0000
0001
1000
0010
1000
0001
0000
,  // measure 54
1000
0000
1000
0010
0000
0010
0100
0000
0001
0010
0001
0010
0100
0010
0100
1000
,  // measure 55
0010
0100
0010
1000
0001
0100
0001
0100
0001
0010
0100
1000
0001
0010
0100
1000
,  // measure 56
0002
0000
0000
0000
,  // measure 57
0003
0000
0000
0000
;
