#TITLE:neu;
#SUBTITLE:;
#ARTIST:少年ラジオ;
#TITLETRANSLIT:;
#SUBTITLETRANSLIT:;
#ARTISTTRANSLIT:SHOUNEN RADIO;
#GENRE:;
#CREDIT:DigiMindAxel;
#BANNER:neu.png;
#BACKGROUND:neu-bg.png;
#LYRICSPATH:neu.lrc;
#CDTITLE:pop'n music.png;
#MUSIC:neu.mp3;
#METERTYPE:DDR X;
#OFFSET:-13.080;
#SAMPLESTART:86.334;
#SAMPLELENGTH:12.000;
#SELECTABLE:YES;
#BPMS:0.000=95.000
;
#STOPS:
;
#BGCHANGES:;
#KEYSOUNDS:;
#ATTACKS:;

//---------------dance-single - ----------------
#NOTES:
     dance-single:
     :
     Medium:
     6:
     0.256,0.288,0.047,0.031,0.027,219.000,6.000,4.000,0.000,0.000,0.000,0.256,0.288,0.047,0.031,0.027,219.000,6.000,4.000,0.000,0.000,0.000: // measure 0
0001
0000
0001
0000
0001
0000
0001
1000
,  // measure 1
0001
0000
0010
0100
1000
0000
0000
0001
,  // measure 2
1000
0000
0000
1000
0001
0000
1000
0010
,  // measure 3
1000
0001
0010
0100
1000
0000
0000
0000
,  // measure 4
1001
0000
1000
0000
1000
0000
1000
0001
,  // measure 5
1000
0000
1000
0000
0100
0010
0001
1000
,  // measure 6
0010
0000
0000
1000
0001
0000
0000
0001
,  // measure 7
1000
1000
1000
0000
,  // measure 8
1001
0000
0010
0000
,  // measure 9
0100
0000
1000
0000
,  // measure 10
0010
0100
0010
0100
0010
0100
0010
0000
,  // measure 11
1000
0001
1000
0001
1000
0001
1000
0000
,  // measure 12
0001
0100
0001
0100
0001
0100
0001
0000
,  // measure 13
1000
0010
1000
0010
1000
0010
1000
0000
,  // measure 14
0001
0001
1000
1000
0001
0010
0100
1000
,  // measure 15
0001
0001
1000
1000
0001
0100
0010
1000
,  // measure 16
2002
0000
0000
0000
,  // measure 17
0000
0000
0000
3003
,  // measure 18
2002
0000
0000
0000
,  // measure 19
0000
0000
0000
3003
,  // measure 20
0000
0000
0010
0100
0001
0000
0010
0100
,  // measure 21
0000
0000
0000
1000
0100
0010
0001
0100
,  // measure 22
0100
0000
0000
0010
0100
0000
0000
0100
,  // measure 23
0001
0000
1000
0100
0010
0000
0001
0010
,  // measure 24
0000
0000
0000
0001
0010
0100
1000
0010
,  // measure 25
0100
0000
0000
0001
1000
0000
1000
0000
,  // measure 26
1001
0000
0001
0000
0001
0000
0001
1000
,  // measure 27
1001
1000
1000
1000
,  // measure 28
0000
0001
0010
0001
1000
0000
0010
0010
,  // measure 29
1000
0100
0010
0001
0010
0100
1000
0001
,  // measure 30
0100
0001
1000
1000
0001
0100
1000
0100
,  // measure 31
0001
1000
0100
0010
0001
0010
0100
1000
,  // measure 32
0001
0001
1000
1000
0001
0100
1000
0100
,  // measure 33
0001
0000
1000
0000
0000
1000
0000
0000
0001
0000
0000
0001
0000
0000
0001
0000
,  // measure 34
1000
0010
1000
1000
0001
0010
0100
1000
,  // measure 35
0100
0010
0100
0000
1000
0000
1000
0000
0010
0100
0010
0000
1000
0000
0001
0000
,  // measure 36
0010
0100
0010
0000
0001
0000
0001
0000
0010
0000
0100
0000
1000
0100
0010
0001
,  // measure 37
1000
0000
0010
0010
1000
0000
1000
0000
,  // measure 38
1000
0000
1000
1000
0001
0000
0001
0000
,  // measure 39
0001
0000
0001
0001
0010
0000
0010
0000
,  // measure 40
0100
0000
0100
0000
1000
0000
1000
0001
;

//---------------dance-single - ----------------
#NOTES:
     dance-single:
     :
     Hard:
     10:
     0.366,0.509,0.117,0.086,0.239,301.000,15.000,11.000,0.000,0.000,0.000,0.366,0.509,0.117,0.086,0.239,301.000,15.000,11.000,0.000,0.000,0.000: // measure 0
0001
0000
0001
0000
0011
0000
0100
1000
,  // measure 1
0001
0000
0010
0100
1000
0000
1000
0001
,  // measure 2
0100
0000
0001
0100
0001
0000
0010
0100
,  // measure 3
1000
0001
0100
0010
1000
0000
1000
0000
,  // measure 4
1001
0000
0010
0000
0110
0000
0010
1000
,  // measure 5
0001
0000
0001
0000
0001
1000
0100
0010
,  // measure 6
0002
0000
0000
1000
1003
0000
0000
0010
,  // measure 7
0011
1010
1001
0000
,  // measure 8
2000
0000
3200
0000
,  // measure 9
0320
0000
0032
0000
,  // measure 10
1003
0010
0100
0010
1000
0100
0010
0001
,  // measure 11
1000
0010
0100
0010
1000
0100
0010
0001
,  // measure 12
0100
0010
0100
0001
1000
0100
0010
0001
,  // measure 13
0100
0010
0100
0001
1000
0100
0010
0100
,  // measure 14
1000
1000
0010
0100
0010
0010
1000
0001
,  // measure 15
0100
0100
0010
1000
0001
0001
0010
0100
,  // measure 16
2200
0000
0000
0000
,  // measure 17
0000
0000
0000
3300
,  // measure 18
0202
0000
0000
0000
,  // measure 19
0000
0000
0000
0000
,  // measure 20
0303
0000
0001
0100
1000
0000
0100
0001
,  // measure 21
1000
0000
1000
0001
0010
0100
1000
0001
,  // measure 22
0001
0000
0100
0001
2000
0000
0000
0001
,  // measure 23
3001
0000
1000
0010
0001
0000
0010
1000
,  // measure 24
0001
0000
0001
1000
0100
0010
0001
1000
,  // measure 25
1000
0000
0010
1000
0001
0000
0001
0000
,  // measure 26
0001
0100
0001
1000
0100
0000
0100
1000
,  // measure 27
0001
0010
0100
1000
0001
0010
0100
1000
,  // measure 28
0000
0000
0001
0000
0001
0000
1000
0000
0100
0000
1000
0100
1000
0001
0100
0000
,  // measure 29
0001
0100
0001
0100
0001
0010
0100
0000
1000
0100
1000
0100
1000
0010
0100
0000
,  // measure 30
0001
0010
0001
0010
0100
1000
0001
0000
1000
0100
1000
0100
0010
0001
0010
0100
,  // measure 31
1000
0001
0100
0001
1000
0100
1000
0001
0100
0001
1000
0100
1000
0001
0100
0001
,  // measure 32
1000
0100
0001
0100
1000
0100
0010
0001
1000
0010
0001
0010
1000
0010
0100
0001
,  // measure 33
1001
0000
1000
0100
0000
1000
0100
0000
0010
0001
0000
0010
0001
0000
0100
0010
,  // measure 34
1000
0100
0010
0100
1000
0001
1000
0000
0100
0010
0001
0010
0100
1000
0010
0100
,  // measure 35
0001
0100
1000
0100
0001
0010
0100
1000
0001
0010
1000
0010
0001
0100
0010
1000
,  // measure 36
0001
0000
0000
0010
0000
0000
0100
0000
0000
0010
0000
0000
0001
0000
0000
1000
0000
0000
0010
0000
0000
1000
0000
0000
0001
0000
0000
0010
0000
0000
0100
0000
0000
1000
0000
0000
0001
0000
0100
0000
0001
0000
0100
0000
0010
0000
1000
0000
,  // measure 37
0010
0000
0110
0110
0001
0000
0010
0100
,  // measure 38
1000
0000
1100
1100
1000
0000
0100
1000
,  // measure 39
0001
0000
0101
0101
0001
0000
0100
0001
,  // measure 40
1000
0100
0010
0001
0010
0100
1000
0002
,  // measure 41
0000
0000
0000
0000
,  // measure 42
0003
0000
0000
0000
;

//---------------dance-single - ----------------
#NOTES:
     dance-single:
     :
     Easy:
     4:
     0.155,0.159,0.078,0.039,0.000,124.000,10.000,5.000,0.000,0.000,0.000,0.155,0.159,0.078,0.039,0.000,124.000,10.000,5.000,0.000,0.000,0.000: // measure 0
1000
1000
0001
0001
,  // measure 1
1000
0100
0010
0000
,  // measure 2
1001
0000
1001
0010
,  // measure 3
0100
1000
0001
0000
,  // measure 4
0001
1000
0100
1000
,  // measure 5
0010
0100
0001
0010
,  // measure 6
0100
0000
1001
0000
,  // measure 7
1001
0001
0001
0000
,  // measure 8
1001
0000
0010
0000
,  // measure 9
0100
0000
1000
0000
,  // measure 10
1000
0100
0010
0001
,  // measure 11
0010
0100
1000
0010
,  // measure 12
0100
0001
0100
0010
,  // measure 13
1000
0001
1000
0001
,  // measure 14
2000
0001
3001
0100
,  // measure 15
0002
1000
1003
0100
,  // measure 16
1001
0000
0000
0000
,  // measure 17
0000
0000
0000
0000
,  // measure 18
1001
0000
0000
0000
,  // measure 19
0000
0000
0000
0000
,  // measure 20
0000
0010
0100
0001
,  // measure 21
0000
0000
0010
0100
,  // measure 22
1000
0000
0002
0000
,  // measure 23
1003
0001
0010
0100
,  // measure 24
0000
0000
0010
0001
,  // measure 25
0100
0000
0001
1000
,  // measure 26
0002
0000
0000
1003
,  // measure 27
0200
0000
0000
0000
,  // measure 28
0300
0000
0000
0000
,  // measure 29
1000
0100
0010
0100
,  // measure 30
1000
0001
0010
0100
,  // measure 31
0010
0001
0100
0010
,  // measure 32
1000
0010
0100
0001
,  // measure 33
1001
1000
0001
0001
,  // measure 34
0010
0100
1000
0100
,  // measure 35
0010
0001
1000
0010
,  // measure 36
0100
0000
0001
0000
1000
0000
0001
1000
,  // measure 37
0001
0001
0001
0001
,  // measure 38
0001
0110
0100
0100
,  // measure 39
0100
1001
1000
1000
,  // measure 40
1000
0100
0010
0001
;

//---------------dance-single - ----------------
#NOTES:
     dance-single:
     :
     Beginner:
     2:
     0.089,0.079,0.039,0.008,0.000,74.000,5.000,1.000,0.000,0.000,0.000,0.089,0.079,0.039,0.008,0.000,74.000,5.000,1.000,0.000,0.000,0.000: // measure 0
0001
0000
0001
0000
,  // measure 1
0001
0000
1000
0000
,  // measure 2
0001
0000
1000
0000
,  // measure 3
0010
0000
0110
0000
,  // measure 4
0001
0000
0010
0000
,  // measure 5
0001
0000
1000
0000
,  // measure 6
0100
0000
1000
0000
,  // measure 7
0010
0000
0110
0000
,  // measure 8
1000
0000
0100
0000
,  // measure 9
0010
0000
0001
0000
,  // measure 10
0001
0000
0010
0000
,  // measure 11
0100
0000
1000
0000
,  // measure 12
1000
0000
0010
0000
,  // measure 13
0100
0000
0001
0000
,  // measure 14
0100
0000
0010
0000
,  // measure 15
1000
0000
0001
0000
,  // measure 16
1001
0000
0000
0000
,  // measure 17
0000
0000
0000
0000
,  // measure 18
1001
0000
0000
0000
,  // measure 19
0000
0000
0000
0000
,  // measure 20
0010
0000
0010
0000
,  // measure 21
0010
0000
1000
0000
,  // measure 22
1000
0000
0001
0000
,  // measure 23
0001
0000
0100
0000
,  // measure 24
0100
0000
0010
0000
,  // measure 25
0010
0000
1000
0000
,  // measure 26
0100
0000
0010
0000
,  // measure 27
0002
0000
0000
0000
,  // measure 28
1003
0000
0000
0000
,  // measure 29
1000
0000
0010
0000
,  // measure 30
0100
0000
0001
0000
,  // measure 31
0100
0000
0010
0000
,  // measure 32
1000
0000
0010
0000
,  // measure 33
0100
0000
0001
0000
,  // measure 34
0010
0000
0100
0000
,  // measure 35
1000
0000
0100
0000
,  // measure 36
0010
0000
0001
0000
,  // measure 37
1001
0000
0100
0000
,  // measure 38
0010
0000
1000
0000
,  // measure 39
0010
0000
0100
0000
,  // measure 40
0001
0000
1000
0000
;
