#TITLE:neu HYPER;
#SUBTITLE:;
#ARTIST:少年ラジオ;
#TITLETRANSLIT:;
#SUBTITLETRANSLIT:;
#ARTISTTRANSLIT:SHOUNEN RADIO;
#CREDIT:DigiMindAxel;
#BANNER:neu HYPER.png;
#BACKGROUND:neu HYPER-bg.png;
#LYRICSPATH:;
#CDTITLE:pop'n music.png;
#MUSIC:neu HYPER.mp3;
#METERTYPE:DDR X;
#OFFSET:-8.686;
#SAMPLESTART:23.121;
#SAMPLELENGTH:12.000;
#SELECTABLE:YES;
#BPMS:0.000=99.250,8.000=198.500,36.000=99.250,38.000=198.500,102.000=99.250,150.000=198.500,310.000=93.500,319.500=99.250;
#DISPLAYBPM:99:199;
#STOPS:;
#BGCHANGES:;

//---------------dance-single - ----------------
#NOTES:
     dance-single:
     :
     Easy:
     7:
     0.314,0.346,0.141,0.133,0.000:
1001
0000
0000
0000
,
0000
0000
0000
0000
,
0001
0010
0100
1000
,
0100
0010
0001
1000
,
0010
0100
0010
0100
,
0001
1000
0001
1000
,
0001
0010
0100
1000
,
0100
0010
0001
1000
,
0010
0100
0001
1000
,
0001
0000
1000
0100
,
0010
0001
0010
0100
,
1000
0001
0100
0010
,
0100
0001
0100
0010
,
1000
0001
1000
0100
,
0010
0100
1000
0001
,
0010
0100
0010
0001
,
1000
0100
0010
0001
,
0010
0100
2001
0001
,
0001
3001
0100
0110
,
0100
0110
0000
1002
,
1000
1000
1003
0010
,
0110
0010
0110
0010
,
0100
0001
0100
0010
,
0100
0010
1000
0100
,
0010
0001
0010
0100
,
1000
0001
2000
0000
,
0000
0000
0000
0000
,
3200
0000
0000
0000
,
0000
0000
2300
0000
,
0000
3002
0000
0000
,
2003
0000
0000
0000
,
0000
0000
3020
0000
,
0000
0000
0130
0000
0000
0100
0000
0000
,
0002
0000
0000
0000
,
0000
0000
0000
0000
0013
0000
0000
0100
,
0000
2000
0000
0000
,
3001
0000
0000
1000
0000
0000
0001
0000
,
0000
0000
0000
0000
1001
0000
0000
1000
,
0000
0000
0001
0000
0000
1000
0000
0000
,
0001
0000
1000
0000
0010
0000
0000
1000
,
0000
0000
0010
0000
0000
1000
0000
0000
,
0001
0000
1000
0000
0001
0000
0000
0010
,
0000
0000
0001
0000
0000
0010
0000
0000
,
0001
0000
1000
0000
0100
0000
0000
0010
,
0000
0000
0100
0000
0000
0010
0000
0000
,
0001
0000
1000
0000
1001
0000
0000
1000
,
0000
0000
0001
0000
0000
1000
0000
0000
,
0001
0000
1000
0000
1001
0000
0000
0001
,
0000
0000
1000
0000
0000
0001
0000
0000
,
1000
0000
0010
0000
0110
0000
0000
0100
,
0000
0000
0010
0000
0000
0100
0000
0000
,
0010
0000
0100
0000
0110
0000
0000
0010
,
0000
0000
0100
0000
0000
0010
0000
0000
,
0100
0001
1001
0010
,
0001
0010
0001
0010
,
0100
1000
0100
1000
,
0100
1000
0100
0010
,
0001
0100
0010
0100
,
0010
0100
0010
1000
,
0100
0010
2002
0000
,
0000
3003
0220
0000
,
0000
0330
1001
0010
,
0001
0100
0001
0010
,
0001
0100
0010
1000
,
0100
0010
0100
1000
,
0100
0010
0100
1000
,
0001
0010
0100
1000
,
0100
0010
0001
0100
,
0001
0010
0001
0100
,
0001
1000
1001
0100
,
1000
0100
0010
0001
,
0010
0001
0000
0001
,
0010
0100
1000
0010
,
0100
0000
0010
0000
2000
0000
0000
3001
,
0000
0010
0001
0010
,
0100
1000
0010
0100
,
0010
1000
0100
0010
,
0001
1000
2002
0000
,
0000
0000
0000
0000
,
0000
0000
0000
0000
,
0000
3003
0000
0000
;

//---------------dance-single - ----------------
#NOTES:
     dance-single:
     :
     Medium:
     11:
     0.526,0.567,0.424,0.094,0.000: // measure 1
1001
1000
0001
1000
,  // measure 2
0001
0000
1000
0000
0001
0000
1000
1000
,  // measure 3
1001
1001
1001
1001
,  // measure 4
0101
0101
0101
0101
,  // measure 5
1001
1001
1001
1001
,  // measure 6
1100
1100
1100
1100
,  // measure 7
1001
0010
0100
1000
,  // measure 8
0100
0010
0001
1000
,  // measure 9
0001
1000
0001
1000
0001
1000
0001
1000
,  // measure 10
0002
0000
0000
0003
1001
0000
1000
0100
,  // measure 11
1000
0000
0100
0010
0100
0000
1000
0001
,  // measure 12
0010
0000
0100
1000
0001
0000
0100
0010
,  // measure 13
0100
0010
0100
0000
0001
0000
0010
0000
,  // measure 14
0100
0010
0001
1000
0001
0010
0001
0000
,  // measure 15
0010
0100
0010
0000
0001
1000
0100
0000
,  // measure 16
0010
0001
1000
0000
0010
0100
0010
0100
,  // measure 17
0010
0000
1000
0000
0001
0000
1000
0100
,  // measure 18
0010
0001
1000
0000
1001
0000
1000
0001
,  // measure 19
0000
1000
0001
0000
0010
0100
0000
0010
,  // measure 20
0100
0000
1000
0001
1000
0001
1000
0000
,  // measure 21
0010
0000
0100
0000
0001
1000
0001
0000
,  // measure 22
0100
0010
0100
0000
0001
1000
0000
0001
,  // measure 23
1000
0000
0010
0100
0000
0010
0100
0000
,  // measure 24
0001
1000
0001
1000
0001
0000
0100
0000
,  // measure 25
0010
1000
0010
0100
,  // measure 26
0001
0000
1000
0000
1002
0100
0100
0000
,  // measure 27
1000
1000
0000
0100
0100
0000
1000
1003
,  // measure 28
0001
0001
1000
0001
0100
1000
0100
0001
,  // measure 29
2000
0000
0100
0100
0000
0001
0001
0000
,  // measure 30
0100
3100
1000
1000
0001
0010
1000
0010
,  // measure 31
0002
1000
1000
0000
0100
0100
0000
1000
,  // measure 32
1000
0000
0100
0103
0001
1000
0100
0010
,  // measure 33
0001
1000
0001
0001
0100
0100
0010
0010
,  // measure 34
2000
0001
0001
0000
0100
0100
0000
0001
,  // measure 35
0001
0000
0100
3100
1000
0001
0010
0100
,  // measure 36
0010
0001
2000
0000
3001
0010
0100
1000
,  // measure 37
0002
0000
1000
1000
0000
0010
0013
0001
,  // measure 38
0000
1000
0100
0010
1001
0000
0000
0110
,  // measure 39
0000
0000
1001
0000
0000
0110
0000
0000
,  // measure 40
1001
0000
0100
0000
1001
0000
0000
0110
,  // measure 41
0000
0000
1001
0000
0000
0110
0000
0000
,  // measure 42
1001
0000
0010
0000
1001
0000
0000
1010
,  // measure 43
0000
0000
0101
0000
0000
1010
0000
0000
,  // measure 44
0101
0000
0100
0000
1001
0000
0000
0101
,  // measure 45
0000
0000
1010
0000
0000
0101
0000
0000
,  // measure 46
1010
0000
0010
0000
1001
0000
0100
1000
,  // measure 47
0000
0100
1000
0000
0001
1000
0000
0010
,  // measure 48
0100
0000
0001
0000
1001
0000
0010
0001
,  // measure 49
0000
0010
0001
0000
1000
0001
0000
0100
,  // measure 50
0010
0000
1000
0000
1001
0000
0001
1000
,  // measure 51
0000
0001
1000
0000
0010
1000
0000
0001
,  // measure 52
0100
0000
0001
0000
1001
0000
1000
0001
,  // measure 53
0000
1000
0001
0000
0010
0001
0000
1000
,  // measure 54
0100
1000
1001
0001
,  // measure 55
1000
0001
1000
0100
,  // measure 56
0001
0100
1000
0001
,  // measure 57
1000
0001
1000
0010
,  // measure 58
0001
0010
1000
0001
,  // measure 59
1000
0001
0100
1000
,  // measure 60
0100
0000
0001
0000
0100
0010
0100
0010
,  // measure 61
0100
0010
1000
0001
1000
0001
1000
0001
,  // measure 62
1000
0001
1000
0000
1001
0000
1000
0010
,  // measure 63
1000
0000
0001
1000
0001
0000
0010
0100
,  // measure 64
1000
0000
0010
1000
0100
0000
0010
0001
,  // measure 65
0100
0000
0001
1000
0001
1000
0001
1000
,  // measure 66
0001
1000
0001
0100
0010
0000
1000
0001
,  // measure 67
1000
0000
0001
0010
0001
0000
1000
0010
,  // measure 68
0100
0000
0010
1000
0100
0000
0010
0001
,  // measure 69
0100
0000
0001
1000
0001
0000
0100
0010
,  // measure 70
0100
0010
0100
0000
2001
0000
0100
0000
,  // measure 71
0001
0100
3001
1001
,  // measure 72
1000
1001
1000
0002
,  // measure 73
0100
1000
0100
1003
,  // measure 74
1001
0000
0001
0000
1002
0000
0000
0103
,  // measure 75
0000
0001
0100
0001
1000
0000
0001
0000
,  // measure 76
1001
0000
0100
1000
0010
0000
0100
0001
,  // measure 77
0010
0000
0001
0010
0100
0000
0010
0100
,  // measure 78
1000
0001
2002
0000
,  // measure 79
0000
0000
0000
0000
,  // measure 80
0000
0000
0000
0000
,  // measure 81
0000
3003
0000
0000
;

//---------------dance-single - ----------------
#NOTES:
     dance-single:
     :
     Hard:
     13:
     0.626,0.692,0.298,0.094,0.075: // measure 1
1001
1000
0001
1000
,  // measure 2
0001
0000
0000
0000
1000
0000
0010
0000
0000
0010
0000
0000
0100
0000
0100
0000
,  // measure 3
1001
0001
1000
1000
,  // measure 4
0001
0001
0010
0010
,  // measure 5
0100
0100
0010
0010
,  // measure 6
0001
0001
1000
1000
,  // measure 7
0010
1000
0010
1000
0010
1000
0010
1000
,  // measure 8
0001
0100
0001
0100
0001
0100
0001
0100
,  // measure 9
0001
0010
0100
1000
0100
0010
0001
2000
,  // measure 10
0002
0000
0000
3003
1001
0000
1000
0010
,  // measure 11
0100
0010
1000
0000
0100
0010
0001
0010
,  // measure 12
0100
0010
0001
0000
1000
0001
0010
0000
,  // measure 13
0001
0010
0100
0000
1000
0100
0001
0100
,  // measure 14
1000
0001
1000
0000
0001
0100
0010
0100
,  // measure 15
0001
0100
0010
0000
1000
0100
0010
0100
,  // measure 16
1000
0100
0010
0000
0001
0100
1000
0100
,  // measure 17
0001
1000
0001
0000
1000
0100
0001
0100
,  // measure 18
1000
0001
1000
0000
1001
0000
0001
1000
,  // measure 19
0000
0001
1000
0000
0100
0010
0000
0100
,  // measure 20
0010
0000
0001
0100
0010
1000
0000
0010
,  // measure 21
1000
0000
0001
0010
0000
0001
0010
0000
,  // measure 22
0001
1000
0010
1000
0001
0010
0100
1000
,  // measure 23
0000
0001
1000
0100
1000
0001
1000
0100
,  // measure 24
0010
0000
0001
1000
0100
1000
0100
0010
,  // measure 25
0001
0010
0001
1000
0010
0100
0001
1000
,  // measure 26
0010
0100
0001
1000
0000
0001
0001
1000
,  // measure 27
0100
0100
0010
0100
0100
1000
0010
0010
,  // measure 28
0100
0000
0100
0000
0100
0000
0001
0010
0100
1000
0001
0100
0002
0000
1000
0000
,  // measure 29
1003
0020
0000
0030
1000
0001
0001
0100
,  // measure 30
0001
0000
0001
0000
0010
0100
0010
0100
1000
0010
1000
0010
1000
0001
1000
0000
,  // measure 31
0100
0010
0010
0001
0100
0100
0001
0010
,  // measure 32
0010
0100
1000
1000
0020
0000
0130
0002
,  // measure 33
0000
0000
1003
0000
0001
0100
0001
0100
0010
1000
0010
1000
0001
1000
0001
1000
,  // measure 34
0001
0100
0100
0001
1000
1000
0100
0010
,  // measure 35
0010
0100
1000
1000
0020
0000
1030
0002
,  // measure 36
0000
0100
0203
0000
0301
0010
0100
1000
,  // measure 37
0200
0000
0000
0000
0310
0000
0002
0000
0000
0000
1003
0000
0001
0000
0000
1000
,  // measure 38
0001
0000
1000
0100
0010
0001
0010
0100
1001
0000
0000
0000
0000
0000
1100
0000
,  // measure 39
0000
0000
0110
0000
0000
0011
0000
0000
,  // measure 40
0110
0000
1001
0000
1001
0000
0000
0101
,  // measure 41
0000
0000
0110
0000
0000
1010
0000
0000
,  // measure 42
0110
0000
1001
0000
1001
0000
0000
0101
,  // measure 43
0000
0000
0110
0000
0000
1010
0000
0000
,  // measure 44
0110
0000
1001
0000
1001
0000
0000
0011
,  // measure 45
0000
0000
0110
0000
0000
1100
0000
0000
,  // measure 46
0110
0000
1001
0000
1001
0000
0001
0100
,  // measure 47
0000
0100
0010
0000
0010
1000
0000
1000
,  // measure 48
0100
0000
1100
0000
1001
0000
1000
0100
,  // measure 49
0000
0100
0010
0000
0010
0001
0000
0001
,  // measure 50
0100
0000
0101
0000
1001
0000
0001
0100
,  // measure 51
0000
0100
1000
0000
1000
0100
0000
0100
,  // measure 52
0001
0000
1001
0000
1001
0000
0001
0100
,  // measure 53
0000
0100
1000
0000
1000
0100
0000
0100
,  // measure 54
0001
0000
1001
0000
1000
0100
0010
0100
,  // measure 55
1000
0010
1000
0000
0001
0000
1000
0100
,  // measure 56
0010
0001
0010
0100
1000
0010
0100
0010
,  // measure 57
1000
0001
1000
0000
0001
0010
0100
1000
,  // measure 58
0100
0010
0001
0000
1000
0010
0100
0010
,  // measure 59
1000
0001
1000
0000
0001
0000
1000
0100
,  // measure 60
0010
0100
1000
0000
0001
0100
0001
0100
,  // measure 61
0001
0100
0001
0100
0001
1000
0001
1000
,  // measure 62
0001
1000
0001
1000
0001
0010
0100
0010
,  // measure 63
0001
0010
0100
0010
0001
1000
0100
1000
,  // measure 64
0010
1000
0100
0000
1000
0001
0010
0001
,  // measure 65
1000
0001
0010
0001
1000
0100
0001
0100
,  // measure 66
1000
0001
1000
0000
0001
1000
0010
1000
,  // measure 67
0001
1000
0010
1000
0001
0010
1000
0010
,  // measure 68
0001
1000
0001
0000
1000
0001
1000
0100
,  // measure 69
0001
0100
1000
0001
1000
0010
0001
0010
,  // measure 70
1000
0001
1000
0000
1001
0000
1000
0100
,  // measure 71
1000
0001
0100
0001
1000
0100
1000
0001
,  // measure 72
0010
0100
1000
0001
1000
0010
1000
0001
,  // measure 73
0010
0001
1000
0010
1000
0001
0100
0010
,  // measure 74
1000
0010
0100
0001
1000
0100
0010
0001
,  // measure 75
0001
0000
0100
0010
1000
0010
0100
0001
,  // measure 76
0001
0000
1000
0100
0001
0100
1000
0001
,  // measure 77
0010
1000
0010
0001
1000
0100
0010
0001
,  // measure 78
0010
0100
1000
0001
1001
0000
0000
0000
,  // measure 79
0100
0010
0001
1000
,  // measure 80
0020
0000
0000
0000
,  // measure 81
0000
0030
0000
0000
;

//---------------dance-single - ----------------
#NOTES:
     dance-single:
     :
     Challenge:
     16:
     0.738,0.724,0.306,0.118,0.247: // measure 1
1002
0010
0010
0000
0013
0000
0100
1000
,  // measure 2
0010
0000
0000
0000
0100
0000
0100
0010
0000
0010
0100
0000
0001
0010
0100
1000
,  // measure 3
0001
1001
1100
1100
,  // measure 4
1001
1001
0011
0011
,  // measure 5
0100
1000
0100
1000
0001
0100
0010
0000
,  // measure 6
0100
0001
0100
0001
1000
0100
0010
0000
,  // measure 7
0001
0010
0100
1000
0100
0010
0001
1000
,  // measure 8
0010
0100
0001
0100
0010
1000
0001
0010
,  // measure 9
0100
0010
0001
1000
0010
0100
0010
1000
,  // measure 10
1001
0000
0000
0000
1000
0100
0010
0001
1000
0000
0010
0000
0100
0000
0010
0000
,  // measure 11
1000
0000
0001
0000
0010
0000
0001
0000
1000
0001
1000
0000
0100
0000
0010
0000
,  // measure 12
0001
0100
0010
0000
1000
0100
0010
0100
,  // measure 13
1000
0000
0001
0000
0100
0000
0001
0000
1000
0000
0001
1000
0001
0000
0000
0000
,  // measure 14
0100
0000
0010
0100
0010
0000
0000
0000
1000
0000
0100
0000
0001
0000
0100
0000
,  // measure 15
1000
0001
1000
0010
0001
0010
1000
0001
,  // measure 16
1000
0100
0010
0000
0001
0010
1000
0010
,  // measure 17
0001
1000
0001
0100
1000
0100
0001
1000
,  // measure 18
0001
0010
0100
1000
0001
0000
1000
1000
,  // measure 19
0010
0100
0100
0001
0010
0100
0010
0001
,  // measure 20
1000
0010
0100
0010
1000
0000
0001
0001
,  // measure 21
0010
0000
0100
0000
0100
0000
0010
0000
0001
0000
1000
0001
1000
0000
0000
0000
,  // measure 22
0010
0000
0100
0010
0100
0000
0000
0000
0001
0000
1000
0010
1000
0000
0001
0000
,  // measure 23
0010
0100
0010
0001
1000
0000
0100
0010
,  // measure 24
0001
1000
0001
0000
1000
0000
1000
0000
0010
0000
0100
0010
0100
0000
0001
0000
,  // measure 25
1000
0000
0001
1000
0001
0000
0010
0000
0100
0000
1000
0010
1000
0000
0100
0010
,  // measure 26
0100
1000
0001
1000
2001
0000
0100
3200
,  // measure 27
0000
0000
1300
0100
0010
0001
0010
0100
,  // measure 28
1000
0000
1000
0000
1000
0000
0100
0010
0001
0010
0100
1000
0002
0000
1000
0000
,  // measure 29
1003
0020
0000
0000
0130
0001
0010
0100
,  // measure 30
0010
0000
0000
0000
0001
1000
0010
1000
0001
0010
0100
1000
0100
0010
0001
0100
,  // measure 31
0010
0100
0100
0000
0010
0010
0000
1000
,  // measure 32
1000
0000
0000
0000
0001
0000
0001
1000
0200
0000
0000
0000
1000
0000
1300
0000
,  // measure 33
0000
0000
0000
0000
0001
0100
0010
0100
0001
0010
0100
1000
0100
0010
0001
1000
,  // measure 34
0020
0000
0100
0130
0000
0001
0001
0000
,  // measure 35
0000
0000
0000
0100
0020
0000
1000
1030
,  // measure 36
0000
0001
0200
0000
0301
1000
0001
0010
,  // measure 37
1000
0000
0010
0000
0001
0000
1000
0000
0000
0000
0010
0000
0100
0000
0000
0001
,  // measure 38
1000
0000
1000
0001
0010
0100
1000
0001
1000
0000
0001
0000
1000
0000
0100
0000
,  // measure 39
1100
0000
0010
0100
1000
0010
0110
0000
,  // measure 40
1001
0000
1001
0000
1000
0100
0010
0100
,  // measure 41
1100
0000
0100
0010
0001
0100
0110
0000
,  // measure 42
1010
0000
1001
0000
0001
0010
0100
1000
,  // measure 43
1001
0000
0010
0100
1000
0100
0110
0000
,  // measure 44
0101
0000
1001
0000
1000
0010
0100
0001
,  // measure 45
1001
0000
0100
0010
0001
0010
0110
0000
,  // measure 46
1100
0000
1001
0000
1000
0100
0001
0100
,  // measure 47
1000
0001
0010
0100
1000
0001
0101
0000
,  // measure 48
1010
0000
1001
0000
0001
0010
1000
0010
,  // measure 49
0001
1000
0010
0100
0001
0010
0100
1000
,  // measure 50
1100
0000
1001
0000
1000
0010
0001
0010
,  // measure 51
1000
0100
0010
0100
1000
0001
0100
0001
,  // measure 52
0101
0000
1001
0000
0001
0100
1000
0100
,  // measure 53
0001
0010
0100
0010
0001
1000
1001
0000
,  // measure 54
0010
0100
0010
0000
0201
0000
0010
0000
,  // measure 55
0001
0000
0310
1000
0100
0000
0010
0100
,  // measure 56
1000
0010
0100
0000
1020
0000
0100
0000
,  // measure 57
1000
0000
0130
0001
0010
0000
0100
0010
,  // measure 58
0001
0100
0010
0000
2001
0000
0100
0000
,  // measure 59
0001
0000
3100
1000
0001
0000
0100
0010
,  // measure 60
1000
0100
0010
0000
0001
1000
0010
1000
,  // measure 61
0001
0010
0100
0010
0001
1000
0100
0001
,  // measure 62
0100
0000
1000
0000
0001
0000
0000
0000
1000
0000
0001
0100
0001
0000
1000
0000
,  // measure 63
0100
0000
0010
0000
0100
0000
1000
0000
0001
0000
0100
0010
0100
0000
0001
0000
,  // measure 64
1000
0000
0100
0000
0010
0000
0001
0000
1000
0010
1000
0000
0100
0000
0010
0000
,  // measure 65
0001
1000
0001
0000
1000
0000
0100
0000
1000
0001
1000
0001
1000
0000
0000
0000
,  // measure 66
0001
1000
0001
1000
0001
0000
0010
0000
0100
0000
1000
0000
0001
0100
0001
0100
,  // measure 67
0001
0000
1000
0000
0100
0000
1000
0000
0001
0000
0100
0000
0010
0100
0010
0100
,  // measure 68
0010
0000
0100
0000
0001
0000
0010
0000
0100
1000
0100
0000
0010
0000
0100
1000
,  // measure 69
0100
0000
0010
0000
0001
0100
0001
0000
1000
0000
0010
0000
1000
0000
0001
0000
,  // measure 70
0010
0100
1000
0001
1001
0000
1000
0100
,  // measure 71
0001
0100
1000
0001
0010
0001
0100
0010
,  // measure 72
1000
0001
0100
0001
1000
0001
1000
0010
,  // measure 73
0001
0010
1000
0001
0100
0001
0010
0100
,  // measure 74
1000
0000
0001
0000
0100
0000
0001
0000
1000
0000
0010
0100
0010
0000
2000
0000
,  // measure 75
0000
0000
3100
0000
0010
0000
0001
0000
1000
0000
0010
0100
0020
0000
1000
0000
,  // measure 76
1030
0000
0000
0000
0001
0010
0001
0010
0001
0000
1000
0000
0010
0000
0100
0000
,  // measure 77
0001
1000
0001
1000
0001
0000
0010
0000
0100
1000
0100
1000
0010
0000
0100
0000
,  // measure 78
0001
0100
0001
0100
0010
0000
1000
0000
1001
0000
0000
0000
0000
0000
1000
0000
,  // measure 79
0100
0001
0100
1000
0001
0000
0001
1000
,  // measure 80
0100
0000
0000
0010
0000
0000
0100
0000
0000
0000
1000
0000
0000
0000
0000
0000
0000
0000
0000
0000
0000
0002
0000
0000
,  // measure 81
0000
1003
0000
0000
;

//---------------dance-single - ----------------
#NOTES:
     dance-single:
     :
     Beginner:
     5:
     0.183,0.213,0.180,0.000,0.000:
0000
0000
0000
0000
,
0000
0000
0000
0000
,
0001
0000
1000
0000
,
0001
0000
1000
0000
,
0001
0000
1000
0000
,
0001
0000
1000
0000
,
0001
0000
0100
0000
,
0010
0000
0100
0000
,
0010
0000
0100
0000
,
0010
0000
1000
0001
,
1000
0000
0100
0000
,
0010
0000
0001
1000
,
0001
0000
0010
0000
,
0100
0000
1000
0001
,
1000
0000
0100
0000
,
0010
0000
0001
1000
,
0001
0000
0100
0000
,
0010
0000
1001
0000
,
0001
0000
0001
0000
,
1000
0000
1000
0000
,
0001
0000
0001
0000
,
1000
0000
1000
0000
,
0001
0000
1000
0000
,
0010
0000
0100
0000
,
0010
0000
0100
0000
,
0010
0000
1000
0000
,
0000
0000
0000
0000
,
0010
0000
0000
0000
,
0000
0000
0100
0000
,
0000
0000
0000
0000
,
0001
0000
0000
0000
,
0000
0000
1000
0000
,
0000
0000
0000
0000
,
0001
0000
0000
0000
,
0000
0000
1000
0000
,
0000
0000
0000
0000
,
0010
0000
0000
0000
,
0000
0000
0110
0000
,
0000
0110
0000
0000
,
0100
0000
1001
0000
,
0000
1001
0000
0000
,
1001
0000
0110
0000
,
0000
0110
0000
0000
,
0100
0000
1001
0000
,
0000
1001
0000
0000
,
1001
0000
0110
0000
,
0000
0110
0000
0000
,
0100
0000
1001
0000
,
0000
1001
0000
0000
,
1001
0000
0110
0000
,
0000
0110
0000
0000
,
0010
0000
1001
0000
,
0000
1001
0000
0000
,
1001
0000
1000
0000
,
0001
0000
1000
0000
,
0001
0000
0100
0000
,
0010
0000
0100
0000
,
0010
0000
1000
0000
,
0001
0000
1000
0000
,
0001
0000
0010
0000
,
0100
0000
0010
0000
,
0000
0000
0001
1000
,
0001
0000
0010
0000
,
0100
0000
1000
0001
,
1000
0000
0100
0000
,
0010
0000
0001
1000
,
0001
0000
0100
0000
,
0010
0000
1000
0001
,
1000
0000
0010
0000
,
0100
0000
1001
0000
,
1000
0001
1000
0000
,
0001
0000
1000
0001
,
1000
0000
0010
0000
,
0100
0000
0001
1000
,
0001
0000
0010
0000
,
0100
0000
1000
0001
,
1000
0000
0010
0100
,
0010
0000
1001
0000
;
