#TITLE:neu EX;
#SUBTITLE:;
#ARTIST:少年ラジオ;
#TITLETRANSLIT:;
#SUBTITLETRANSLIT:;
#ARTISTTRANSLIT:SHOUNEN RADIO;
#CREDIT:DigiMindAxel;
#BANNER:neu EX.png;
#BACKGROUND:neu EX-bg.png;
#LYRICSPATH:;
#CDTITLE:pop'n music.png;
#MUSIC:neu EX.mp3;
#METERTYPE:DDR X;
#OFFSET:-8.805;
#SAMPLESTART:23.321;
#SAMPLELENGTH:12.000;
#SELECTABLE:YES;
#DISPLAYBPM:99.000:199.000;
#BPMS:0.000=99.250,8.000=198.500,36.000=99.250,38.000=198.500,102.000=99.250,150.000=198.500,374.000=93.500;
#STOPS:;
#BGCHANGES:;

//---------------dance-single - ----------------
#NOTES:
     dance-single:
     :
     Easy:
     8:
     0.344,0.422,0.167,0.094,0.000:
1001
0000
0000
0000
,
0000
0000
0000
0000
,
1000
0100
0010
0001
,
0010
0100
1000
0001
,
0100
0010
0100
0010
,
1000
0001
1000
0001
,
1000
0100
0010
0001
,
0010
0100
1000
0001
,
0100
0010
1000
0001
,
2000
0000
3001
0010
,
0100
1000
0100
0010
,
0001
1000
0010
0100
,
0010
1000
1001
0001
,
1001
1000
0001
0010
,
0100
0010
0001
1000
,
0100
0010
0100
1000
,
0001
0010
0100
1000
,
0100
0010
1002
1000
,
1000
1003
0110
0110
,
1001
1001
0000
2001
,
0001
0001
3001
0110
,
0110
1001
2001
0000
,
3001
1000
0010
0100
,
0010
0100
0001
0010
,
0100
1000
0100
0010
,
0001
1000
1002
0000
,
0000
0000
0000
0000
,
1003
1000
0001
0001
,
2000
0000
3002
0000
,
0000
1003
0100
0010
,
0002
0000
0000
0000
,
0000
0000
0203
0000
,
0000
0000
0310
0000
0000
0010
0000
0000
,
2000
0000
0000
0000
,
0000
0000
0000
0000
3100
0000
0000
0010
,
0000
0002
0000
0000
,
1003
0000
0000
0001
0000
0000
1000
0000
,
0000
0000
0000
0000
1001
0000
0000
0001
,
0000
0000
1000
0000
0000
0001
0000
0000
,
1000
0000
0001
0000
0100
0000
0000
0001
,
0000
0000
0100
0000
0000
0001
0000
0000
,
1000
0000
0001
0000
1000
0000
0000
0100
,
0000
0000
1000
0000
0000
0100
0000
0000
,
1000
0000
0001
0000
0010
0000
0000
0100
,
0000
0000
0010
0000
0000
0100
0000
0000
,
1000
0000
0001
0000
1001
0000
0000
0001
,
0000
0000
1000
0000
0000
0001
0000
0000
,
1000
0000
0001
0000
1001
0000
0000
1000
,
0000
0000
0001
0000
0000
1000
0000
0000
,
0001
0000
0100
0000
0110
0000
0000
0010
,
0000
0000
0100
0000
0000
0010
0000
0000
,
0100
0000
0010
0000
0110
0000
0000
0100
,
0000
0000
0010
0000
0000
0100
0000
0000
,
0010
1000
1001
0100
,
1000
0100
1000
0100
,
0010
0001
0010
0001
,
0010
0001
0010
0100
,
1000
0010
0100
0010
,
0100
0010
0100
0001
,
0010
0100
1001
1000
,
1000
1000
1001
0001
,
0001
0001
1001
0100
,
1000
0010
1000
0100
,
1000
0010
0100
0001
,
0010
0100
0010
0001
,
0010
0100
0010
0001
,
1000
0100
0010
0001
,
0010
0100
1000
0010
,
1000
0100
1000
0010
,
1000
0001
1001
0010
,
0001
0010
0100
1000
,
0100
1000
0001
1000
,
0100
0010
0001
0100
,
0010
0000
0100
0000
0002
0000
0000
1003
,
0000
0100
1000
0100
,
0010
0001
0100
0010
,
0100
0001
0010
0100
,
1000
0001
1000
0100
,
1000
0010
0100
0100
,
0001
0001
1000
0100
,
0010
0001
1000
1000
,
0001
0001
0010
0001
,
0100
0010
0100
0001
,
0010
0100
1000
1000
,
0001
0001
0100
0010
,
1000
0001
1000
0100
,
1000
0100
0010
0010
,
0100
0100
1000
0010
,
0100
0010
1000
1000
,
0001
0001
0010
0001
,
0100
0010
0100
0001
,
0010
0100
1000
0100
,
0010
0001
1000
1000
,
0001
0001
2002
0000
,
0000
0000
0000
0000
,
0000
0000
0000
0000
,
0000
0000
0000
0000
,
3003
0000
0000
0000
;

//---------------dance-single - ----------------
#NOTES:
     dance-single:
     :
     Medium:
     13:
     0.606,0.584,0.776,0.027,0.027:
1001
0000
0001
0001
0010
0000
0001
0000
,
1000
0000
0100
0100
1000
0000
0001
1000
,
1001
1001
1001
1001
,
1010
1010
1010
1010
,
1001
1001
1001
1001
,
0011
0011
0011
0011
,
0001
1000
0001
1000
0001
1000
0001
1000
,
0001
0010
0001
0010
0001
0010
0001
0010
,
0100
1000
0010
1000
0010
1000
0010
1000
,
0002
0000
0000
0000
1003
0000
0001
0010
,
0001
0000
0010
0100
0010
0000
0001
1000
,
0100
0010
0001
0010
0100
0000
0010
0100
,
0010
0100
0010
0000
0101
0000
0101
0000
,
1010
0000
1010
0000
1000
0100
1000
0000
,
0100
0010
0100
0000
1000
0001
0010
0100
,
1000
0100
0010
0000
0100
0010
0100
0010
,
0100
0000
1100
0000
1001
0000
0001
0100
,
0010
1000
0001
0000
1001
0000
0001
1000
,
0000
0001
1000
0000
0100
0010
0000
0100
,
0010
0000
0001
1000
0010
1000
0001
0000
,
0101
0000
1001
0000
1000
0001
1000
0000
,
0010
0100
0010
0000
1000
0001
0000
1000
,
0001
0000
0100
0010
0000
0100
0010
0000
,
1000
0001
0010
0001
1000
0000
1001
0000
,
1001
0110
0110
1100
,
0011
0000
1100
0000
1000
0001
0001
0000
,
0010
0100
0000
0100
1000
0000
0001
1000
,
0001
0000
0001
0000
1000
0000
0100
0010
0100
0010
0100
0000
1000
0000
0001
0000
,
0100
0000
0010
0010
0000
1000
0001
0000
,
0001
1000
0001
0001
1000
0100
0001
0100
,
1000
0001
0001
0000
0100
0010
0000
0010
,
1000
0000
0001
0001
1000
0100
0010
0100
,
1000
0000
0001
0000
1000
0100
1000
0000
0010
0100
0010
0000
0100
0001
0100
0000
,
0001
1000
1000
0000
0010
0100
0000
0100
,
0001
0000
1000
1000
0001
1000
0100
0010
,
0100
1000
0002
0000
1003
0100
0010
0001
,
1000
0000
0001
0001
0000
0100
0010
2000
,
0000
0000
3001
1000
0001
1000
0001
1000
0001
0000
0000
0000
0000
0000
1001
0000
,
0000
0000
0110
0000
0000
1001
0000
0000
,
0110
0000
0110
0000
1001
0000
0000
0110
,
0000
0000
1001
0000
0000
0110
0000
0000
,
1001
0000
1001
0000
0110
0000
0000
0101
,
0000
0000
1010
0000
0000
0101
0000
0000
,
1010
0000
1010
0000
1001
0000
0000
1010
,
0000
0000
0101
0000
0000
1010
0000
0000
,
0101
0000
0101
0000
1001
0000
0010
0001
,
0000
0010
0001
0000
1000
0001
0000
0100
,
0010
0000
1000
0000
1001
0000
0100
1000
,
0000
0100
1000
0000
0001
1000
0000
0010
,
0100
0000
0001
0000
1001
0000
1000
0001
,
0000
1000
0001
0000
0100
0001
0000
1000
,
0010
0000
1000
0000
1001
0000
0001
1000
,
0000
0001
1000
0000
0100
1000
0000
0001
,
0010
0001
1001
1000
,
0001
0000
1000
0000
0001
0000
1000
0100
,
1000
0100
0010
0001
0010
0001
1000
0000
,
0001
0000
1000
0000
0001
0000
1000
0010
,
1000
0010
0100
0001
0100
0001
1000
0000
,
0001
0000
1000
0000
0001
0000
0010
0001
,
0010
0001
1000
0100
1000
0001
1000
0001
,
1000
0001
0010
0100
0010
0100
0010
0100
,
0010
0100
1000
0000
1001
0000
0001
0100
,
0001
0000
1000
0001
1000
0000
0100
0010
,
0001
0010
0100
1000
0001
0000
0100
0001
,
1000
0000
0100
0010
0100
0010
0001
1000
,
0001
1000
0100
0010
0100
0000
1000
0001
,
0010
0000
0001
0010
0100
0000
1000
0001
,
0100
0000
0001
0100
0010
0000
1000
0100
,
0010
0000
0001
1000
0100
1000
0010
0100
,
0010
0100
0001
0000
1001
0000
1100
0000
,
1100
1100
0110
1001
,
0110
1001
0000
1001
,
0101
0101
0101
0110
,
1001
0000
0110
0000
1001
0000
0000
1001
,
0000
1000
0010
0100
0001
0000
1001
0000
,
1001
0000
0001
0010
0100
0000
0010
0001
,
1000
0000
0100
0010
0001
0010
0100
1000
,
0001
0010
0001
0000
1001
0000
1100
0000
,
1100
1100
1001
0110
,
1001
0110
0000
1001
,
0011
0011
0011
1001
,
0110
0000
1001
0000
0110
0000
0000
0110
,
0000
0010
0100
0001
1000
0000
0001
0000
,
1001
0000
1000
0010
0100
0000
0010
0100
,
0010
0000
1000
0100
0010
0001
1000
0010
,
0100
0010
1000
0000
1001
0000
0110
0000
,
0110
0110
0101
0110
,
0101
0110
0000
1001
,
0110
0110
0110
1010
,
0110
0000
1010
0000
0110
0000
0000
0110
,
0000
0010
0100
0001
0010
0000
0001
1000
,
0100
0000
1000
0100
0010
0000
0100
1000
,
0100
0010
0001
1000
0010
0100
0001
0100
,
0010
1000
0100
0010
0002
0000
0000
0000
,
0000
0000
0000
0000
,
0000
0000
0000
0000
,
0000
0000
0000
0000
,
0003
0000
0000
0000
;

//---------------dance-single - ----------------
#NOTES:
     dance-single:
     :
     Hard:
     15:
     0.710,0.714,0.382,0.087,0.171:
1001
0000
0001
1000
0100
0000
0010
0000
,
0100
0000
0000
0000
1000
0000
0001
0100
0000
0001
0100
0000
0001
0000
1000
0000
,
1001
1001
1001
1001
,
0110
0110
0110
0110
,
1010
0110
1010
0110
,
0101
0110
0101
0110
,
0100
0001
0100
0001
0100
0001
0100
0001
,
1000
0010
1000
0010
1000
0010
1000
0010
,
1000
0100
0010
0001
0010
0100
1000
0002
,
2000
0000
0000
3003
1001
0000
0001
0100
,
0010
0100
0001
0000
0010
0100
1000
0100
,
0010
0100
1000
0000
0001
1000
0100
0000
,
1000
0000
0100
0000
0010
0000
0000
0000
0001
0000
1000
0001
1000
0000
0100
0000
,
0010
0000
0001
1000
0001
0000
0000
0000
1000
0000
0010
0000
0100
0000
0010
0000
,
1000
0010
0100
0000
0001
0010
0100
0010
,
0001
0010
0100
0000
1000
0010
0001
0010
,
1000
0000
0001
0000
1000
0000
0000
0000
0001
0000
1000
0001
1000
0000
0100
0000
,
0010
0000
1000
0001
1000
0000
0000
0000
1001
0000
0000
0000
1000
0000
0001
0000
,
0000
1000
0001
0000
0010
0100
0000
0010
,
0100
0000
1000
0010
0100
0001
0000
0100
,
0001
0000
1000
0100
0000
1000
0100
0000
,
1000
0001
0100
0001
1000
0100
0010
0001
,
1000
0100
0010
0001
1000
0001
1000
0010
,
0100
0001
1000
0001
0010
0001
0010
0100
,
1000
0000
0100
0000
1000
0000
0001
0000
0100
0010
0100
0000
0001
0000
1000
0000
,
0100
0010
0100
0000
1000
0000
0001
0000
0000
0000
1000
0000
1000
0000
0001
0000
,
0010
0010
0100
0010
0010
0001
0100
0100
,
0010
0000
0010
0000
0010
0000
1000
0100
0010
0001
1000
0010
2000
0000
0001
0000
,
3001
0200
0000
0300
0001
1000
1000
0010
,
1000
0000
1000
0000
0100
0010
0100
0010
0001
0100
0001
0100
0001
1000
0001
0000
,
0010
0100
0100
1000
0010
0010
1000
0100
,
0100
0010
0001
0001
0200
0000
0310
2000
,
0000
0000
3001
0000
1000
0010
1000
0010
0100
0001
0100
0001
1000
0001
1000
0001
,
1000
0010
0010
1000
0001
0001
0010
0100
,
0100
0010
0001
0001
0200
0000
0301
2000
,
0000
0010
3020
0000
1030
0100
0010
0001
,
0020
0000
0000
0000
0130
0000
2000
0000
0000
0000
3001
0000
1000
0000
0000
0001
,
1000
0000
0001
0010
0100
1000
0100
0010
1001
0000
0000
0000
0000
0000
0011
0000
,
0000
0000
0110
0000
0000
1100
0000
0000
,
0110
0000
1001
0000
1001
0000
0000
1010
,
0000
0000
0110
0000
0000
0101
0000
0000
,
0110
0000
1001
0000
1001
0000
0000
1010
,
0000
0000
0110
0000
0000
0101
0000
0000
,
0110
0000
1001
0000
1001
0000
0000
1100
,
0000
0000
0110
0000
0000
0011
0000
0000
,
0110
0000
1001
0000
1000
0010
0100
0110
,
0000
0010
0100
0000
0100
0001
0010
0001
,
0011
0000
0011
0000
0001
0100
0010
0110
,
0000
0010
0100
0000
0100
1000
0010
1000
,
1010
0000
1010
0000
1000
0001
1000
1010
,
0000
0010
0100
0000
0100
0001
0010
0100
,
0110
0000
0110
0000
0010
1000
0010
0110
,
0000
0100
1000
0000
1000
0001
0010
0001
,
1001
0000
1001
0000
0001
0010
0100
0010
,
0001
0100
0001
0000
1000
0000
0001
0010
,
0100
1000
0100
0010
0001
0100
0010
0100
,
0001
1000
0001
0000
1000
0100
0010
0001
,
0010
0100
1000
0000
0001
0100
0010
0100
,
0001
1000
0001
0000
1000
0000
0001
0010
,
0100
0010
0001
0000
1000
0010
1000
0010
,
1000
0000
0010
0000
1000
0000
0010
0000
1000
0000
0001
1000
0001
0000
1000
0000
,
0001
0000
1000
0000
0001
0000
1000
0000
0001
0000
0100
0001
0100
0000
0001
0000
,
1000
0000
0100
0000
0010
0000
0100
0000
1000
0000
0001
0100
0001
0000
1000
0000
,
0010
0000
0100
0000
0010
0000
1000
0000
0001
0000
0010
0001
0010
0000
0100
0000
,
1000
0000
0001
0000
0100
0000
0010
0000
0100
0000
0001
1000
0001
0000
0010
0000
,
0100
0000
1000
0001
1000
0000
0000
0000
0100
0000
0010
0001
0010
0000
0001
0000
,
1000
0000
0010
0000
1000
0000
0001
0000
0100
0000
0010
0100
0010
0000
0100
0000
,
0001
0000
0010
0000
0100
0000
1000
0000
0010
0000
1000
0001
1000
0000
0010
0000
,
0100
0000
0001
1000
0001
0000
1000
0000
0001
0010
0001
0000
1000
0000
0100
0000
,
0001
0100
1000
0001
1001
0000
0001
0010
,
0001
1000
0010
1000
0001
0010
0001
1000
,
0100
0010
0001
1000
0001
0100
0001
1000
,
0100
1000
0001
0100
0001
1000
0010
0100
,
0001
0100
0010
1000
0001
0010
0100
1000
,
1000
0000
0010
0100
0001
0100
0010
1000
,
1000
0000
0001
0010
1000
0010
0001
1000
,
0100
0000
0001
0000
0100
0000
1000
0000
0001
0000
0010
0001
0010
0000
0100
0010
,
0100
0000
1000
0001
1000
0000
0001
0000
1000
0000
0100
0000
1000
0000
0010
0000
,
0100
0010
1000
0100
1000
0010
0100
0010
,
1000
0100
1000
0010
0100
0001
1000
0010
,
0100
0001
1000
0100
0010
0001
1000
0100
,
0010
0000
0001
0000
1000
0000
0000
0000
0010
0000
0100
0001
0100
0000
0001
0000
,
0010
0000
0100
0000
1000
0000
0000
0000
0010
0000
0100
0001
0100
0000
0001
0000
,
0010
0000
0100
0000
1000
0000
0000
0000
0001
0000
1000
0100
1000
0000
0001
0000
,
0010
0000
0100
0010
0100
0000
0010
0000
0001
0000
1000
0100
1000
0000
0010
0100
,
0010
0000
1000
0001
1000
0000
0010
0000
0100
0000
0001
0000
0010
0000
0100
0000
,
0010
0001
0010
0100
0010
0001
0100
0001
,
0100
0010
0100
0001
1000
0100
1000
0010
,
1000
0100
1000
0010
0100
0001
1000
0010
,
0100
0000
0001
0000
1000
0000
0000
0000
0100
0000
1000
0001
1000
0000
0100
0000
,
0010
0000
0000
0000
0001
0000
0100
0010
0100
0000
0001
0000
1000
0000
0100
0000
,
0010
0000
0001
0100
1000
0100
0001
0010
,
0100
0000
1000
0000
0001
0000
0100
0000
0010
0000
0100
0001
0100
0000
0001
0000
,
1000
0100
1000
0000
0100
0000
1000
0000
2002
0000
0000
0000
0000
0000
0000
0000
,
0000
0000
0000
0000
,
0000
0000
0000
0000
,
0000
0000
0000
0000
,
3003
0000
0000
0000
;

//---------------dance-single - ----------------
#NOTES:
     dance-single:
     :
     Challenge:
     18:
     0.868,0.909,0.328,0.047,0.609: // measure 1
1001
1000
1000
0000
0100
0000
0010
0001
,  // measure 2
0100
0000
0000
0000
0010
0000
0010
0100
0000
0100
0010
0000
1000
0100
0010
0001
,  // measure 3
1000
1001
0011
0011
,  // measure 4
1001
1001
1100
1100
,  // measure 5
0010
0001
0010
0001
1000
0010
0100
0000
,  // measure 6
0010
1000
0010
1000
0001
0010
0100
0000
,  // measure 7
1000
0100
0010
0001
0010
0100
1000
0001
,  // measure 8
0100
0010
1000
0010
0100
0001
1000
0100
,  // measure 9
0010
0100
1000
0001
0100
0010
0100
0001
,  // measure 10
1001
0000
0000
0000
0001
0010
0100
1000
0001
0000
1000
0100
1000
0000
0001
1000
,  // measure 11
0001
0000
0010
0000
0100
0000
0010
0001
1000
0000
0010
0000
1000
0000
0100
0010
,  // measure 12
0001
0000
0100
0010
0100
0000
0001
0000
1000
0010
1000
0000
0100
0000
0010
0001
,  // measure 13
0010
0000
0001
0000
1000
0000
0100
0000
1000
0000
0001
0010
0100
0000
1000
0000
,  // measure 14
1000
0000
0001
0010
0100
0000
1000
0000
0001
0000
0001
0000
1000
0100
1000
0100
,  // measure 15
1000
0000
0010
0000
0100
0000
0001
1000
0001
0000
0100
0000
0010
0100
0010
0100
,  // measure 16
0010
0000
1000
0000
0100
0000
0010
0001
0100
0000
0001
0010
0100
0010
0001
0000
,  // measure 17
1000
0000
0100
0010
0001
0010
0100
0000
1000
0000
0010
0100
0001
0100
0010
0100
,  // measure 18
0001
0000
0010
0000
0100
0000
1000
0000
1001
0000
0000
0001
0100
0000
0000
0100
,  // measure 19
0010
0000
0000
0010
1000
0000
0000
1000
0001
0000
0100
0000
0010
0000
0001
0000
,  // measure 20
0010
0000
0100
0000
0001
0000
1000
0000
0100
0000
0000
1000
0001
0000
0000
0001
,  // measure 21
0100
0000
0000
0100
0010
0000
0000
0010
1000
0000
0001
1000
0001
0000
0010
0000
,  // measure 22
0100
0000
0010
0100
0010
0000
0000
0000
0001
0100
0001
0100
0001
0000
1000
0000
,  // measure 23
0100
0000
0010
0000
0100
1000
0100
1000
0100
0000
1000
0000
0010
0000
0100
0000
,  // measure 24
0001
1000
0001
1000
0001
0000
0000
0001
0100
0000
0000
0100
0010
0000
0000
0010
,  // measure 25
1000
0000
0000
0000
0000
0000
0000
0000
0000
1000
0000
0000
0001
0000
0000
0000
0000
0000
0010
0000
0000
0000
0000
0000
0100
0000
0000
0000
1000
0000
0000
0000
0100
0000
0000
0000
0001
0000
0000
0000
1000
0000
0000
0000
0010
0000
0000
0000
,  // measure 26
0001
0000
1000
0000
0100
0000
0010
0000
0100
0000
1000
0000
0001
0000
0000
0100
0000
0000
0010
0000
0000
0100
0000
0000
,  // measure 27
0001
0010
0100
1000
0100
0010
0100
1000
,  // measure 28
0001
0000
0001
0000
0001
0000
0010
0100
1000
0100
0010
0001
2000
0000
0001
0000
,  // measure 29
3001
0200
0000
0000
0310
1000
0001
0010
,  // measure 30
0001
0000
1000
0000
0100
1000
0100
1000
0010
0100
0010
0100
0001
0010
0001
0010
,  // measure 31
0100
1000
1000
0010
0100
0100
0001
1000
,  // measure 32
1000
0001
0010
0010
0002
0000
1000
1003
,  // measure 33
0000
0000
0000
0000
0001
0010
0001
0010
0100
0010
0100
1000
0100
1000
0010
0100
,  // measure 34
0020
0000
0100
0130
0001
0001
1000
0100
,  // measure 35
0100
0010
0001
0001
2000
0000
0001
3001
,  // measure 36
1000
0010
0200
0000
0310
1000
0100
0010
,  // measure 37
0001
0000
1000
0000
1000
0000
0001
0000
0100
0000
0100
0000
0001
0000
0000
1000
,  // measure 38
0001
0000
0001
1000
0100
0010
0001
1000
1001
0000
1000
0000
0010
0000
0100
0000
,  // measure 39
0110
0000
0110
0100
0001
1000
1001
0000
,  // measure 40
1100
0000
1100
0000
0110
0010
0100
0001
,  // measure 41
1001
0000
1001
1000
0010
0100
0110
0000
,  // measure 42
0101
0000
0101
0000
1001
0001
1000
0100
,  // measure 43
1100
0000
1100
1000
0001
0100
0101
0000
,  // measure 44
1001
0000
1001
0000
0101
0100
0001
1000
,  // measure 45
1001
0000
1001
1000
0001
0010
0011
0000
,  // measure 46
0110
0000
0110
0000
1000
0100
0001
1000
,  // measure 47
0010
0001
1000
0100
0010
0100
1000
0001
,  // measure 48
0101
0000
1001
0000
0001
0100
1000
0001
,  // measure 49
0010
1000
0001
0100
0010
0100
0001
1000
,  // measure 50
1100
0000
1001
0000
1000
0100
0001
1000
,  // measure 51
0010
0001
1000
0100
0010
0100
1000
0001
,  // measure 52
0101
0000
1001
0000
0001
0100
1000
0001
,  // measure 53
0010
1000
0001
0100
0010
0100
0001
1000
,  // measure 54
0100
0010
0001
0000
1001
0000
1000
0000
,  // measure 55
1100
0000
1000
0000
1001
0000
0001
0100
,  // measure 56
1000
0100
0001
1000
1001
0000
0001
0000
,  // measure 57
0011
0000
0001
0000
1001
0000
1000
0100
,  // measure 58
0001
0100
1000
0001
1001
0000
1000
0000
,  // measure 59
1010
0000
1000
0000
1001
0000
0001
0010
,  // measure 60
1000
0010
0001
1000
0001
0001
0100
0100
,  // measure 61
0010
0000
0010
0000
1000
0000
1000
0000
0001
0000
0010
0001
0010
0000
0100
0000
,  // measure 62
0010
0000
0001
1000
0001
0000
1000
0000
0100
0000
0010
0001
0010
0000
0100
0010
,  // measure 63
0100
0000
1000
0001
1000
0001
1000
0000
0010
0000
0100
0010
0100
0000
0001
0100
,  // measure 64
0001
0000
1000
0001
1000
0001
1000
0000
0001
0100
0001
0000
0010
0000
0100
0000
,  // measure 65
0010
0001
0100
0000
0010
0000
0100
0000
0001
0010
0100
1000
0100
0000
1000
0000
,  // measure 66
0100
1000
0010
0100
0001
0000
1000
0000
0100
0000
0010
0000
0001
0100
0010
0100
,  // measure 67
0001
0000
0010
0000
0100
0000
0010
0001
0010
0000
0100
0000
1000
0010
0100
0010
,  // measure 68
1000
0000
0010
0000
1000
0000
0001
0010
0100
1000
0010
0000
1000
0100
0010
0001
,  // measure 69
1000
0000
0100
1000
0010
0100
0010
1000
0100
0000
0010
0000
0001
1000
0001
0000
,  // measure 70
0100
0000
0100
0000
0010
0000
0010
0000
1000
0000
0001
0010
0001
0010
0001
0000
,  // measure 71
1000
0000
0100
0000
0001
0000
0100
0000
1000
0000
0001
1000
0001
1000
0001
0000
,  // measure 72
0010
0000
0100
0000
0001
0000
0100
0000
1000
0000
0010
0100
0010
0100
0010
0000
,  // measure 73
1000
0000
0100
0000
0010
0000
1000
0000
0010
0000
0001
1000
0001
1000
0001
0000
,  // measure 74
1000
0000
0010
0000
0001
0000
0010
0000
1000
0000
0001
1000
0001
1000
0001
0000
,  // measure 75
1000
0000
0100
0000
0001
0000
0100
0000
1000
0000
0010
0100
0010
0100
0010
0000
,  // measure 76
1000
0000
0001
0000
0010
0000
1000
0000
0010
0000
0001
1000
0001
1000
0001
0000
,  // measure 77
1000
0100
0010
0100
1000
0000
0100
0000
0010
0001
0010
0001
0100
0010
0100
0010
,  // measure 78
1000
0100
0010
0001
0010
0100
1000
0000
0001
0000
0010
0001
0010
0000
0100
0010
,  // measure 79
0100
0000
0010
0001
0010
0000
0001
0000
1000
0000
0100
0000
0001
0000
0100
0000
,  // measure 80
1000
0000
0010
0000
0100
0000
0001
0000
1000
0000
0010
0100
0010
0000
1000
0010
,  // measure 81
1000
0000
0010
0100
0010
0000
1000
0000
0001
0010
0100
1000
0001
0000
0010
0001
,  // measure 82
0100
0010
1000
0100
1000
0100
1000
0000
0010
0100
0010
0100
0010
0000
0100
0000
,  // measure 83
0001
0000
0010
0000
0100
0000
1000
0010
0100
0001
1000
0000
0100
0010
0001
0010
,  // measure 84
0100
1000
0100
0000
1000
0001
1000
0001
1000
0000
0100
1000
0100
0000
0010
0100
,  // measure 85
0010
0000
0100
1000
0100
0000
0010
0000
0001
1000
0001
1000
0100
1000
0100
1000
,  // measure 86
0010
0100
0010
0100
0001
0010
0100
1000
0001
0000
0100
0001
0100
0000
0010
0100
,  // measure 87
0010
0000
0100
0001
0100
0000
0001
0000
1000
0000
0010
0000
0001
0000
0010
0000
,  // measure 88
1000
0000
0100
0000
0010
0000
0100
0000
1000
0000
0001
0000
0010
0100
1000
0100
,  // measure 89
0010
0000
0001
0100
0010
0100
0001
0000
1000
0000
0100
0000
0001
0000
1000
0000
,  // measure 90
0010
0000
0001
0000
1000
0000
0010
0000
0100
0001
0100
0001
0100
0000
0001
0000
,  // measure 91
1000
0000
0100
0000
0010
0001
0100
0010
0100
0000
0001
0000
1000
0000
0100
0000
,  // measure 92
0010
0000
0100
0000
1000
0000
0010
0100
0010
0000
1000
0001
1000
0000
0001
0010
,  // measure 93
0001
0000
0100
0010
0100
0000
0001
0000
1000
0100
1000
0100
0010
0001
0010
0001
,  // measure 94
1000
0010
1000
0010
0100
0001
0010
0100
2000
0000
0000
0000
0000
0000
0000
0000
,  // measure 95
0000
0000
0000
0000
,  // measure 96
0000
0000
0000
0000
,  // measure 97
0000
0000
0000
0000
,  // measure 98
3000
0000
0000
0000
;

//---------------dance-single - ----------------
#NOTES:
     dance-single:
     :
     Beginner:
     5:
     0.210,0.250,0.187,0.000,0.000:
0000
0000
0000
0000
,
0000
0000
0000
0000
,
1000
0000
0001
0000
,
1000
0000
0001
0000
,
1000
0000
0001
0000
,
1000
0000
0001
0000
,
1000
0000
0010
0000
,
0100
0000
0010
0000
,
0100
0000
0010
0000
,
0110
0000
0001
1000
,
0001
0000
0010
0000
,
0100
0000
1000
0001
,
1000
0000
1001
0000
,
1001
0000
0001
1000
,
0001
0000
0010
0000
,
0100
0000
1000
0001
,
1000
0000
0010
0100
,
0010
0000
1001
0000
,
1000
0000
1000
0000
,
0001
0000
0001
0000
,
1000
0000
1000
0000
,
0001
0000
0001
0000
,
1000
0000
0001
0000
,
0100
0000
0010
0000
,
0100
0000
0010
0000
,
0100
0000
0001
0000
,
0000
0000
0000
0000
,
0100
0000
0000
0000
,
0000
0000
0010
0000
,
0000
0000
0000
0000
,
1000
0000
0000
0000
,
0000
0000
0001
0000
,
0000
0000
0000
0000
,
1000
0000
0000
0000
,
0000
0000
0001
0000
,
0000
0000
0000
0000
,
0100
0000
0000
0000
,
0000
0000
0110
0000
,
0000
0110
0000
0000
,
0010
0000
1001
0000
,
0000
1001
0000
0000
,
1001
0000
0110
0000
,
0000
0110
0000
0000
,
0010
0000
1001
0000
,
0000
1001
0000
0000
,
1001
0000
0110
0000
,
0000
0110
0000
0000
,
0010
0000
1001
0000
,
0000
1001
0000
0000
,
1001
0000
0110
0000
,
0000
0110
0000
0000
,
0100
0000
1001
0000
,
0000
1001
0000
0000
,
1001
0000
0001
0000
,
1000
0000
0001
0000
,
1000
0000
0010
0000
,
0100
0000
0010
0000
,
0100
0000
0001
0000
,
1000
0000
0001
0000
,
1000
0000
0100
0000
,
0010
0000
0110
0000
,
0000
0000
1000
0001
,
1000
0000
0100
0000
,
0010
0000
0001
1000
,
0001
0000
0010
0000
,
0100
0000
1000
0001
,
1000
0000
0010
0000
,
0100
0000
0001
1000
,
0001
0000
0100
0000
,
0010
0000
1001
0000
,
0001
1000
0001
0000
,
1000
0000
0001
1000
,
0001
0000
0100
0000
,
0010
0000
1000
0001
,
1000
0000
0100
0000
,
0010
0000
0001
1000
,
0001
0000
0100
0010
,
0100
0000
1001
0000
,
1000
0001
1000
0001
,
1000
0001
0000
0100
,
0010
0100
0010
0100
,
0010
0100
0001
0000
,
1000
0000
0001
0000
,
0010
0000
0001
1000
,
0001
1000
0100
1000
,
0100
0000
1001
0000
,
0001
1000
0001
1000
,
0001
0100
0000
0001
,
0100
0001
0100
0010
,
0100
0010
0100
0000
,
0001
0000
1000
0000
,
0100
0000
1000
0001
,
1000
0001
1000
0100
,
1000
0100
1000
0000
;
