#TITLE:moffing;
#SUBTITLE:;
#ARTIST:猫叉Masterβ2;
#TITLETRANSLIT:;
#SUBTITLETRANSLIT:;
#ARTISTTRANSLIT:Nekomata MasterB2;
#GENRE:;
#CREDIT:DigiMindAxel;
#BANNER:moffing.png;
#BACKGROUND:moffing-bg.png;
#LYRICSPATH:moffing.lrc;
#CDTITLE:pop'n music.png;
#MUSIC:moffing.mp3;
#METERTYPE:DDR X;
#OFFSET:-7.700;
#SAMPLESTART:46.174;
#SAMPLELENGTH:12.000;
#SELECTABLE:YES;
#BPMS:0.000=170.000
;
#STOPS:
;
#BGCHANGES:;
#KEYSOUNDS:;
#ATTACKS:;

//---------------dance-single - ----------------
#NOTES:
     dance-single:
     :
     Easy:
     6:
     0.274,0.252,0.054,0.018,0.000,203.000,6.000,2.000,0.000,0.000,0.000,0.274,0.252,0.054,0.018,0.000,203.000,6.000,2.000,0.000,0.000,0.000: // measure 0
1000
0000
0001
0000
,  // measure 1
1000
0000
0100
0000
,  // measure 2
1000
0000
0001
0000
,  // measure 3
0100
0000
0100
0000
,  // measure 4
0110
0000
0010
0010
,  // measure 5
0010
0000
0100
0000
,  // measure 6
0010
0000
0100
0100
,  // measure 7
0100
0000
0001
0000
,  // measure 8
1000
0001
1000
0000
,  // measure 9
0001
1000
0001
0000
,  // measure 10
1000
0001
1000
0000
,  // measure 11
0001
0000
1000
0000
,  // measure 12
0010
0000
0100
0100
,  // measure 13
0100
0000
0010
0000
,  // measure 14
0100
0000
0010
0010
,  // measure 15
0010
0000
0100
0000
,  // measure 16
0001
1000
0001
0000
,  // measure 17
1000
0001
1000
0000
,  // measure 18
0100
1000
0100
0000
,  // measure 19
0010
0001
0010
0000
,  // measure 20
0001
0001
0001
0001
,  // measure 21
0001
0001
0000
1000
,  // measure 22
1000
1000
1000
1000
,  // measure 23
1000
1000
0000
0001
,  // measure 24
0001
0001
0001
0001
,  // measure 25
0001
0001
1000
1000
,  // measure 26
1000
1000
1000
1000
,  // measure 27
0000
0000
0010
0100
,  // measure 28
0010
0100
0001
0000
,  // measure 29
0000
0100
0010
0100
,  // measure 30
0010
1000
0100
0000
,  // measure 31
0000
1000
0100
1000
,  // measure 32
0001
0100
0001
1000
,  // measure 33
0000
0001
0010
0001
,  // measure 34
1000
0010
1000
0001
,  // measure 35
0000
0000
1001
0000
,  // measure 36
0010
0000
0010
0000
,  // measure 37
0010
0000
1001
0000
,  // measure 38
0100
0000
0100
0000
,  // measure 39
0100
0000
1001
0000
,  // measure 40
0010
0000
0010
0000
,  // measure 41
0010
0000
1001
0000
,  // measure 42
0100
0000
0100
0000
,  // measure 43
0100
0000
1000
0100
,  // measure 44
0010
0001
1000
0001
,  // measure 45
1000
0001
0010
0100
,  // measure 46
1000
0001
1000
0001
,  // measure 47
1000
0001
1000
0100
,  // measure 48
0010
0001
1000
0001
,  // measure 49
1000
0001
0010
0100
,  // measure 50
1000
0001
1000
0001
,  // measure 51
1000
0001
0100
0001
,  // measure 52
0100
0001
0100
0001
,  // measure 53
0100
0001
1000
0010
,  // measure 54
1000
0010
1000
0000
,  // measure 55
0000
0000
0010
0100
,  // measure 56
0010
0100
0010
0100
,  // measure 57
0010
0100
0001
1000
,  // measure 58
0001
1000
0001
1000
,  // measure 59
0001
0000
1000
0100
,  // measure 60
1000
0100
1000
0000
,  // measure 61
0001
0000
0010
0001
,  // measure 62
0010
0001
0010
0000
,  // measure 63
0001
0000
0100
0010
,  // measure 64
0100
0010
0100
0000
,  // measure 65
0010
0000
1000
0001
,  // measure 66
1000
0001
1000
0000
,  // measure 67
0001
0000
2002
0000
,  // measure 68
0000
0000
0000
0000
,  // measure 69
0000
0000
3003
0000
;

//---------------dance-single - ----------------
#NOTES:
     dance-single:
     :
     Medium:
     8:
     0.459,0.473,0.082,0.145,0.000,329.000,9.000,16.000,0.000,0.000,0.000,0.459,0.473,0.082,0.145,0.000,329.000,9.000,16.000,0.000,0.000,0.000: // measure 0
0001
0100
0001
1000
,  // measure 1
0200
0000
0000
0000
0300
0000
1000
0100
,  // measure 2
1000
0000
0001
0100
0001
0000
1000
0010
,  // measure 3
1000
0000
0000
0000
0001
0000
0100
0001
,  // measure 4
1000
0001
0001
0001
,  // measure 5
1001
0000
0000
0000
0000
0000
0010
1000
,  // measure 6
0001
1000
1000
1000
,  // measure 7
1001
0000
0000
0000
0000
0000
0010
0001
,  // measure 8
0010
0001
1000
0100
,  // measure 9
1000
0000
0010
0000
0100
0000
0001
1000
,  // measure 10
0001
1000
0100
0010
,  // measure 11
0001
0000
0000
0000
0000
0000
1000
0100
,  // measure 12
1000
0010
0100
0100
,  // measure 13
0110
0000
0000
0000
0000
0000
0010
0100
,  // measure 14
0010
0100
0001
0001
,  // measure 15
0101
0000
0000
0000
0000
0000
0010
0001
,  // measure 16
0010
0000
0001
0000
1000
0000
0100
1000
,  // measure 17
0100
0000
1000
0000
0001
0000
0100
0010
,  // measure 18
0100
0000
0010
0100
0010
0000
1000
0001
,  // measure 19
1000
0000
0001
0010
0100
1000
0001
0000
,  // measure 20
1000
0100
1000
0100
1000
0100
1000
0100
,  // measure 21
1000
0100
1000
0100
1000
0000
0001
0100
,  // measure 22
0001
0100
0001
0100
0001
0100
0001
0100
,  // measure 23
0001
0100
0001
0100
0001
0000
1000
0010
,  // measure 24
1000
0010
1000
0010
1000
0010
1000
0010
,  // measure 25
1000
0010
1000
0000
0001
0010
0001
0010
,  // measure 26
0001
0010
0001
0010
0001
0010
0001
0010
,  // measure 27
0001
0000
0100
0010
0100
0000
0001
0000
,  // measure 28
1000
0100
1100
0000
,  // measure 29
0000
0000
0100
1000
0100
0000
1000
0000
,  // measure 30
0010
0100
0110
0000
,  // measure 31
0000
0000
0010
0100
0010
0000
1000
0000
,  // measure 32
0100
0000
1000
0001
1000
0000
0100
0000
,  // measure 33
0010
0000
0001
0010
0001
0000
0100
0000
,  // measure 34
0010
0100
0001
0000
,  // measure 35
0000
0000
2000
0100
,  // measure 36
0100
3100
0020
0100
,  // measure 37
0100
0130
0002
0010
,  // measure 38
0010
0013
0002
1000
,  // measure 39
1000
1003
0200
1000
,  // measure 40
1000
1300
0020
0100
,  // measure 41
0100
0130
0002
1000
,  // measure 42
1000
1003
0020
0100
,  // measure 43
0100
0000
0130
0000
0001
0010
0001
0000
,  // measure 44
0010
0001
0010
0000
0001
0010
0001
0000
,  // measure 45
0010
0001
0010
0000
0100
1000
0100
0000
,  // measure 46
1000
0100
1000
0000
0100
1000
0100
0000
,  // measure 47
1000
0100
1000
0000
0010
0100
0010
0000
,  // measure 48
0100
0010
0100
0000
0010
0100
0010
0000
,  // measure 49
0100
0010
0100
0000
0001
1000
0001
0000
,  // measure 50
1000
0001
1000
0000
0001
1000
0001
1000
,  // measure 51
0001
1000
0001
0000
0010
0000
0100
0000
,  // measure 52
1000
0010
1000
0000
0010
0000
0100
0000
,  // measure 53
0001
0100
0001
0000
0010
0000
0100
0000
,  // measure 54
1000
0100
1000
0000
0100
0000
0010
0000
,  // measure 55
0001
0010
0001
0000
1000
0010
0100
0000
,  // measure 56
0010
0100
0010
0000
1000
0100
0010
0000
,  // measure 57
0100
0010
0100
0000
1000
0001
0100
0000
,  // measure 58
0001
1000
0001
0000
0100
0010
0100
0010
,  // measure 59
0100
0010
0100
0000
0110
0000
0002
0000
,  // measure 60
0000
0000
1003
0010
0200
0000
0000
0000
,  // measure 61
0300
0000
0001
1000
0100
0000
1000
0100
,  // measure 62
1000
0000
0010
0100
0002
0000
0000
0000
,  // measure 63
0103
0010
0110
0002
,  // measure 64
0000
1003
0000
0010
0200
0000
0000
0000
,  // measure 65
0300
0000
0001
1000
0010
0000
1000
0010
,  // measure 66
1000
0000
0001
0010
0100
0000
1000
0100
,  // measure 67
0010
0001
2002
0000
,  // measure 68
0000
0000
0000
0000
,  // measure 69
0000
0000
3003
0000
;

//---------------dance-single - ----------------
#NOTES:
     dance-single:
     :
     Hard:
     10:
     0.569,0.504,0.236,0.299,0.000,380.000,26.000,33.000,0.000,0.000,0.000,0.569,0.504,0.236,0.299,0.000,380.000,26.000,33.000,0.000,0.000,0.000: // measure 0
1001
0000
1000
0000
0001
0000
0100
0001
,  // measure 1
2000
0000
0100
0000
3100
0000
1000
0100
,  // measure 2
0010
0000
0100
1000
0001
0000
0100
0001
,  // measure 3
0020
0000
0000
0000
0031
0000
1000
0001
,  // measure 4
0100
0000
0101
0000
0001
0100
1000
0100
,  // measure 5
0002
0000
0000
0000
0003
0000
1000
0001
,  // measure 6
0100
0000
0101
0000
0001
0100
1000
0100
,  // measure 7
0002
0000
0000
0000
1003
0000
0001
0100
,  // measure 8
1000
0000
0100
0000
0010
0000
1000
0010
,  // measure 9
0001
0000
0010
0000
0100
0000
0001
1000
,  // measure 10
0001
0000
0100
0001
0010
0000
0100
0010
,  // measure 11
0100
2000
0000
0000
0001
0000
3001
1000
,  // measure 12
0100
0000
1100
0000
1000
0100
0001
0100
,  // measure 13
2000
0000
0000
0000
3000
0000
0001
1000
,  // measure 14
0100
0000
1100
0000
1000
0100
0001
0100
,  // measure 15
2000
0000
0000
0000
3001
0000
1000
0100
,  // measure 16
0001
0000
0100
0000
0010
0000
0001
0010
,  // measure 17
1000
0000
0010
0000
0100
0000
1000
0010
,  // measure 18
0100
0000
0010
0100
0010
0001
1000
0000
,  // measure 19
0001
0010
0100
1000
0001
0000
1001
0000
,  // measure 20
1000
0001
1000
0100
0001
0100
1000
0100
,  // measure 21
0001
0100
1000
0001
1000
0000
0001
1000
,  // measure 22
0001
0010
1000
0010
0001
0010
1000
0010
,  // measure 23
0001
1000
0001
0100
0010
0000
1000
0001
,  // measure 24
1000
0010
0001
0010
1000
0010
0001
0010
,  // measure 25
1000
0001
1000
0000
0001
1000
0001
0100
,  // measure 26
1000
0100
0001
0100
1000
0100
0001
1000
,  // measure 27
0001
0100
0001
0010
0100
0000
0110
0000
,  // measure 28
1000
0100
0001
0100
2000
0000
0001
0000
,  // measure 29
3001
0000
1000
0100
0010
0000
0110
0000
,  // measure 30
0001
0010
1000
0010
0002
0000
1000
0000
,  // measure 31
1003
0000
0001
1000
0100
0000
1100
0000
,  // measure 32
1100
0000
1000
0001
0100
0000
0101
0000
,  // measure 33
0101
0000
0010
0100
1000
0100
0010
0000
,  // measure 34
0001
0100
0010
0100
0002
0000
1000
0000
,  // measure 35
1000
1003
0201
0010
,  // measure 36
0001
0310
0210
0001
,  // measure 37
0010
0301
2100
0001
,  // measure 38
0100
3001
2001
0100
,  // measure 39
0001
3100
1020
0100
,  // measure 40
1000
0130
0120
1000
,  // measure 41
0100
1030
1002
0010
,  // measure 42
1000
0013
0012
1000
,  // measure 43
0010
0000
1003
0000
0001
0100
0010
0100
,  // measure 44
0001
1000
0100
0000
1000
0100
0010
0100
,  // measure 45
1000
0001
0100
0000
0010
1000
0001
0010
,  // measure 46
0100
0010
0001
0000
0010
0001
1000
0010
,  // measure 47
0100
0010
1000
0000
0100
0010
0001
0010
,  // measure 48
0100
0010
0001
0000
0100
0010
1000
0100
,  // measure 49
1000
0010
0100
0000
0001
1000
0100
0010
,  // measure 50
0001
0010
0100
0000
1000
0001
0100
0010
,  // measure 51
1000
0010
0100
0001
2000
0000
3001
0000
,  // measure 52
1000
0100
0001
0100
2000
0000
3001
0000
,  // measure 53
0100
0010
0100
0000
0002
0000
1003
0000
,  // measure 54
0001
0010
1000
0010
0002
0000
1003
0000
,  // measure 55
0010
0100
0010
0000
2000
0000
3001
0000
,  // measure 56
1000
0010
0001
0010
2000
0000
3001
0000
,  // measure 57
0100
0010
0100
0000
1002
0000
1003
0000
,  // measure 58
0001
0100
1000
0100
0001
0010
0100
1000
,  // measure 59
0100
0010
0001
0000
0101
0000
1002
0000
,  // measure 60
0100
0000
1003
0100
0020
0000
0001
0000
,  // measure 61
0031
0000
1000
0100
0010
0000
0100
1000
,  // measure 62
0001
0000
0010
0100
2000
0000
3001
1000
,  // measure 63
0010
1000
0001
0000
1001
0000
2100
0000
,  // measure 64
0000
3001
0000
0100
0020
0000
0100
0000
,  // measure 65
0130
0000
0001
0010
0100
0000
0010
0001
,  // measure 66
1000
0000
0010
0100
0002
0000
1003
0010
,  // measure 67
0100
0001
1000
0000
2002
0000
0000
0000
,  // measure 68
0000
0000
0000
0000
,  // measure 69
0000
0000
3003
0000
;

//---------------dance-single - ----------------
#NOTES:
     dance-single:
     :
     Challenge:
     13:
     0.704,0.631,0.363,0.200,0.245,481.000,40.000,22.000,0.000,0.000,0.000,0.704,0.631,0.363,0.200,0.245,481.000,40.000,22.000,0.000,0.000,0.000: // measure 0
0001
0100
0001
1000
0000
1000
0100
0010
,  // measure 1
0001
0100
0001
1000
0000
1000
0001
0100
,  // measure 2
1000
0000
0001
0010
1000
0000
0001
1000
,  // measure 3
0010
0000
0000
0000
0100
0000
0001
0100
0001
0000
0010
0000
0100
0000
1000
0000
,  // measure 4
1100
0000
0100
0001
1000
0100
0010
0100
,  // measure 5
2000
0001
0000
3001
1000
0100
0010
0001
,  // measure 6
0011
0000
0010
1000
0001
0010
0100
0010
,  // measure 7
0002
0000
1000
0000
0000
0000
1003
0000
0001
0000
1000
0001
1000
0000
0010
0000
,  // measure 8
0110
0000
0101
0000
0110
0000
0001
0001
,  // measure 9
1001
0000
1000
1000
1001
0000
0001
0100
,  // measure 10
0110
0000
0000
0000
1010
0000
0000
0000
0020
0000
0000
0100
0000
0000
0130
0000
,  // measure 11
0001
0000
1000
0000
0100
0000
0010
0000
0100
0000
1000
0001
1000
0000
0001
0000
,  // measure 12
1001
0000
0100
1000
0001
0100
1000
0100
,  // measure 13
0002
1000
0000
1003
0001
0010
0100
1000
,  // measure 14
1001
0000
0100
0001
1000
0100
0001
0100
,  // measure 15
2000
0000
0001
0000
0000
0000
3001
0000
1000
0000
0001
1000
0001
0000
0100
0000
,  // measure 16
0110
0000
0101
0000
0110
0000
1000
1000
,  // measure 17
1001
0000
0001
0001
1001
0000
1000
0010
,  // measure 18
0110
0000
0000
0000
1010
0000
0000
0000
0200
0000
0000
0010
0000
0000
0310
0000
,  // measure 19
1000
0000
0001
0010
0001
0000
1000
0000
0001
0000
1000
0000
1001
0000
0000
0000
,  // measure 20
0001
1000
0100
1000
0001
0000
0001
0000
1000
0000
1000
0000
0010
0000
0010
0000
,  // measure 21
1000
0000
1000
0000
0001
0000
0001
0000
0010
0000
0000
0000
0001
1000
0010
1000
,  // measure 22
0001
0001
1000
1000
0100
0100
1000
1000
,  // measure 23
0001
0000
0001
0000
0010
0000
0010
0000
0100
0000
0000
0000
1000
0001
0100
0001
,  // measure 24
1000
1000
0001
0001
0100
0100
0001
0001
,  // measure 25
1000
0000
1000
0000
0010
0000
0000
0000
1000
0001
0010
0001
1000
0000
1000
0000
,  // measure 26
0001
0001
0010
0010
0100
0100
0010
0010
,  // measure 27
0001
1000
0001
1000
0001
1000
0001
0000
1001
0000
0000
0000
0010
0000
1000
0000
,  // measure 28
0001
0010
1000
0010
0001
1000
0100
1000
,  // measure 29
0001
0000
1000
0010
0110
0000
0010
0001
,  // measure 30
1000
0010
0001
0010
1000
0001
0100
0001
,  // measure 31
1000
0000
0010
0100
0110
0000
0011
0000
,  // measure 32
0110
0000
1000
1000
1001
0000
0001
0001
,  // measure 33
1001
0000
0100
0010
0110
0000
1100
0000
,  // measure 34
0200
0000
0000
0010
0000
0000
0310
0000
1000
0000
0001
1000
0001
0000
0010
0000
,  // measure 35
0100
1000
0001
0000
1002
0000
0103
0000
,  // measure 36
2100
3001
0210
0301
,  // measure 37
0120
0000
1030
0000
0002
1000
1003
0000
,  // measure 38
0001
0000
0000
0100
0000
0000
1000
0000
0200
0000
0001
0000
0301
0000
0000
0000
,  // measure 39
1000
1000
0001
0100
0201
0000
0310
0000
,  // measure 40
1020
0130
2100
0001
,  // measure 41
3100
1000
1002
0100
,  // measure 42
1003
0000
0000
0001
0000
0000
0010
0000
0200
0000
0000
0000
1300
0000
0001
0100
,  // measure 43
0001
1000
0001
0001
1000
0100
0010
0100
,  // measure 44
1000
0010
0100
0001
0100
0010
1000
0100
,  // measure 45
0001
0100
1000
0010
0001
0010
1000
0001
,  // measure 46
1000
0010
0100
0010
1000
0100
0010
0100
,  // measure 47
1000
0001
0010
0100
1000
0100
0010
0001
,  // measure 48
1000
0010
0001
0010
1000
0100
0001
0100
,  // measure 49
1000
0001
1000
0100
0010
0100
1000
0001
,  // measure 50
0100
0000
0001
0000
1000
0000
0100
0000
1000
0000
0001
1000
0001
1000
0001
0000
,  // measure 51
0100
0000
0010
0100
0010
0100
0010
0000
1000
0000
0000
1000
0100
0000
0000
0100
,  // measure 52
0001
0000
0000
0001
0100
0000
0000
0100
1000
0000
0000
1000
0001
0000
0000
0001
,  // measure 53
0010
0000
0000
0010
0100
0000
0000
0100
1000
0000
0000
1000
0001
0000
0000
0001
,  // measure 54
1000
0000
0000
1000
0010
0000
0000
0010
0100
0000
0000
0100
0001
0000
0000
0001
,  // measure 55
1000
0000
0000
1000
0100
0000
0000
0010
0100
0000
0000
0100
1000
0000
0000
1000
,  // measure 56
0100
0000
0000
0100
0001
0000
0000
0001
0100
0000
0000
0100
1000
0000
0000
1000
,  // measure 57
0001
0000
0000
0001
0010
0000
0000
0000
1001
0000
0000
0000
2000
0000
0000
0000
,  // measure 58
3001
0000
0000
0100
0000
0000
0001
0000
1000
0000
0100
0000
1100
0000
0000
0000
,  // measure 59
0010
0100
0110
0000
1000
0100
0010
0001
,  // measure 60
0000
0001
1000
0010
1000
0001
0100
0010
,  // measure 61
0000
0010
1000
0100
0001
0000
1000
0010
,  // measure 62
0001
0000
0000
0000
1000
0000
0001
0000
0200
0000
0000
0000
0301
0000
1000
0001
,  // measure 63
1000
0000
0100
0000
0010
0000
0001
0000
1000
0000
0000
0010
0100
0000
0001
0000
,  // measure 64
0010
0001
0000
0001
1000
0010
0100
0001
,  // measure 65
0000
0001
1000
0100
0001
0000
1000
0010
,  // measure 66
0001
0000
0000
0000
1000
0000
0001
0000
0020
0000
0000
0000
0031
0000
1000
0001
,  // measure 67
0100
0001
1000
0100
2100
0000
0000
0000
,  // measure 68
0000
0000
0000
0000
,  // measure 69
0000
0000
3100
0000
;

//---------------dance-single - ----------------
#NOTES:
     dance-single:
     :
     Beginner:
     2:
     0.108,0.153,0.100,0.000,0.000,72.000,11.000,0.000,0.000,0.000,0.000,0.108,0.153,0.100,0.000,0.000,72.000,11.000,0.000,0.000,0.000,0.000: // measure 0
0001
0000
0000
0000
,  // measure 1
0001
0000
0000
0000
,  // measure 2
1000
0000
0000
0000
,  // measure 3
1000
0000
0000
0000
,  // measure 4
1001
0000
0000
0000
,  // measure 5
0000
0000
0000
0000
,  // measure 6
0100
0000
0000
0000
,  // measure 7
0000
0000
0000
0000
,  // measure 8
0010
0000
0000
0000
,  // measure 9
0100
0000
0000
0000
,  // measure 10
0010
0000
0000
0000
,  // measure 11
0000
0000
0000
0000
,  // measure 12
1001
0000
0000
0000
,  // measure 13
0000
0000
0000
0000
,  // measure 14
0010
0000
0000
0000
,  // measure 15
0000
0000
0000
0000
,  // measure 16
0100
0000
0000
0000
,  // measure 17
0010
0000
0000
0000
,  // measure 18
0100
0000
0000
0000
,  // measure 19
0000
0000
0000
0000
,  // measure 20
1001
0000
0000
0000
,  // measure 21
0001
0000
0000
1001
,  // measure 22
0000
0000
0000
0000
,  // measure 23
0000
0000
0000
1001
,  // measure 24
0000
0001
0000
1000
,  // measure 25
0000
0000
1001
0000
,  // measure 26
1000
0000
0001
0000
,  // measure 27
0000
0000
1000
0000
,  // measure 28
0100
0000
0010
0000
,  // measure 29
0000
0000
0001
0000
,  // measure 30
0010
0000
0100
0000
,  // measure 31
0000
0000
1000
0000
,  // measure 32
0000
0000
0001
0000
,  // measure 33
0000
0000
1000
0000
,  // measure 34
0000
0000
0001
0000
,  // measure 35
0000
0000
1001
0000
,  // measure 36
0000
0000
1000
0000
,  // measure 37
0000
0000
0001
0000
,  // measure 38
0000
0000
1000
0000
,  // measure 39
0000
0000
0100
0000
,  // measure 40
0000
0000
0010
0000
,  // measure 41
0000
0000
0001
0000
,  // measure 42
0000
0000
0010
0000
,  // measure 43
0000
0000
0100
0000
,  // measure 44
0000
0000
1000
0000
,  // measure 45
0000
0000
0100
0000
,  // measure 46
0000
0000
1000
0000
,  // measure 47
0000
0000
0001
0000
,  // measure 48
0000
0000
0100
0000
,  // measure 49
0000
0000
0001
0000
,  // measure 50
0000
0000
1000
0000
,  // measure 51
0000
0000
1001
0000
,  // measure 52
0000
0000
0001
0000
,  // measure 53
0000
0000
0010
0000
,  // measure 54
0000
0000
0100
0000
,  // measure 55
0000
0000
1001
0000
,  // measure 56
0000
0000
1000
0000
,  // measure 57
0000
0000
1001
0000
,  // measure 58
0001
0000
1000
0000
,  // measure 59
0000
0000
0001
0000
,  // measure 60
0100
0000
0001
0000
,  // measure 61
0000
0000
1000
0000
,  // measure 62
0010
0000
1000
0000
,  // measure 63
0000
0000
0001
0000
,  // measure 64
1000
0000
0001
0000
,  // measure 65
0000
0000
1000
0000
,  // measure 66
0001
0000
1000
0000
,  // measure 67
1000
0000
1001
0000
;
