#TITLE:mnemoniq;
#SUBTITLE:;
#ARTIST:youhei shimizu;
#TITLETRANSLIT:;
#SUBTITLETRANSLIT:;
#ARTISTTRANSLIT:;
#CREDIT:DigiMindAxel;
#BANNER:mnemoniq.png;
#BACKGROUND:mnemoniq-bg.png;
#LYRICSPATH:;
#CDTITLE:beatmania III.png;
#MUSIC:mnemoniq.mp3;
#METERTYPE:DDR X;
#OFFSET:-9.060;
#SAMPLESTART:17.617;
#SAMPLELENGTH:12.000;
#SELECTABLE:YES;
#BPMS:0.000=111.250;
#STOPS:;
#BGCHANGES:;

//---------------dance-single - ----------------
#NOTES:
     dance-single:
     :
     Medium:
     7:
     0.335,0.320,0.295,0.076,0.010:
0001
0020
0000
0000
0000
0031
1000
0001
,
1000
0200
0000
0000
1000
0000
1300
0000
,
0001
0200
0000
0000
0001
0000
0301
0000
,
1000
0100
1000
0000
0100
1000
0001
0000
,
0100
0000
0100
0000
0100
0000
0100
0010
,
1000
0000
1000
0000
1000
0000
1000
0100
,
0010
0000
0010
0000
0010
0000
0010
0001
,
0200
0000
0320
0000
,
1030
0000
1000
0000
1000
0000
1000
0001
,
0010
0000
0010
0000
0010
0000
0010
0001
,
0100
0000
0100
0000
0100
0010
1000
0000
,
2000
0000
0000
3001
,
0001
0000
0101
0000
0001
0001
1000
0100
,
1000
0000
1010
0000
1000
1000
0001
0010
,
0001
0101
0001
1001
,
1000
0010
1000
0000
0011
0000
0011
0000
,
1001
0000
0011
0000
0001
0001
1000
0010
,
1000
0000
1100
0000
1000
1000
0001
0100
,
0001
0011
1000
1001
,
0001
0100
0001
0000
1100
0000
1100
0000
,
1001
0000
0000
1000
0000
0000
1001
0000
0000
0000
0000
0000
0000
0000
0000
0000
,
1001
0000
0000
0001
0000
0000
1001
0000
0000
0000
0000
0000
0100
0000
0000
0000
,
0100
0000
0100
0000
0000
1000
0001
0000
,
1001
0000
1100
0000
1000
1000
0001
0010
,
0001
0000
0011
0000
0001
0001
1000
0100
,
1000
0000
1100
0000
1000
1000
0001
0010
,
0001
0000
0011
0000
1000
0100
0010
0001
,
0100
0000
1001
0000
0001
1000
0100
1000
,
0001
0000
1001
0000
1000
0001
0010
0001
,
1000
0000
1001
0000
0001
1000
0010
1000
,
0001
0000
1001
0000
1000
0001
0100
0001
,
2000
0000
0000
3001
,
0001
0000
0001
0000
0001
1000
0010
1000
,
0010
0000
0010
0000
0010
1000
0100
1000
,
0100
0000
0100
0000
0100
1000
0001
0010
,
0001
1001
1000
1001
,
0001
0000
0001
0000
0001
1000
0100
1000
,
0100
0000
0100
0000
0100
1000
0010
0100
,
0010
0000
0010
0000
0010
0100
0001
0010
,
0001
0000
0000
0000
0100
0001
1000
0000
,
2000
0000
0000
0000
0000
0000
0000
0001
,
3001
0001
0011
1100
,
1001
0000
0000
0000
;

//---------------dance-single - ----------------
#NOTES:
     dance-single:
     :
     Hard:
     9:
     0.415,0.380,0.162,0.048,0.162: // measure 1
1000
0000
0010
0000
0000
0010
0000
0000
0010
0000
1000
0000
0100
0000
0010
0000
,  // measure 2
0001
0000
0100
0000
0000
0100
0000
0000
0200
0000
0000
0001
0000
0000
0301
0000
,  // measure 3
1000
0000
0010
0000
0000
0010
0000
0000
0010
0000
0100
0000
0010
0000
1000
0000
,  // measure 4
0001
0000
0001
0000
0100
0010
0000
0000
1000
0000
1000
0000
1100
0000
0000
0000
,  // measure 5
1001
0000
0001
0000
0001
1000
0100
0010
,  // measure 6
0001
0000
0001
0000
0001
1000
0100
0010
,  // measure 7
0001
0000
0001
0000
0001
1000
0100
0010
,  // measure 8
0001
0100
1000
0100
0010
0100
1000
0000
,  // measure 9
1001
0000
1000
0000
1000
0001
0010
0100
,  // measure 10
1000
0000
1000
0000
1000
0001
0010
0100
,  // measure 11
1000
0000
1000
0000
1000
0001
0010
0100
,  // measure 12
1000
0000
1000
0000
1000
1000
0001
0001
,  // measure 13
1001
0000
0000
1000
0100
0000
0010
0000
0100
0000
1000
0000
1000
0000
0001
0000
,  // measure 14
0010
0000
0000
0001
0010
0000
0100
0000
0010
0000
0001
0000
1000
0000
0100
0000
,  // measure 15
1000
0000
0000
0010
0100
0000
0001
0000
0001
0000
0100
0000
1000
0000
0100
0000
,  // measure 16
0001
0000
0000
0100
0010
0000
1000
0000
1010
0000
0000
0000
1010
0000
0000
0000
,  // measure 17
1001
0000
0000
0100
0010
0000
1000
0000
0100
0000
0010
0000
0010
0000
0100
0000
,  // measure 18
1000
0000
0000
0010
0100
0000
0001
0000
0010
0000
0100
0000
0010
0000
0001
0000
,  // measure 19
1000
0000
0000
0010
0100
0000
0001
0000
0001
0000
0100
0000
1000
0000
0100
0000
,  // measure 20
0001
0000
1000
0000
1000
0010
0000
0010
0100
0000
0001
0000
0010
0000
0100
0000
,  // measure 21
1010
0000
0000
1010
0000
0000
2002
0000
0000
0000
0000
0000
3003
0000
0000
0000
,  // measure 22
0101
0000
0000
0101
0000
0000
1002
0000
0000
0000
0000
0000
0100
0000
0000
0000
,  // measure 23
0100
0000
0000
0000
0100
0000
0000
0000
0103
0000
0001
0000
1000
0100
0000
0000
,  // measure 24
1001
0000
0000
0001
1000
0000
0010
0000
1000
0000
0001
0000
0001
0000
1000
0000
,  // measure 25
0100
0000
0000
0010
0001
0000
1000
0000
0010
0000
0000
0010
0000
0000
0010
0000
,  // measure 26
0100
0000
0000
0010
1000
0000
0001
0000
0010
0000
0001
0000
0001
0000
1000
0000
,  // measure 27
0010
0000
0000
0100
0001
0000
1000
0000
0100
0000
1000
0000
0001
0000
0010
0000
,  // measure 28
0100
0000
0000
1000
0001
0000
0100
0000
0001
0000
1000
0000
1000
0000
0001
0000
,  // measure 29
0100
0000
0000
0001
1000
0000
0010
0000
1000
0000
0000
1000
0000
0000
1000
0000
,  // measure 30
0100
0000
0000
1000
0001
0000
0010
0000
0001
0000
1000
0000
1000
0000
0100
0000
,  // measure 31
0010
0000
0000
0001
1000
0000
0100
0000
1000
0000
1000
0000
0001
0000
0001
0000
,  // measure 32
0200
0000
0000
0310
,  // measure 33
1001
0000
0001
0000
0001
1000
0100
0010
,  // measure 34
0001
0000
0001
0000
0001
1000
0100
0010
,  // measure 35
0001
0000
0001
0000
0001
1000
0100
0010
,  // measure 36
0001
0100
1000
0100
0010
0100
1000
0000
,  // measure 37
1001
0000
1000
0000
1000
0001
0010
0100
,  // measure 38
1000
0000
1000
0000
1000
0001
0010
0100
,  // measure 39
1000
0000
1000
0000
1000
0001
0010
0100
,  // measure 40
1000
0100
0001
0100
0010
0100
0001
0100
,  // measure 41
1000
0000
0000
1000
0000
0000
0100
0000
0000
0100
0000
0000
0010
0000
0001
0000
,  // measure 42
0010
0000
0000
0000
0000
0000
0000
0000
0000
0010
0000
0000
0000
0000
0000
0000
0000
0000
0001
0000
0000
0000
0000
0000
0010
0000
0000
0000
0001
0000
0000
0000
0010
0000
0000
0000
0100
0000
0000
0000
1000
0000
0000
0000
0100
0000
0000
0000
,  // measure 43
1100
0000
0000
0000
;

//---------------dance-single - ----------------
#NOTES:
     dance-single:
     :
     Easy:
     3:
     0.117,0.160,0.076,0.048,0.000:
1000
0000
0000
0000
,
1000
0000
0000
0000
,
0001
0000
0000
0000
,
0001
0000
0000
0000
,
1001
0000
1000
0000
,
0001
0000
0001
0000
,
0100
0000
0100
0000
,
0020
0000
1030
0000
,
1001
0000
0001
0000
,
1000
0000
1000
0000
,
0010
0000
0010
0000
,
0110
0000
0000
0000
,
1000
0001
0000
0001
,
0000
0100
0000
0010
,
0000
1000
0000
0100
,
0000
0010
0000
0001
,
1000
0001
0000
0100
,
0000
0010
0000
1000
,
0000
0100
0000
0010
,
0001
1000
0000
0000
,
2002
0000
3003
0000
,
0220
0000
0330
0000
,
0000
0000
0000
1000
,
1001
0001
0000
1000
,
0000
0010
0000
0100
,
0000
0001
0000
0010
,
0000
0100
1000
0001
,
1000
0100
0000
0010
,
0000
0001
0000
0100
,
0000
0010
0000
1000
,
0001
1000
0000
0001
,
1001
0000
0000
1000
,
0001
0000
0000
0000
,
0001
0000
0000
0000
,
0100
0000
0000
0000
,
0010
0000
0000
0000
,
1000
0000
0000
0000
,
1000
0000
0000
0000
,
0010
0000
0000
0000
,
0100
0000
0000
0000
,
0001
0000
0000
0000
,
0001
0000
0000
0000
,
1001
0000
0000
0000
;

//---------------dance-single - ----------------
#NOTES:
     dance-single:
     :
     Beginner:
     1:
     0.063,0.080,0.086,0.000,0.000:
0001
0000
0000
0000
,
0001
0000
0000
0000
,
1000
0000
0000
0000
,
1000
0000
0000
0000
,
1001
0000
0000
0000
,
0000
0000
0000
0000
,
0001
0000
0000
0000
,
1000
0000
0000
0000
,
1001
0000
0000
0000
,
0000
0000
0000
0000
,
1000
0000
0000
0000
,
0001
0000
0000
0000
,
1001
0000
0000
0000
,
1000
0000
0000
0000
,
1000
0000
0000
0000
,
1000
0000
0000
0000
,
0001
0000
0000
0000
,
0001
0000
0000
0000
,
0001
0000
0000
0000
,
0001
0000
0000
0000
,
1001
0000
0000
0000
,
1000
0000
0000
0000
,
0000
0000
0000
0000
,
1001
0000
0000
0000
,
0001
0000
0000
0000
,
0001
0000
0000
0000
,
1000
0000
0000
0000
,
1001
0000
0000
0000
,
0001
0000
0000
0000
,
1000
0000
0000
0000
,
1000
0000
0000
0000
,
1001
0000
0000
0000
,
1000
0000
0000
0000
,
0000
0000
0000
0000
,
0001
0000
0000
0000
,
0000
0000
0000
0000
,
1001
0000
0000
0000
,
0000
0000
0000
0000
,
1000
0000
0000
0000
,
0001
0000
0000
0000
,
1000
0000
0000
0000
,
1000
0000
0000
0000
,
1001
0000
0000
0000
;

//---------------dance-single - ----------------
#NOTES:
     dance-single:
     :
     Challenge:
     11:
     0.523,0.440,0.133,0.105,0.405: // measure 1
1001
0000
0000
0000
0000
0000
0100
0000
0000
0000
0000
0000
0000
0000
0000
0100
0000
0000
0000
0000
0000
0000
0000
0000
0100
0000
0000
0000
0000
0000
0001
0000
0000
0000
0000
0000
0001
0000
0000
0000
0000
0000
0001
0000
0000
0000
1000
0000
,  // measure 2
0100
0000
0000
0000
0000
0000
0010
0000
0000
0000
0000
0000
0000
0000
0000
0010
0000
0000
0000
0000
0000
0000
0000
0000
0010
0000
0000
0000
0000
0000
0000
0000
0000
0100
0000
0000
0000
0000
0000
0000
0000
0000
0100
0000
0000
0000
1000
0000
,  // measure 3
0001
0000
0000
0000
0000
0000
0010
0000
0000
0000
0000
0000
0000
0000
0000
0010
0000
0000
0000
0000
0000
0000
0000
0000
0010
0000
0000
0000
0100
0000
0010
0000
0000
0000
0000
0000
0001
0000
0000
0000
1000
0000
0001
0000
0000
0000
0000
0000
,  // measure 4
1000
0000
1001
0000
1000
0001
0000
0001
1000
0000
0010
0000
0110
0000
0000
0000
,  // measure 5
0010
0000
0100
0000
0010
0000
1000
0100
0000
1000
0100
0000
1000
0000
1000
0000
,  // measure 6
0010
0000
0100
0000
0010
0000
1000
0100
0000
1000
0100
0000
1000
0000
1000
0000
,  // measure 7
0010
0000
0100
0000
0010
0000
1000
0100
0000
1000
0100
0000
1000
0000
1000
0000
,  // measure 8
0001
0000
0010
0000
0100
0000
1000
0010
0000
1000
0010
0000
0100
0000
0001
0000
,  // measure 9
1001
0000
1000
0000
0001
0000
1000
0010
0000
1000
0010
0000
1000
0000
1000
0000
,  // measure 10
0001
0000
1000
0000
0001
0000
1000
0010
0000
1000
0010
0000
1000
0000
1000
0000
,  // measure 11
0001
0000
1000
0000
0001
0000
1000
0010
0000
1000
0010
0000
1000
0000
1000
0000
,  // measure 12
0001
0000
0010
0001
0010
0000
0100
0010
0100
1000
0000
1000
0001
0000
1001
0000
,  // measure 13
1000
0100
1000
0100
1000
0000
0001
0000
0000
0000
0001
0000
0001
0000
1000
0000
,  // measure 14
0001
0010
0001
1000
0000
1000
1000
0010
,  // measure 15
0100
0001
0100
0001
0100
0000
0001
0000
0000
0000
0001
0000
1000
0000
0100
0000
,  // measure 16
1000
0001
1000
0010
0110
0000
0110
0000
,  // measure 17
0010
1000
0010
1000
0010
0000
1000
0000
0000
0000
1000
0000
1000
0000
0100
0000
,  // measure 18
0010
0001
0010
0100
0000
0100
0100
1000
,  // measure 19
0010
0100
0010
0100
0010
0000
1000
0000
0000
0000
1000
0000
0001
0000
0010
0000
,  // measure 20
0001
0010
0001
0000
1000
0100
0000
0100
0010
0000
0100
0000
1000
0010
0100
0001
,  // measure 21
0100
0000
0001
0100
0000
0000
0202
0000
0000
0000
0303
0000
0001
1000
0010
0000
,  // measure 22
1010
0000
1000
0010
0000
0000
2010
0000
0000
0000
0000
0000
0001
0000
0000
0000
,  // measure 23
0001
0000
0000
0000
0001
0000
0000
0000
3001
0000
1000
0000
0010
0100
0000
0000
,  // measure 24
0001
1000
0001
1000
0001
0000
1000
0000
0000
0000
1000
0000
1000
0000
0001
0000
,  // measure 25
0010
0000
0100
0000
0010
0000
0001
0000
1000
0000
0001
0100
0000
0001
0100
0000
,  // measure 26
0010
1000
0010
1000
0010
0000
1000
0000
0000
0000
1000
0000
1000
0000
0001
0000
,  // measure 27
0010
0000
0000
0001
0000
0000
0010
0000
0000
0001
0000
0000
1000
0000
0010
1000
0000
0000
0001
0000
0100
0001
0000
0000
,  // measure 28
1000
0001
1000
0001
1000
0000
0010
0000
0000
0000
0010
0000
0010
0000
1000
0000
,  // measure 29
0100
0000
0010
0000
0100
0000
1000
0000
0001
0000
0100
0001
0000
0100
0001
0000
,  // measure 30
1000
0100
1000
0100
1000
0000
0001
0000
0000
0000
0001
0000
0001
0000
1000
0000
,  // measure 31
0010
0000
0000
0100
0000
0000
0010
0000
0000
1000
0000
0000
0001
0000
0010
0001
0000
0000
1000
0000
0100
1000
0000
0000
,  // measure 32
0002
0203
0320
1030
,  // measure 33
0001
0000
0010
0000
0001
0000
1000
0010
0000
1000
0010
0000
1000
0000
1000
0000
,  // measure 34
0001
0000
0010
0000
0001
0000
1000
0010
0000
1000
0010
0000
1000
0000
1000
0000
,  // measure 35
0001
0000
0010
0000
0001
0000
1000
0010
0000
1000
0010
0000
1000
0000
1000
0000
,  // measure 36
0001
0000
0010
0000
0100
0000
1000
0010
0000
1000
0010
0000
0100
0000
0001
0000
,  // measure 37
1001
0000
1000
0000
0001
0000
0010
0001
0000
0010
0002
0000
0100
0000
0103
0000
,  // measure 38
0001
0000
1000
0000
0001
0000
0010
0001
0000
0010
0002
0000
0100
0000
0103
0000
,  // measure 39
0001
0000
1000
0000
0001
0000
0010
0001
0000
0010
0002
0000
0100
0000
0103
0000
,  // measure 40
0001
0000
1000
0100
1000
0000
0001
1000
0001
0000
0100
0000
0110
0000
0000
0000
,  // measure 41
0200
0000
0000
0001
0000
0000
0001
0000
0000
0001
0000
0000
0301
0000
1000
0000
,  // measure 42
1200
0000
0000
0000
0000
0000
0000
0000
0000
1000
0000
0000
0000
0000
0000
0000
0000
0000
1300
0000
0000
0000
0000
0000
0001
0000
0000
0000
0001
0000
0000
0000
1000
0000
0001
0000
1000
0000
0000
0000
0100
0000
0000
0000
0010
0000
0000
0000
,  // measure 43
0110
0000
0000
0000
;
