#TITLE:fallen leaves;
#SUBTITLE:;
#ARTIST:猫叉Master;
#TITLETRANSLIT:;
#SUBTITLETRANSLIT:;
#ARTISTTRANSLIT:Nekomata Master;
#CREDIT:DigiMindAxel;
#BANNER:fallen leaves.png;
#BACKGROUND:fallen leaves-bg.png;
#LYRICSPATH:;
#CDTITLE:REFLEC BEAT.png;
#MUSIC:fallen leaves.mp3;
#METERTYPE:DDR X;
#OFFSET:-12.600;
#SAMPLESTART:72.224;
#SAMPLELENGTH:12.000;
#SELECTABLE:YES;
#DISPLAYBPM:165.000;
#BPMS:0.000=165.000,160.000=110.000,162.000=165.000;
#STOPS:;
#BGCHANGES:;

//---------------dance-single - ----------------
#NOTES:
     dance-single:
     :
     Easy:
     6:
     0.293,0.348,0.153,0.252,0.000:
0002
0000
0000
0000
,
2003
0000
0000
0000
,
3002
0000
0000
0000
,
2003
0000
0000
0000
,
3001
0000
0100
0000
,
0001
0000
0100
0000
,
0010
0000
0010
0000
,
0020
0000
0000
0030
,
0110
0100
0010
0000
,
0100
0001
0100
0000
,
0010
0100
0010
0000
,
1000
0100
0010
0000
,
0100
1000
0100
1000
,
0100
1000
0100
1000
,
0001
1000
0001
1000
,
0001
1000
0001
0000
,
1001
1000
0001
0000
,
0010
0001
0010
0000
,
0100
0010
0100
0000
,
0010
0001
0100
0010
,
0100
0001
0100
0000
,
0010
0100
0010
0000
,
0100
0001
0010
0001
,
0100
0010
0100
0000
,
0010
1000
0010
0000
,
0100
0010
0100
0000
,
0010
1000
0010
1000
,
0100
0000
1000
0000
,
0100
1000
0010
0000
,
0100
0001
0010
0100
,
1000
0001
1000
0000
,
0100
1000
1001
0000
,
2002
0000
3003
2002
,
0000
3003
0010
0100
,
0220
0000
0330
0220
,
0000
0330
1000
0001
,
2002
0000
3003
2002
,
0000
3003
0001
1000
,
2002
0000
3003
2002
,
0000
3003
0220
0000
,
0330
0000
0000
0100
,
0010
0100
0010
1000
,
0100
1000
0100
0010
,
0001
0010
0001
0100
,
0010
0100
0010
1000
,
0100
0010
0000
0100
,
1000
0100
0000
0010
,
0001
0010
0000
0001
,
0100
0010
1000
0010
,
0100
0010
1000
0001
,
0000
0010
0001
0100
,
0010
0100
0010
1000
,
0000
0100
1000
0001
,
0001
0001
0001
1000
,
1000
1000
1000
0220
,
0000
0330
0220
0000
,
0330
0000
0000
0001
,
1000
0001
0000
1000
,
0001
1000
0000
0100
,
1000
0100
0000
0010
,
0001
0010
0000
0001
,
0001
0001
0001
1001
,
1000
1000
1000
1001
,
0001
0001
0001
1001
,
0000
2000
0000
3000
0000
0000
0000
0000
;

//---------------dance-single - ----------------
#NOTES:
     dance-single:
     :
     Medium:
     9:
     0.465,0.464,0.495,0.171,0.000:
1000
0000
1000
0000
,
0001
0000
0001
0000
,
0100
0000
0100
0000
,
0010
0000
0010
0000
,
1000
1000
1000
1000
,
0001
0001
0001
0001
,
1000
1000
1000
1000
,
2002
0000
0000
0000
3003
0000
0010
0100
,
0010
0110
0010
0110
,
0010
0110
0010
0110
,
1000
1001
1000
1001
,
1000
1001
2000
0000
,
3001
0100
0001
0000
0100
0010
0100
0000
,
0001
0100
0001
0000
0100
0010
0100
0000
,
0001
1000
0001
0000
0010
0001
0010
0001
,
1000
0100
1000
0100
1000
0000
0000
0000
,
1002
0000
0100
0203
0000
0000
0301
1000
,
0002
0000
1000
1003
0000
0001
0100
0001
,
1000
0100
0010
0001
,
1000
0001
1000
0000
0010
0100
0010
0100
,
0020
0000
1000
2030
0000
0000
3001
1000
,
0002
0000
0100
0103
0000
0001
0100
0001
,
1000
0100
0010
0100
,
1000
0001
0100
0001
1000
0000
0000
0000
,
2001
0000
0100
3200
0000
0000
1300
0001
,
2000
0000
0100
3100
0000
1000
0100
1000
,
0001
0010
0100
0010
,
0001
0000
1000
0000
0001
0010
0100
1000
,
0002
0000
0100
0203
0000
0000
0310
0100
,
0002
0000
0010
0013
0000
0001
0010
0001
,
1000
0000
0010
0200
0000
0000
0310
0000
,
1000
0000
1000
0001
1000
0001
0100
0000
,
0101
0000
0000
0101
0000
0000
1001
0000
,
0000
1001
0000
0000
0010
0100
0010
0000
,
0110
0000
0000
0110
0000
0000
1100
0000
,
0000
1100
0000
0000
1000
0001
1000
0000
,
1001
0000
0000
1001
0000
0000
0011
0000
,
0000
0011
0000
0000
0001
1000
0001
0000
,
1001
0000
0000
1001
0000
0000
1100
0000
,
0000
1100
0000
0000
0110
0000
0000
0220
,
0000
0000
0330
0101
,
0100
0110
0100
0101
,
0010
0000
1000
0000
0100
1000
0100
0000
,
1100
0000
0100
0000
0110
0000
0010
0001
,
0100
0000
0010
0100
0010
0000
0101
0000
,
0100
0110
0100
0101
,
0001
1000
0001
0000
1000
0000
1100
0000
,
0000
0000
1100
0000
0000
0000
1000
0001
,
1000
0000
0100
0010
0100
0000
1010
0000
,
0010
0110
0010
1010
,
1000
0000
0001
0000
1000
0001
1000
0000
,
1100
0000
0100
0000
0110
0000
0010
0001
,
0100
0000
0010
0100
0010
0000
1001
0000
,
1000
1001
1000
1001
,
0001
1001
0001
0110
,
0000
1001
1001
0000
,
0110
0000
0010
0100
0010
0000
1000
0100
,
0010
0000
0100
1000
0100
0000
0010
0001
,
0010
0000
0001
0010
0100
0000
1000
0010
,
1000
0000
0010
0100
0001
0000
0100
0001
,
0100
0000
0001
0100
0010
0000
1001
0000
,
1000
1100
1000
1001
,
0001
0000
0011
0000
0001
0000
1000
0001
,
1000
0001
0100
0001
0100
0001
1000
0100
,
0010
0002
0000
0003
0000
0000
0000
0000
;

//---------------dance-single - ----------------
#NOTES:
     dance-single:
     :
     Hard:
     13:
     0.640,0.580,0.486,0.099,0.306: // measure 1
0001
0100
0010
0100
,  // measure 2
0001
0010
0100
0010
,  // measure 3
0001
1000
0100
1000
,  // measure 4
0001
0100
0010
1000
,  // measure 5
0001
0000
1001
0000
1001
0000
0001
0100
,  // measure 6
0010
0000
0110
0000
0110
0000
0100
0010
,  // measure 7
0001
0000
0011
0000
0001
1000
0100
1000
,  // measure 8
0002
0000
0000
0000
0000
0000
0000
0000
0003
0000
0000
0100
0010
0000
0010
0000
,  // measure 9
1000
0100
0010
0000
0010
0001
0010
0000
,  // measure 10
0010
0001
0100
0000
0100
0001
0010
0100
,  // measure 11
1000
0010
0100
0000
0100
0010
0100
0000
,  // measure 12
0100
0001
1000
0000
1001
0000
1001
0000
,  // measure 13
0001
0100
0001
0100
0010
0100
0001
0000
,  // measure 14
0100
0010
0100
0010
1000
0100
0010
0000
,  // measure 15
0100
1000
0010
0100
0001
0010
0001
1000
,  // measure 16
0010
0100
0001
0100
0020
0000
0000
0030
,  // measure 17
0110
0000
0000
0010
0100
0000
0001
0000
0010
0000
0000
0000
0100
0000
0010
0100
,  // measure 18
0010
0000
0000
0001
1000
0000
0200
0000
0000
0000
1300
0000
0001
0000
0010
0000
,  // measure 19
0100
1000
0010
0100
0020
0000
0100
0000
,  // measure 20
0130
0001
0010
0100
1000
0100
0010
0001
,  // measure 21
1001
0000
0000
1000
0100
0000
1000
0000
0001
0000
0000
0000
0010
0000
0100
0010
,  // measure 22
0100
0010
0001
2000
0000
3100
0010
0001
,  // measure 23
0100
0000
0010
0000
0100
0000
0001
0000
0010
0000
0000
0000
0100
0000
1000
0001
,  // measure 24
1000
0100
0001
0100
1000
0001
0000
0000
,  // measure 25
1001
0000
0000
1000
0010
0000
0100
0000
0010
0000
0000
0000
0100
0000
0001
1000
,  // measure 26
0001
0100
0010
2000
0000
3100
0010
0001
,  // measure 27
1000
0000
0000
0010
0100
0000
0010
0000
1000
0000
0100
0000
1000
0000
0000
0000
,  // measure 28
0001
0100
0010
1000
0010
0100
0001
1000
,  // measure 29
1001
0000
0000
0001
0100
0000
0010
0000
0100
0000
0000
0000
0010
0000
1000
0001
,  // measure 30
1000
0010
0100
0001
0010
0100
0010
0001
,  // measure 31
0100
0000
0000
0001
1000
0000
0100
0000
2000
0000
0000
0000
0001
0000
0000
0000
,  // measure 32
3001
0000
1000
0000
0100
0000
1000
0001
1000
0000
0100
0000
0010
0000
0001
0000
,  // measure 33
0101
0000
0000
0100
0000
0000
0100
0000
0110
0000
0000
0000
0110
0000
0000
0100
,  // measure 34
0000
0000
1001
0000
0000
0000
0001
1000
0001
0000
0010
0000
0100
0000
1000
0000
,  // measure 35
1010
0000
0000
0010
0000
0000
0010
0000
0110
0000
0000
0000
0110
0000
0000
0100
,  // measure 36
0000
0000
1001
0000
0000
0000
1000
0001
1000
0000
0010
0000
0100
0000
0001
0000
,  // measure 37
0011
0000
0000
0010
0000
0000
0010
0000
0110
0000
0000
0000
0110
0000
0000
0100
,  // measure 38
0000
0000
0100
0000
1100
0000
0001
1000
0001
0000
0100
0000
0010
0000
1000
0000
,  // measure 39
1100
0000
0000
0100
0000
0000
0100
0000
0110
0000
0001
1000
0001
0000
0000
0001
,  // measure 40
0000
0000
0101
0000
0000
0000
0100
0000
0110
0000
0000
0110
0000
0000
0220
0000
,  // measure 41
0000
0000
0000
0000
0000
0000
0000
0000
0330
0000
0000
0000
1001
0000
0000
0001
,  // measure 42
0010
0000
0000
0010
0100
0000
0000
0100
0010
0000
0000
0010
0001
0000
0100
0000
,  // measure 43
0010
0000
0000
0000
0100
0000
0001
0000
0010
0000
0000
0000
0100
0000
0000
0100
,  // measure 44
0010
0000
0000
0010
0001
0000
0000
0001
1000
0000
0000
1000
0100
0000
1000
0000
,  // measure 45
0010
0000
0000
0000
0100
0000
0001
1000
0001
0000
0100
0000
0101
0000
0000
0000
,  // measure 46
0101
0000
0000
0001
1000
0000
0000
1000
0100
0000
0000
0100
0010
0000
0001
0000
,  // measure 47
1000
0000
0010
0000
0100
0000
0000
0000
0010
0000
0000
0000
0110
0000
0000
0100
,  // measure 48
0000
0000
0100
0000
1001
0000
0000
1001
0000
0000
1000
0001
1000
0000
0000
0000
,  // measure 49
0110
0000
0000
0110
0000
0000
0110
0000
1000
0001
1000
0000
0010
0000
0000
0010
,  // measure 50
1000
0000
0000
1000
0001
0000
0000
0001
0100
0000
0000
0100
0010
0000
1000
0000
,  // measure 51
0100
0000
0000
0000
1000
0000
0100
0000
0010
0000
0000
0000
0001
0000
0000
0001
,  // measure 52
0010
0000
0000
0010
0100
0000
0000
0100
1000
0000
0000
1000
0001
0000
0100
0000
,  // measure 53
0010
0000
0000
0000
0100
0000
0010
0100
0010
0000
0100
0000
0101
0000
0000
0000
,  // measure 54
0101
0000
1001
0000
1000
0001
0011
0000
,  // measure 55
0011
0000
0000
0000
1001
0000
0000
0001
1000
0000
0100
0000
1100
0000
0000
0100
,  // measure 56
0000
0000
0100
0000
0110
0000
0000
0110
0000
0000
0010
0100
0010
0000
0000
0000
,  // measure 57
1001
0000
1000
0000
0100
0000
0010
0000
0100
0000
1000
0000
0001
0000
0100
0001
,  // measure 58
0100
0000
0000
0000
0001
0000
1000
0100
1000
0000
0000
0000
0010
0000
0100
0010
,  // measure 59
0100
0000
0000
0000
0001
0000
0010
0001
0010
0000
0001
0000
2000
0000
0010
0000
,  // measure 60
3010
0000
0100
0000
0001
0000
1000
0001
1000
0000
0000
0000
0010
0000
1000
0010
,  // measure 61
1000
0000
0001
1000
0001
0000
0010
0000
0100
0000
1000
0000
1001
0000
0000
0000
,  // measure 62
0110
0000
0101
0000
0001
1000
1001
0000
,  // measure 63
0110
0000
0000
0000
1100
0000
0000
0000
1000
0000
0001
0000
1000
0000
0100
1000
,  // measure 64
0100
0000
1000
0000
0010
0000
0100
0010
0100
0000
0010
0000
1000
0000
0001
0100
,  // measure 65
0001
0100
0020
0000
0000
0000
0030
0000
0000
0000
0000
0000
0000
0000
0000
0000
;

//---------------dance-single - ----------------
#NOTES:
     dance-single:
     :
     Challenge:
     16:
     0.804,0.783,0.522,0.081,0.775:
1000
0100
0010
1000
0010
0100
1000
0000
,
0010
1000
0010
1000
0001
0010
0001
0000
,
0010
0100
0010
0100
1000
0001
1000
0000
,
0001
0010
0100
0001
0100
0010
0001
1000
,
1100
0000
1100
0000
1100
0000
0100
1000
,
1001
0000
0000
0000
1001
0000
0000
0000
1001
0000
0000
0001
0100
0000
0010
0000
,
0110
0000
0100
0000
0001
0000
0010
0000
0100
0000
1000
0001
1000
0000
0010
0000
,
0220
0000
0000
0000
0000
0000
0000
0000
0330
0000
0000
1000
0001
0000
0001
0000
,
1000
0100
1000
0100
0010
0100
1000
0000
,
1000
0100
1000
0001
0100
0010
0100
0000
,
0020
0100
0130
0001
0010
0001
1000
0000
,
1000
0001
1000
0100
0020
0001
0032
1000
,
1003
0000
0001
0100
0001
0000
0010
0000
0100
0000
0010
0000
0001
0000
1000
0000
,
0010
0000
0100
0010
0100
0000
0010
0000
1000
0000
0100
0010
0100
0000
1000
0001
,
1000
0000
0001
0100
0001
0100
0001
0000
1000
0000
0100
1000
0100
1000
0100
0000
,
0010
0001
0010
0001
1000
0001
1000
0001
2000
0000
0000
0000
0000
0000
3000
0000
,
1001
0000
0000
1000
0010
0000
0000
0010
0100
0000
0000
0100
0001
0000
1000
0100
,
1000
0000
0000
1000
0001
0000
0000
0001
0010
0000
0001
1000
0001
0000
1000
0001
,
1000
0000
0000
1000
0100
0000
0000
0100
0010
0000
0000
0010
0001
0000
0000
0001
,
1000
0000
0000
1000
0010
0000
0000
0010
0100
0000
0001
0000
0010
0000
0100
0000
,
1100
0000
0000
1000
0010
0000
0000
0010
1000
0000
0000
1000
0001
0000
0010
0001
,
0010
0000
0000
0010
0100
0000
0000
0100
0010
0000
0001
0100
0001
0000
1000
0010
,
1000
0000
0000
1000
0001
0000
0000
0001
0100
0000
0000
0100
0001
0000
1000
0100
,
1000
0000
0001
0000
0100
0000
0010
0000
0100
0000
0001
0010
0100
1000
0001
0000
,
1001
0000
0000
0001
0100
0000
0000
0100
0010
0000
0000
0010
1000
0000
0001
1000
,
0001
0000
0000
0001
0010
0000
0000
0010
0100
0000
1000
0001
1000
0000
0001
1000
,
0001
0000
0000
0001
0010
0000
0000
0010
0100
0000
0000
0100
0010
0000
0000
0010
,
0001
0000
0000
0001
1000
0000
0000
1000
0001
0000
0010
0000
0100
0000
1000
0000
,
1100
0000
0000
1000
0010
0000
0000
0010
0100
0000
0000
0100
0010
0000
0100
1000
,
0100
0000
0000
0100
0010
0000
0000
0010
0001
0000
1000
0000
0010
0000
0100
0000
,
0010
0000
0000
0010
1000
0000
0001
0000
0010
0000
0000
0010
0100
0000
0000
0100
,
0010
0000
0000
0010
0001
0000
1000
0001
1000
0000
0010
0000
0100
0000
0010
0000
,
0110
0000
0000
0101
0000
0000
0100
0000
0110
0000
0000
0000
0110
0000
0000
1010
,
0000
0000
0110
0000
0000
0000
0100
0001
0010
0000
0100
1000
0010
0000
0100
0000
,
0101
0000
0000
1001
0000
0000
0001
0000
0101
0000
0000
0000
1010
0000
0000
0110
,
0000
0000
1010
0000
0000
0000
0010
1000
0100
0000
0010
0001
0100
0000
0010
0000
,
0110
0000
0000
0011
0000
0000
0100
0000
0110
0000
0000
0000
0110
0000
0000
1100
,
0000
0000
0010
0000
0110
0000
0100
0001
0010
0000
0100
1000
0010
0000
0100
0000
,
0101
0000
0000
1010
0000
0000
1000
0000
1001
0000
0001
1000
0100
0000
0000
1100
,
0000
0000
1100
0000
0000
0000
1000
0001
0010
0000
0000
0011
0000
0000
0022
0000
,
0000
0000
0000
0000
0000
0000
0000
0000
0033
0000
0000
0000
1001
0000
0000
0001
,
1000
0000
0001
0010
0001
0000
0010
0100
0010
0000
0100
1000
0100
0000
0000
0010
,
0100
0000
0000
0100
1000
0000
0000
1000
0001
0000
0000
0001
0100
0000
0000
0100
,
0010
0000
1000
0010
1000
0000
0010
0100
0010
0000
0100
0001
0100
0000
0000
0001
,
1000
0000
0000
1000
0001
0000
0010
0100
1000
0100
0010
0000
0110
0000
0000
0100
,
0001
0000
0000
0001
1000
0000
0000
1000
0100
0000
0000
0100
0010
0000
0001
0100
,
0001
0100
0001
0010
0100
0000
0000
1000
0001
0000
0000
0000
1001
0000
0000
1001
,
0000
0000
1001
0000
1010
0000
0000
1010
0000
0000
0010
0000
1000
0100
0010
0000
,
0110
0000
0000
0110
0000
0000
0100
0001
0010
0100
1000
0001
0100
0000
0000
0001
,
1000
0000
0010
1000
0010
0000
0100
0010
0100
0000
0001
0100
0001
0000
0000
1000
,
0100
0000
0000
0100
0010
0000
0000
0010
0100
0000
0000
0100
1000
0000
0000
1000
,
0001
0000
0010
0001
0010
0000
0100
0010
0100
0000
1000
0100
1000
0000
0000
0001
,
1000
0000
0000
1000
0001
0000
0100
0010
1000
0010
0100
0000
0110
0000
0000
0010
,
1000
0000
0000
1000
0001
0000
0000
0001
1000
0000
1000
0000
1001
0000
0000
0000
,
0110
0000
0000
0000
1001
0000
0000
1000
0010
0000
0010
0000
0110
0000
0000
0101
,
0000
0000
0010
0000
0110
0000
0000
1010
0000
0000
0010
0100
0010
0000
0000
0000
,
1001
0000
0001
0000
1000
0100
0010
0001
0010
0100
1000
0001
1000
0000
0010
1000
,
0001
0000
0010
0001
0010
0000
0001
0010
0100
0000
1000
0001
1000
0000
0001
1000
,
0001
0000
0010
0001
0100
0000
0010
0100
0010
0000
1000
0100
0010
0000
0001
1000
,
0001
0000
1000
0001
1000
0000
0010
0100
0001
0000
0010
0100
0010
0000
0001
0100
,
0001
0100
0010
1000
0010
1000
0001
0010
0100
1000
0100
0010
0001
0000
1000
0010
,
1000
0000
0100
0000
0110
0000
0010
0000
1000
0000
0001
0100
0001
0000
0010
0000
,
0110
0000
0100
0000
0001
0000
1000
0001
0100
0000
0100
0000
0110
0000
0010
0001
,
0010
0001
0010
0000
0100
0000
1000
0010
1000
0010
1000
0000
0001
0010
0100
1000
,
0100
0010
0002
0000
0000
0000
0003
0000
0000
0000
0000
0000
0000
0000
0000
0000
;

//---------------dance-single - ----------------
#NOTES:
     dance-single:
     :
     Beginner:
     3:
     0.118,0.174,0.117,0.000,0.000:
1000
0000
0000
0000
,
0000
0000
0000
0000
,
1000
0000
0000
0000
,
0000
0000
0000
0000
,
0001
0000
0000
0000
,
0001
0000
0000
0000
,
0001
0000
0000
0000
,
0100
0000
0000
0000
,
0110
0000
0000
0000
,
0010
0000
0000
0000
,
0100
0000
0000
0000
,
0010
0000
0000
0000
,
1000
0000
0000
0000
,
1000
0000
0000
0000
,
0001
0000
0000
0000
,
0001
0000
0000
0000
,
0010
0000
0000
0000
,
0100
0000
0000
0000
,
0010
0000
0000
0000
,
0001
0000
0000
0000
,
1000
0000
0000
0000
,
0100
0000
0000
0000
,
0010
0000
0000
0000
,
0100
0000
0000
0000
,
1000
0000
0000
0000
,
0010
0000
0000
0000
,
0100
0000
0000
0000
,
0010
0000
0000
0000
,
0100
0000
0000
0000
,
0001
0000
0000
0000
,
0010
0000
0000
0000
,
0001
0000
0000
0000
,
0110
0000
0000
0000
,
0000
0000
0000
0000
,
1001
0000
0000
0000
,
0000
0000
0000
0000
,
0110
0000
0000
0000
,
0000
0000
0000
0000
,
1001
0000
0000
0000
,
0000
0000
0000
0000
,
0000
0000
0000
1001
,
0000
1000
0000
0100
,
0000
1000
0000
0001
,
0000
0100
0000
0001
,
0000
1000
0000
1001
,
0000
0001
0000
1000
,
0000
0000
0000
0100
,
0000
1000
0000
1000
,
0000
0000
0010
0110
,
0000
0100
0000
0010
,
0000
0100
0000
0001
,
0000
0100
0000
0001
,
0000
1000
0000
1001
,
0000
0001
0000
1001
,
0000
1000
0000
0110
,
0000
0000
0010
0000
,
0000
0000
0000
0110
,
0000
0100
0000
0100
,
0000
0100
0000
0100
,
0000
0100
0000
0100
,
0000
0100
0000
1001
,
0000
0001
0000
0001
,
0000
1000
0000
1000
,
0000
0001
0000
1000
,
0000
0010
0000
0000
;
