#TITLE:cause to decide;
#SUBTITLE:;
#ARTIST:岸田教団&THE明星ロケッツ;
#TITLETRANSLIT:;
#SUBTITLETRANSLIT:;
#ARTISTTRANSLIT:KISHIDA KYOUDAN & THE AKEBOSHI ROCKETS;
#CREDIT:DigiMindAxel;
#BANNER:cause to decide.png;
#BACKGROUND:cause to decide-bg.png;
#LYRICSPATH:cause to decide.lrc;
#CDTITLE:DigiMindAxel original simfile.png;
#MUSIC:cause to decide.mp3;
#METERTYPE:DDR X;
#OFFSET:-4.730;
#SAMPLESTART:41.742;
#SAMPLELENGTH:12.000;
#SELECTABLE:YES;
#BPMS:0.000=210.000;
#STOPS:13.500=0.143
,14.000=0.143
,125.000=1.429
;
#BGCHANGES:-20.000=cause to decide.avi=1.000=1=1=0,
99999=-nosongbg-=1.000=0=0=0 // don't automatically add -songbackground-
;

//---------------dance-single - ----------------
#NOTES:
     dance-single:
     :
     Easy:
     5:
     0.255,0.274,0.025,0.064,0.000: // measure 1
0001
0000
1000
0000
,  // measure 2
0001
1000
0001
0000
,  // measure 3
0010
0000
0001
0000
,  // measure 4
0010
0001
0000
1001
,  // measure 5
0000
1000
0000
0001
,  // measure 6
1000
0001
0000
0100
,  // measure 7
0000
0001
0000
1000
,  // measure 8
0010
1000
0010
1000
,  // measure 9
0000
0100
0000
1000
,  // measure 10
0000
0100
0000
0010
,  // measure 11
0000
0001
0000
0010
,  // measure 12
0000
0001
0000
1000
,  // measure 13
0000
0010
0000
0100
,  // measure 14
0000
0010
0000
1000
,  // measure 15
0000
1000
0000
0001
,  // measure 16
0000
0001
0000
1000
,  // measure 17
0100
1000
0000
0001
,  // measure 18
0000
1000
0000
0001
,  // measure 19
0010
0001
0000
1000
,  // measure 20
0000
0001
0000
1000
,  // measure 21
0010
1000
0000
0001
,  // measure 22
0000
1000
0000
0001
,  // measure 23
0100
0001
0000
1000
,  // measure 24
0000
0001
0000
2000
,  // measure 25
0000
0000
0000
3002
,  // measure 26
0000
0000
0000
2003
,  // measure 27
0000
0000
0000
3002
,  // measure 28
0000
0000
0000
1003
,  // measure 29
0000
0001
0000
0010
,  // measure 30
0000
0100
0000
1000
,  // measure 31
0000
0100
0000
1000
,  // measure 32
0001
1000
1001
0000
,  // measure 33
0001
0000
0100
0000
,  // measure 34
0001
0100
0001
0000
,  // measure 35
1000
0000
0100
0000
,  // measure 36
0010
0001
0010
0000
,  // measure 37
0100
0000
1000
0000
,  // measure 38
0001
1000
0001
0000
,  // measure 39
0100
0000
0010
0100
,  // measure 40
0010
0000
0100
0000
,  // measure 41
0001
0000
1000
0000
,  // measure 42
0100
1000
0100
0000
,  // measure 43
1000
0000
0001
0000
,  // measure 44
0100
0010
0100
0000
,  // measure 45
0001
0000
0010
0000
,  // measure 46
0100
1000
0100
0000
,  // measure 47
1000
0000
0001
0000
,  // measure 48
0000
0000
1000
0001
,  // measure 49
1000
0000
0100
1000
,  // measure 50
0100
0000
1000
0001
,  // measure 51
1000
0000
0010
1000
,  // measure 52
0010
0000
1000
0001
,  // measure 53
1000
0000
0100
1000
,  // measure 54
0100
0000
1000
0001
,  // measure 55
1000
0000
0001
0100
,  // measure 56
0001
0100
0002
0000
,  // measure 57
0000
0000
0000
0000
,  // measure 58
0000
0000
0000
0000
,  // measure 59
0000
0000
0000
0000
,  // measure 60
0000
0000
0000
0000
,  // measure 61
0000
0000
0000
0000
,  // measure 62
0000
0000
0003
0000
;

//---------------dance-single - ----------------
#NOTES:
     dance-single:
     :
     Medium:
     8:
     0.433,0.470,0.089,0.064,0.000: // measure 1
0001
0000
1000
0100
1000
0001
0000
1000
,  // measure 2
0000
0001
0000
1000
0000
0001
1000
0000
,  // measure 3
0001
0000
1000
0010
1000
0001
0000
0100
,  // measure 4
0000
0010
0000
0100
0100
0100
0001
0000
,  // measure 5
0010
0100
0010
0100
0000
1000
0000
0100
,  // measure 6
0000
1000
0000
0100
1000
0000
0001
0000
,  // measure 7
0100
0010
0100
0010
0000
1000
0000
0001
,  // measure 8
0000
1000
0000
1000
0000
1000
0001
0000
,  // measure 9
0100
0001
0100
0001
,  // measure 10
1000
0001
0001
1001
,  // measure 11
1000
0000
0100
0000
0000
1000
0000
1000
,  // measure 12
0000
1000
0001
0000
0000
0000
1001
0000
,  // measure 13
1000
0010
1000
0100
,  // measure 14
1000
0100
0010
0001
,  // measure 15
1000
0000
0001
0000
0000
1000
0000
1000
,  // measure 16
0000
0001
0000
1001
0000
0000
1001
0000
,  // measure 17
0001
0100
0001
0100
,  // measure 18
0010
1000
0010
1000
,  // measure 19
0001
1000
0001
0100
,  // measure 20
0100
0100
0000
0010
,  // measure 21
0100
0010
0100
0001
,  // measure 22
0100
0001
1000
0100
,  // measure 23
1000
0100
1000
0001
,  // measure 24
0001
1001
0000
2000
,  // measure 25
0000
0000
0000
3020
,  // measure 26
0000
0000
0000
0230
,  // measure 27
0000
0000
0000
0302
,  // measure 28
0000
0000
0000
1003
,  // measure 29
0001
1000
0001
1000
,  // measure 30
0001
1000
0001
1000
,  // measure 31
1000
0000
1000
0000
1000
0000
0001
1000
,  // measure 32
0001
1000
0001
1001
0000
0000
1000
0000
,  // measure 33
0100
0000
1000
0001
0000
0000
1000
0000
,  // measure 34
0001
0000
1000
0100
0000
0100
0000
0000
,  // measure 35
0000
1000
0001
0010
,  // measure 36
0100
1000
1001
0000
,  // measure 37
1000
0000
0001
0000
1000
0000
0100
1000
,  // measure 38
0000
0001
0000
1000
0000
0000
0001
0000
,  // measure 39
0100
0000
0001
0000
1000
0010
0000
0010
,  // measure 40
0000
0010
0000
0010
1000
0000
0100
0000
,  // measure 41
0010
0001
1000
0100
,  // measure 42
1000
0000
0001
1000
0000
0000
0001
0000
,  // measure 43
1000
0100
1000
0001
,  // measure 44
1000
0010
0000
0010
0000
0000
1000
0000
,  // measure 45
0100
0010
0100
1000
,  // measure 46
0001
0000
0100
0001
0000
0000
0010
0000
,  // measure 47
0100
1000
0001
0000
,  // measure 48
1000
0001
1000
0001
1000
0000
0100
1000
,  // measure 49
0100
0010
0000
0001
0000
1000
0000
0001
,  // measure 50
0000
1000
0001
0000
1000
0000
0010
1000
,  // measure 51
0010
0100
0000
0001
0000
1000
0000
0001
,  // measure 52
0000
0001
0000
0001
1000
0000
0001
0010
,  // measure 53
0001
1000
0000
0010
0000
0100
0000
0010
,  // measure 54
0000
0100
0010
0000
1000
0000
0001
0100
,  // measure 55
0001
1000
0000
0010
0000
0100
0000
0001
,  // measure 56
0000
0001
0000
0001
2000
0000
0000
0000
,  // measure 57
0000
0000
0000
0000
,  // measure 58
0000
0000
0000
0000
,  // measure 59
0000
0000
0000
0000
,  // measure 60
0000
0000
0000
0000
,  // measure 61
0000
0000
0000
0000
,  // measure 62
0000
0000
3000
0000
;

//---------------dance-single - ----------------
#NOTES:
     dance-single:
     :
     Hard:
     13:
     0.670,0.705,0.370,0.153,0.000: // measure 1
1001
0000
1000
0100
0010
0100
1000
0020
,  // measure 2
0000
0031
0010
2000
0000
3001
1000
0000
,  // measure 3
1001
0000
0001
0100
0010
0100
0001
0020
,  // measure 4
0000
1030
0010
0001
1001
1001
1000
0000
,  // measure 5
0010
1000
0100
0010
0100
2000
0000
3010
,  // measure 6
0001
0020
0000
1030
0001
0000
1001
0000
,  // measure 7
0010
0001
0100
0010
0100
0001
0100
1000
,  // measure 8
0100
0001
0010
0100
0010
0100
0010
0000
,  // measure 9
0001
1000
0001
0000
1000
0100
0000
0100
,  // measure 10
1000
0000
0001
1000
0001
0000
1001
0000
,  // measure 11
1000
0000
0010
0100
0000
0101
0000
0101
,  // measure 12
0000
0001
1000
0100
0010
0000
1001
0000
,  // measure 13
0001
0100
0001
0000
0010
0100
0000
0100
,  // measure 14
0010
0000
0001
1000
0001
0000
1001
0000
,  // measure 15
1000
0000
0100
0010
0000
0001
0100
0001
,  // measure 16
0100
0001
1000
0100
0010
0001
1000
0000
,  // measure 17
0100
1000
0100
0000
1000
0001
0000
0001
,  // measure 18
0100
0010
0100
0000
0010
1000
0001
0000
,  // measure 19
1000
0000
0001
0010
0000
0001
0000
0010
,  // measure 20
0001
1000
0010
0000
0100
0000
0110
0000
,  // measure 21
0010
0001
0010
0000
0001
1000
0000
1000
,  // measure 22
0100
0010
0100
0000
1000
0001
0100
0000
,  // measure 23
0010
0000
0100
0001
0000
0100
0001
0010
,  // measure 24
0100
1000
0001
0000
0100
0000
0002
0000
,  // measure 25
1000
1000
1003
0200
,  // measure 26
1000
1000
1300
0020
,  // measure 27
0100
0100
0100
0130
,  // measure 28
0100
0100
0110
0101
,  // measure 29
0001
1000
0001
1000
0100
1000
0100
1000
,  // measure 30
0001
0010
0001
0010
0001
1000
0001
0100
,  // measure 31
0010
1000
0010
0100
0001
1000
0001
0100
,  // measure 32
1000
0100
0001
1002
0000
0000
1003
0000
,  // measure 33
0001
1000
0100
2000
0000
0000
3001
0000
,  // measure 34
1000
0001
0010
0200
0000
0000
0310
0000
,  // measure 35
0001
1000
0010
0100
0001
0100
0010
1000
,  // measure 36
0001
0010
0001
1001
0000
0000
1001
0000
,  // measure 37
0001
0000
1000
0100
0010
0000
0100
1000
,  // measure 38
0001
0100
0000
0101
0000
0001
1000
0100
,  // measure 39
0010
0100
1000
0001
0100
0110
0000
0110
,  // measure 40
0000
0110
0000
0101
0000
0000
1001
0000
,  // measure 41
1000
0000
0001
0100
0010
0000
0100
0001
,  // measure 42
0010
0100
1000
0001
0000
0000
1001
0000
,  // measure 43
1000
0100
0010
0000
0100
1000
0001
0100
,  // measure 44
0010
0100
0000
0110
0000
0000
0101
0000
,  // measure 45
0001
0010
0100
0000
1000
0000
1100
0000
,  // measure 46
0100
1000
0010
0100
0000
0000
1001
0000
,  // measure 47
0001
1000
0100
1000
0000
0000
1000
0000
,  // measure 48
0100
1000
0010
0100
0001
0000
1000
0010
,  // measure 49
0001
0010
1000
0001
0000
0100
1000
0100
,  // measure 50
0000
0001
1000
0100
0010
0000
0001
0010
,  // measure 51
1000
0010
0001
1000
0000
0100
0001
0100
,  // measure 52
0000
1100
0000
1100
1000
0000
0001
0100
,  // measure 53
1000
0100
0001
1000
0000
0010
0001
0010
,  // measure 54
0000
1000
0001
0010
0100
0000
1000
0100
,  // measure 55
0001
0100
1000
0001
0010
1000
0010
0001
,  // measure 56
1000
0100
0010
0001
2000
0000
0000
0000
,  // measure 57
0000
0000
0000
0000
,  // measure 58
0000
0000
0000
0000
,  // measure 59
0000
0000
0000
0000
,  // measure 60
0000
0000
0000
0000
,  // measure 61
0000
0000
0000
0000
,  // measure 62
0000
0000
3000
0000
;

//---------------dance-single - ----------------
#NOTES:
     dance-single:
     :
     Beginner:
     2:
     0.106,0.106,0.064,0.000,0.000: // measure 1
0001
0000
0000
0000
,  // measure 2
1000
0000
0000
0000
,  // measure 3
0001
0000
0000
0000
,  // measure 4
1000
0000
0000
0001
,  // measure 5
0000
0000
0000
1000
,  // measure 6
0000
0000
0000
0100
,  // measure 7
0000
0000
0000
1000
,  // measure 8
0000
0000
0000
1001
,  // measure 9
0000
0000
0000
0000
,  // measure 10
0000
0000
0000
0001
,  // measure 11
0000
0000
0000
0100
,  // measure 12
0000
0000
0000
0001
,  // measure 13
0000
0000
0000
1000
,  // measure 14
0000
0000
0000
0001
,  // measure 15
0000
0000
0000
0100
,  // measure 16
0000
0000
0000
0001
,  // measure 17
0000
0000
0000
0010
,  // measure 18
0000
0000
0000
0100
,  // measure 19
0000
0000
0000
1000
,  // measure 20
0000
0000
0000
0001
,  // measure 21
0000
0000
0000
0010
,  // measure 22
0000
0000
0000
0100
,  // measure 23
0000
0000
0000
1000
,  // measure 24
0000
0000
0000
1001
,  // measure 25
0000
0000
0000
0000
,  // measure 26
0000
0000
0000
0000
,  // measure 27
0000
0000
0000
0000
,  // measure 28
0000
0000
0000
0001
,  // measure 29
0000
0000
0000
1000
,  // measure 30
0000
0000
0000
0001
,  // measure 31
0000
0000
0000
0001
,  // measure 32
0000
0000
1001
0000
,  // measure 33
0000
0000
1000
0000
,  // measure 34
0000
0000
0100
0000
,  // measure 35
0000
0000
1000
0000
,  // measure 36
0000
0000
0001
0000
,  // measure 37
0000
0000
1000
0000
,  // measure 38
0000
0000
0100
0000
,  // measure 39
0000
0000
1000
0000
,  // measure 40
0000
0000
0001
0000
,  // measure 41
0000
0000
0100
0000
,  // measure 42
0000
0000
0010
0000
,  // measure 43
0000
0000
0100
0000
,  // measure 44
0000
0000
0001
0000
,  // measure 45
0000
0000
1000
0000
,  // measure 46
0000
0000
0001
0000
,  // measure 47
0000
0000
1000
0000
,  // measure 48
0000
0000
1001
0000
,  // measure 49
0000
0000
0001
0000
,  // measure 50
0000
0000
0010
0000
,  // measure 51
0000
0000
0001
0000
,  // measure 52
0000
0000
1000
0000
,  // measure 53
0000
0000
0010
0000
,  // measure 54
0000
0000
1000
0000
,  // measure 55
0000
0000
0001
0000
,  // measure 56
0000
0000
1001
0000
;
