#TITLE:WOWTOWN;
#SUBTITLE:;
#ARTIST:Aira Mitsuki × Saori@destiny;
#TITLETRANSLIT:;
#SUBTITLETRANSLIT:;
#ARTISTTRANSLIT:Aira Mitsuki x Saori@destiny;
#CREDIT:DigiMindAxel;
#BANNER:WOWTOWN.png;
#BACKGROUND:WOWTOWN-bg.png;
#LYRICSPATH:WOWTOWN.lrc;
#CDTITLE:DigiMindAxel original simfile.png;
#MUSIC:WOWTOWN.mp3;
#METERTYPE:DDR X;
#OFFSET:-11.820;
#SAMPLESTART:64.275;
#SAMPLELENGTH:12.000;
#SELECTABLE:YES;
#BPMS:0.000=128.000;
#STOPS:;
#BGCHANGES:;

//---------------dance-single - ----------------
#NOTES:
     dance-single:
     :
     Easy:
     3:
     0.133,0.166,0.017,0.025,0.000: // measure 1
0001
0000
0001
0000
,  // measure 2
1000
0000
0001
0000
,  // measure 3
1000
0000
1000
0002
,  // measure 4
0000
0000
0000
0003
,  // measure 5
1000
0000
0100
0000
,  // measure 6
1000
1000
1000
0000
,  // measure 7
0100
0000
0010
0000
,  // measure 8
0001
0000
1000
0000
,  // measure 9
0001
0000
0100
0000
,  // measure 10
0001
0001
0001
0000
,  // measure 11
0010
0000
0100
0020
,  // measure 12
0000
0000
0000
0030
,  // measure 13
1001
0000
0000
0000
,  // measure 14
0000
0000
0000
0000
,  // measure 15
1000
0000
0000
0000
,  // measure 16
0000
0000
0000
0000
,  // measure 17
0001
0000
0000
0000
,  // measure 18
0000
0000
0000
0000
,  // measure 19
1000
0000
0000
0000
,  // measure 20
0000
0000
0000
0000
,  // measure 21
0010
0000
0100
0000
,  // measure 22
0010
0010
0010
0000
,  // measure 23
1000
0000
0001
0000
,  // measure 24
1000
0000
0100
0000
,  // measure 25
0010
0000
0001
0000
,  // measure 26
1000
1000
1000
0000
,  // measure 27
0010
0000
0100
0002
,  // measure 28
0000
0000
0000
0003
,  // measure 29
1001
0000
1000
0000
,  // measure 30
0001
0010
0001
0000
,  // measure 31
1000
0000
0001
0000
,  // measure 32
0010
0001
0010
0000
,  // measure 33
0001
0000
0100
0000
,  // measure 34
0010
0100
0010
0000
,  // measure 35
1000
0000
0100
0000
,  // measure 36
0010
0001
0010
0000
,  // measure 37
0100
0000
0100
0000
,  // measure 38
1000
0001
1000
0000
,  // measure 39
0010
0000
0010
0000
,  // measure 40
0100
0001
0100
0000
,  // measure 41
0001
0000
0001
0000
,  // measure 42
0010
0100
0010
0000
,  // measure 43
0001
0000
0100
0000
,  // measure 44
0010
1000
0010
0000
,  // measure 45
1000
0000
0001
0000
,  // measure 46
0010
0010
0010
0000
,  // measure 47
0001
0000
1000
0000
,  // measure 48
0100
0000
0010
0000
,  // measure 49
0100
0000
0000
0000
,  // measure 50
1000
0000
0000
0000
,  // measure 51
0100
0000
0000
0000
,  // measure 52
1000
0000
0000
0000
,  // measure 53
0001
0000
0000
0000
,  // measure 54
0100
0000
0000
0000
,  // measure 55
0001
0000
0000
0000
,  // measure 56
1000
0000
0000
0100
,  // measure 57
0010
0100
0000
0000
;

//---------------dance-single - ----------------
#NOTES:
     dance-single:
     :
     Medium:
     5:
     0.287,0.356,0.236,0.270,0.000:
1000
0100
0010
0000
,
0100
1000
0100
0010
,
0001
0000
1000
0000
0010
1000
0020
0000
,
0000
0000
0000
1030
,
0001
0001
0000
0010
0001
0000
0000
1000
,
0002
0023
0230
1300
,
0001
0001
0000
0100
0001
0000
0000
0000
,
1000
0100
0001
0100
,
1000
1000
0000
0010
1000
0000
0000
0001
,
2000
3200
0320
0031
,
1000
1000
0000
0100
1000
0000
0002
0000
,
0000
0000
0000
0003
,
2000
0000
3100
0000
,
0020
0000
0032
0000
,
2003
0000
3001
0000
,
0200
0000
0302
0000
,
2003
0000
3100
0000
,
0020
0000
0230
0000
,
2300
0000
3001
0000
,
0200
0000
0302
0000
,
1003
0100
1000
0010
,
0100
0100
0100
0000
0010
0010
0010
0000
,
1000
0001
0010
0001
,
1000
0100
0010
0000
,
0001
0100
0010
0100
,
0010
0010
0010
0000
1000
1000
1000
0000
,
0001
0000
0010
0000
0100
0000
1000
0002
,
0000
0000
0000
0003
,
1001
1000
1100
0100
,
0110
0000
0000
0010
0000
0000
0000
0000
,
1001
0001
0101
0100
,
0110
0000
0000
0010
0000
0000
0000
0000
,
1001
0001
0011
0010
,
0110
0000
0000
0100
0000
0000
0000
0000
,
1001
1001
1100
1100
,
0010
0001
0010
0000
0011
0000
0000
0000
,
1001
0001
0011
0010
,
0110
0000
0000
0100
0000
0000
0000
0000
,
1001
1000
1010
0010
,
0110
0000
0000
0100
0000
0000
0000
0000
,
1001
0001
0101
0100
,
0110
0000
0000
0010
0000
0000
0000
0000
,
1001
1001
1010
1010
,
0100
0001
0100
0000
0101
0000
0000
0000
,
0001
0001
0000
1000
0100
0000
0000
1000
,
0002
0000
0203
0000
0310
1000
0001
0000
,
1000
1000
0000
0010
0100
0000
0000
0000
,
0010
0100
0010
0100
,
0002
0000
1003
0000
,
0200
0000
0000
0300
,
2000
0000
3001
0000
,
0020
0000
0000
0030
,
0002
0000
1003
0000
,
0020
0000
0000
0030
,
0200
0000
0310
0000
,
2000
0000
0000
0000
0000
0000
3001
0010
,
0200
0310
0000
0000
;

//---------------dance-single - ----------------
#NOTES:
     dance-single:
     :
     Hard:
     9:
     0.413,0.403,0.051,0.245,0.223:
0001
0000
0000
0010
0000
0000
0100
0000
0010
0000
0001
0000
0100
0000
0000
0000
,
0010
0000
0000
0100
0000
0000
0010
0000
0000
0000
1000
0000
0001
0000
0000
0000
,
1000
0000
0000
0010
0000
0000
0100
0000
0001
0000
1000
0000
0200
0000
0000
0000
,
0000
0010
0010
0310
,
0001
0001
1000
0100
0010
0100
0000
1000
,
1000
0100
0100
0001
0001
1000
0001
0000
,
1000
1000
0001
0010
0100
0010
0000
0001
,
2000
0000
0000
3020
0000
0000
2030
0000
0000
3000
0001
0000
0100
0000
0001
0000
,
1000
1000
0010
0100
0010
1000
0000
0001
,
0001
0100
0100
1000
1000
0001
1000
0000
,
0001
0001
1000
0010
0100
0001
0200
0000
,
0000
0000
0000
0300
,
0001
0000
0000
1000
0000
0010
1000
0000
0010
0000
0000
0000
0000
0000
0000
0000
,
1000
0000
0000
0001
0000
0000
0020
0000
0000
0000
0001
0000
0031
0000
0000
0000
,
1000
0000
0000
0001
0000
0010
0001
0000
0010
0000
0000
0000
0000
0000
0000
0000
,
0001
0000
0000
1000
0000
0000
0200
0000
0000
0000
0000
0000
1300
0000
0000
0000
,
0010
0000
0000
0100
0000
0001
1000
0000
0001
0000
0000
0000
0000
0000
0000
0000
,
0010
0000
0000
0100
0000
0000
2000
0000
0000
0000
0001
0000
3001
0000
0000
0000
,
1000
0000
0000
0001
0000
0010
0001
0000
0010
0000
0000
0000
0000
0000
0000
0000
,
0001
0000
0000
0100
0000
0000
0020
0000
0000
0000
0000
0000
0130
0000
0000
0000
,
0001
0010
0100
0010
0001
0000
1000
0001
,
0001
0100
0100
1000
1000
0001
1000
0000
,
0010
1000
0100
1000
0001
0100
1000
0000
,
0100
0000
0000
0001
0000
0000
2000
0000
0000
0000
0000
0000
3001
0000
0000
0000
,
1000
0010
0100
0010
1000
0000
0001
1000
,
1000
0100
0100
0001
0001
1000
0001
0000
,
1000
0100
0010
0001
0010
0100
1000
0002
,
0000
0000
0000
0003
,
1001
0000
0000
1000
0000
0000
0010
0000
0100
0000
0000
0100
0000
0000
0001
0000
,
1000
0000
0000
0020
0000
0000
0200
0000
0000
0000
0000
0000
0330
0000
0000
0000
,
1001
0000
0000
1000
0000
0000
0001
0000
0010
0000
0000
0010
0000
0000
0100
0000
,
0010
0000
0000
0002
0000
0000
0200
0000
0000
0000
0000
0000
0303
0000
0000
0000
,
1001
0000
0000
1000
0000
0000
0001
0000
0100
0000
0000
0100
0000
0000
0010
0000
,
0100
0000
0000
0002
0000
0000
0020
0000
0000
0000
0000
0000
0033
0000
0000
0000
,
0001
0000
1000
0010
0000
0000
1000
0000
0001
0000
1000
0010
0000
0000
1000
0000
,
0001
0010
0100
1000
0001
0001
0001
0000
,
0101
0000
0000
0100
0000
0000
0001
0000
1000
0000
0000
1000
0000
0000
0100
0000
,
0010
0000
0000
0002
0000
0000
0200
0000
0000
0000
0000
0000
0303
0000
0000
0000
,
0110
0000
0000
0100
0000
0000
1000
0000
0100
0000
0000
0010
0000
0000
0001
0000
,
0100
0000
0000
0020
0000
0000
0200
0000
0000
0000
0000
0000
0330
0000
0000
0000
,
1100
0000
0000
1000
0000
0000
0001
0000
0100
0000
0000
0100
0000
0000
0010
0000
,
1000
0000
0000
0200
0000
0000
2000
0000
0000
0000
0000
0000
3300
0000
0000
0000
,
1000
0000
0001
0010
0000
0000
0001
0000
1000
0000
0001
0010
0000
0000
0001
0000
,
1000
0010
0100
0001
1000
1000
1000
0000
,
0001
0001
1000
0010
0010
0100
0000
0001
,
1000
1000
0100
0100
0001
0001
1000
0010
,
1000
1000
0001
0010
0010
0100
0000
1000
,
0001
0000
0000
0100
0000
0000
0020
0000
0000
0000
0100
0000
0130
0000
0000
0000
,
0001
0000
0000
1000
0000
0100
1000
0000
0100
0000
0000
0000
0000
0000
0000
0000
,
1000
0000
0000
0001
0000
0000
0020
0000
0000
0000
0001
0000
0031
0000
0000
0000
,
1000
0000
0000
0001
0000
0100
0001
0000
0100
0000
0000
0000
0000
0000
0000
0000
,
0001
0000
0000
1000
0000
0000
0020
0000
0000
0000
0000
0000
1030
0000
0000
0000
,
0010
0000
0000
1000
0000
0001
1000
0000
0001
0000
0000
0000
0010
0000
0000
0000
,
0100
0000
0000
0010
0000
0000
0200
0000
0000
0000
1000
0000
1300
0000
0000
0000
,
0100
0000
0000
1000
0000
0001
1000
0000
0010
0000
0000
0000
0100
0000
0000
0000
,
0001
0000
0000
1000
0000
0000
0020
0000
0000
0000
0000
0000
1030
0000
0001
0010
,
0002
1003
0000
0000
;

//---------------dance-single - ----------------
#NOTES:
     dance-single:
     :
     Challenge:
     12:
     0.542,0.498,0.464,0.270,0.396:
1000
1000
0001
0010
1000
0010
0100
0000
,
1000
0000
0001
0100
0001
0100
0001
0000
1000
0000
0002
0000
0000
0000
0000
0000
,
1003
1000
0001
0100
1000
0100
0020
0000
,
0000
0000
0000
0000
1000
0000
0000
0000
1000
0000
0000
0000
1030
0000
0001
0010
,
0100
0000
0100
0000
0000
0000
0100
0000
2000
0000
0000
0000
3001
0000
1000
0100
,
1000
0000
0100
0010
0100
0000
0010
0001
0000
0001
2000
0000
0000
0000
3001
0000
,
0010
0010
0000
0010
0001
0100
0000
0001
,
1000
0000
0000
1001
0000
0000
0120
0000
0000
0000
0130
0000
0001
0000
0010
0000
,
0100
0000
0100
0000
0000
0000
0100
0000
2000
0000
0000
0000
3001
0000
1000
0010
,
1000
0000
0100
0010
0100
0000
1000
0001
0000
0001
0200
0000
0000
0000
0301
0000
,
1000
1000
0000
1000
0100
0010
0200
0000
,
0000
0000
0000
0300
,
1000
0000
0001
0100
0000
0100
0001
0000
1000
0000
0000
0000
0000
0000
0000
0000
,
1001
0000
0000
1100
0000
0000
0110
0000
0000
0010
0100
0000
0100
0000
0000
0000
,
0001
0000
1000
0010
0000
0010
1000
0000
0001
0000
0000
0000
0000
0000
0000
0000
,
1001
0000
0000
0101
0000
0000
0220
0000
0000
0000
0000
0000
0330
0000
0000
0000
,
0010
0000
1000
0001
0000
0001
1000
0000
0010
0000
0000
0000
0000
0000
0000
0000
,
0110
0000
0000
0101
0000
0000
1001
0000
0000
1000
0001
0000
0001
0000
0000
0000
,
0010
0000
0001
1000
0000
1000
0001
0000
0010
0000
0000
0000
0000
0000
0000
0000
,
0011
0000
0000
1001
0000
0000
0220
0000
0000
0000
0000
0000
0330
0000
0000
0000
,
0100
0000
1000
0010
0000
0010
1000
0000
0200
0000
0000
0000
0310
0000
0001
1000
,
0001
0000
1000
0010
1000
0000
0001
0100
0001
0000
0010
0000
0100
0000
1000
0000
,
0001
0000
0010
0001
0000
0001
0010
0000
0001
0000
1000
0000
0020
0000
0000
0000
,
0130
0000
0000
0101
0000
0000
0120
0000
0000
0000
1000
0000
1030
0000
0001
0000
,
1000
0000
0100
0010
0000
0010
0100
0000
2000
0000
0000
0000
3001
0000
1000
0010
,
1000
0000
0001
0100
0001
0000
1000
0000
0100
0000
0000
0010
0000
0000
0001
0000
,
1000
1000
0001
0100
0010
0010
2000
0002
,
0000
0000
0000
3003
,
1001
0000
0000
1100
0000
0000
0000
0000
1001
0000
0000
0011
0000
0000
0001
1000
,
0001
0000
0000
1001
0000
0000
0210
0000
0000
0000
0010
0000
0310
0000
0000
0000
,
1001
0000
0000
0101
0000
0000
0000
0000
1001
0000
0000
1010
0000
0000
0000
0000
,
1001
0000
0000
1001
0000
0000
0120
0000
0000
0000
0100
0000
0130
0000
0000
0000
,
1001
0000
0000
0011
0000
0000
0000
0000
1100
0000
0000
1001
0000
0000
0000
0000
,
1001
0000
0000
0101
0000
0000
0120
0000
0000
0000
0100
0000
0130
0000
0001
0000
,
1000
0000
0100
1000
0000
0000
0001
0000
1000
0000
0100
1000
0000
0000
0010
0100
,
0010
0100
0010
0100
0000
0000
0001
0000
1000
0000
0100
0000
1100
0000
0000
0000
,
0010
0100
0000
0010
0000
0000
1000
0000
0001
0010
0000
0001
0000
0000
0100
0010
,
0100
0000
0000
0110
0000
0000
0201
0000
0000
0000
0001
0000
0301
0000
0000
0000
,
1000
0100
0000
1000
0000
0000
0001
0000
0100
0001
0000
0100
0000
0000
0001
0000
,
1000
0000
0000
1100
0000
0000
0210
0000
0000
0000
0010
0000
0310
0000
0000
0000
,
1000
0001
0000
1000
0000
0000
0001
0000
0010
0100
0000
0010
0000
0000
0001
0000
,
1000
0000
0000
1010
0000
0000
0120
0000
0000
0000
0100
0000
0130
0000
0000
0000
,
0001
0000
0010
0001
0000
0000
1000
0000
0001
0000
0010
0001
0000
0000
1000
0001
,
1000
0001
1000
0001
0000
0000
0100
0000
0010
0000
1000
0000
1010
0000
0000
0000
,
1000
0000
0001
0000
0000
0000
0001
0000
0200
0000
0000
0000
0301
0000
1000
0001
,
1000
0000
0100
1000
0100
0000
0010
0001
0000
0001
2000
0000
0000
0000
3001
0000
,
0100
0100
0000
0100
0001
0010
0100
0000
,
1100
0000
0000
0011
0000
0000
1002
0000
0000
0000
1000
0000
1003
0000
0000
0000
,
0001
0000
1000
0010
0000
0010
1000
0000
0001
0000
0010
0000
0100
0000
0000
0000
,
1000
0000
0000
1100
0000
0000
0102
0000
0000
0000
1000
0000
1003
0000
0000
0000
,
0001
0000
1000
0100
0000
0100
1000
0000
0001
0000
0100
0000
0010
0000
0000
0000
,
1000
0000
0000
1100
0000
0000
0102
0000
0000
0000
0000
0000
1003
0000
0000
0000
,
0001
0000
0010
0001
0000
0001
0100
0000
0010
0000
1000
0000
0100
0000
0000
0000
,
0010
0000
0000
0101
0000
0000
0120
0000
0000
0000
0100
0000
0130
0000
0000
0000
,
0001
0000
0100
0001
0000
0001
0010
0000
0100
0000
1000
0000
0010
0000
0000
0000
,
0100
0000
0000
0110
0000
0000
0102
0000
0000
0000
0000
0000
1003
0010
0100
0010
,
2000
3001
0000
0000
;

//---------------dance-single - ----------------
#NOTES:
     dance-single:
     :
     Beginner:
     1:
     0.084,0.142,0.093,0.000,0.000: // measure 1
1000
0000
0000
0000
,  // measure 2
0100
0000
0000
0000
,  // measure 3
1000
0000
0000
0001
,  // measure 4
0000
0000
0000
0000
,  // measure 5
1001
0000
0000
0000
,  // measure 6
0001
0000
0000
0000
,  // measure 7
0100
0000
0000
0000
,  // measure 8
0010
0000
0000
0000
,  // measure 9
0100
0000
0000
0000
,  // measure 10
0100
0000
0000
0000
,  // measure 11
0001
0000
0000
1000
,  // measure 12
0000
0000
0000
0000
,  // measure 13
0001
0000
0000
0000
,  // measure 14
0000
0000
0000
0000
,  // measure 15
0001
0000
0000
0000
,  // measure 16
0000
0000
0000
0000
,  // measure 17
0001
0000
0000
0000
,  // measure 18
0000
0000
0000
0000
,  // measure 19
0001
0000
0000
0000
,  // measure 20
0000
0000
0000
0000
,  // measure 21
1000
0000
0000
0000
,  // measure 22
0100
0000
0000
0000
,  // measure 23
1000
0000
0000
0000
,  // measure 24
0100
0000
0000
0000
,  // measure 25
0010
0000
0000
0000
,  // measure 26
0100
0000
0000
0000
,  // measure 27
0010
0000
0000
0000
,  // measure 28
0001
0000
0000
0000
,  // measure 29
1001
0000
1000
0000
,  // measure 30
0001
0000
0000
0000
,  // measure 31
1001
0000
1000
0000
,  // measure 32
0001
0000
0000
0000
,  // measure 33
1001
0000
0001
0000
,  // measure 34
1000
0000
0000
0000
,  // measure 35
1001
0000
0001
0000
,  // measure 36
1000
0000
0000
0000
,  // measure 37
0001
0000
0010
0000
,  // measure 38
0110
0000
0000
0000
,  // measure 39
0001
0000
0010
0000
,  // measure 40
0110
0000
0000
0000
,  // measure 41
1000
0000
0100
0000
,  // measure 42
0110
0000
0000
0000
,  // measure 43
1000
0000
0100
0000
,  // measure 44
0110
0000
0000
0000
,  // measure 45
0010
0000
0010
0000
,  // measure 46
0110
0000
0000
0000
,  // measure 47
1000
0000
1000
0000
,  // measure 48
1001
0000
0000
0000
,  // measure 49
0001
0000
0000
0000
,  // measure 50
0000
0000
0000
0000
,  // measure 51
0010
0000
0000
0000
,  // measure 52
0000
0000
0000
0000
,  // measure 53
0100
0000
0000
0000
,  // measure 54
0000
0000
0000
0000
,  // measure 55
1000
0000
0000
0000
,  // measure 56
0000
0000
0000
0000
,  // measure 57
0000
0010
0000
0000
;
