#TITLE:WORLD COLOR;
#SUBTITLE:;
#ARTIST:猫叉Master feat. 林ももこ;
#TITLETRANSLIT:;
#SUBTITLETRANSLIT:;
#ARTISTTRANSLIT:Nekomata Master feat. MOMOKO HAYASHI;
#GENRE:;
#CREDIT:DigiMindAxel;
#BANNER:WORLD COLOR.png;
#BACKGROUND:WORLD COLOR-bg.png;
#LYRICSPATH:WORLD COLOR.lrc;
#CDTITLE:pop'n music.png;
#MUSIC:WORLD COLOR.mp3;
#OFFSET:-17.950;
#SAMPLESTART:83.386;
#SAMPLELENGTH:12.000;
#SELECTABLE:YES;
#METERTYPE:DDR X;
#DISPLAYBPM:110.000;
#BPMS:0.000=55.000
,2.000=110.000
;
#STOPS:
;
#BGCHANGES:;
#KEYSOUNDS:;
#ATTACKS:;

//---------------dance-single - ----------------
#NOTES:
     dance-single:
     :
     Easy:
     4:
     0.143,0.166,0.038,0.092,0.000,113.000,5.000,12.000,0.000,0.000,0.000,0.143,0.166,0.038,0.092,0.000,113.000,5.000,12.000,0.000,0.000,0.000: // measure 0
0002
2003
3001
1000
,  // measure 1
0001
0000
0010
0001
,  // measure 2
0010
0000
0100
1000
,  // measure 3
0100
0000
1000
1000
,  // measure 4
0001
0001
1001
0000
,  // measure 5
0000
0000
0100
0000
,  // measure 6
0000
0000
0010
0000
,  // measure 7
0000
0000
0001
0000
,  // measure 8
0000
0000
1000
0000
,  // measure 9
0000
0000
0001
0000
,  // measure 10
0000
0000
0010
0000
,  // measure 11
0000
0000
0100
0000
,  // measure 12
0000
0000
1001
0000
,  // measure 13
0001
0000
1000
0000
,  // measure 14
0001
0000
0100
0000
,  // measure 15
0001
0000
0100
0000
,  // measure 16
0001
0000
1000
0000
,  // measure 17
0100
0000
1000
0000
,  // measure 18
0100
0000
0010
0000
,  // measure 19
0100
0000
0010
0000
,  // measure 20
0001
0000
2000
0000
,  // measure 21
0000
0000
3002
0000
,  // measure 22
0000
0000
2003
0000
,  // measure 23
0000
0000
3002
0000
,  // measure 24
0000
0000
1003
0000
,  // measure 25
0001
0000
0100
0000
,  // measure 26
0001
0000
1000
1001
,  // measure 27
0000
1001
0001
1000
,  // measure 28
0001
1000
0020
0000
,  // measure 29
0000
0030
0100
0010
,  // measure 30
0100
0010
0100
0010
,  // measure 31
0100
0000
0001
1000
,  // measure 32
0001
1000
0001
1000
,  // measure 33
0001
0000
1000
0001
,  // measure 34
1000
0001
1000
0001
,  // measure 35
1000
0000
0100
0010
,  // measure 36
0100
0010
0100
0000
,  // measure 37
1000
0001
1000
0100
,  // measure 38
1000
0100
1000
0100
,  // measure 39
1000
0000
0001
0010
,  // measure 40
0001
0010
0001
0000
,  // measure 41
1000
0001
1000
0010
,  // measure 42
1000
0010
1000
0001
,  // measure 43
1000
0001
0200
0000
,  // measure 44
0302
0000
2003
0000
,  // measure 45
3001
0010
0100
0000
,  // measure 46
0100
0000
0220
0000
,  // measure 47
0000
0000
0000
0000
,  // measure 48
0330
0000
0000
0000
;

//---------------dance-single - ----------------
#NOTES:
     dance-single:
     :
     Medium:
     6:
     0.254,0.240,0.054,0.031,0.000,220.000,7.000,4.000,0.000,0.000,0.000,0.254,0.240,0.054,0.031,0.000,220.000,7.000,4.000,0.000,0.000,0.000: // measure 0
1000
0100
0010
0001
1001
0000
1000
0000
,  // measure 1
0001
1000
0100
0000
1000
0000
0001
0000
,  // measure 2
1000
0001
0100
0000
0110
0000
0010
0000
,  // measure 3
0100
0001
1000
0000
0001
0010
0100
1000
,  // measure 4
0001
0000
0001
0000
1001
0000
0100
0010
,  // measure 5
0100
0001
0010
0100
,  // measure 6
0010
0000
0001
1000
0001
0000
0100
0010
,  // measure 7
0100
0010
1000
0100
,  // measure 8
1000
0000
0010
0100
0010
0000
1000
0001
,  // measure 9
1000
0100
0010
0010
,  // measure 10
0100
0000
0100
0000
1000
0000
0001
1000
,  // measure 11
0001
0000
0010
0001
0010
0000
0010
0000
,  // measure 12
0010
0010
1001
1000
,  // measure 13
0100
1000
0100
0000
1000
0000
0010
0000
,  // measure 14
0100
0010
0100
0000
0001
0000
0010
0000
,  // measure 15
0100
0000
0010
0001
0010
0000
0100
0000
,  // measure 16
0010
0000
0001
1000
0001
0000
1000
0100
,  // measure 17
1000
0000
0010
0000
0100
0001
0100
0000
,  // measure 18
0010
1000
0010
0000
1000
0000
0100
0000
,  // measure 19
0010
0001
1000
0100
,  // measure 20
1000
0000
0010
0100
0001
0000
0001
0000
,  // measure 21
0000
1000
0000
1000
,  // measure 22
0000
1000
0000
0001
,  // measure 23
0000
0001
0000
1000
,  // measure 24
0000
1000
0001
0100
,  // measure 25
0001
0100
0010
1000
,  // measure 26
0010
1000
0001
1001
,  // measure 27
0000
1001
1000
0100
,  // measure 28
0010
0001
0200
0000
,  // measure 29
0320
0000
0000
0000
0130
0000
0010
0100
,  // measure 30
0010
0000
1000
0100
1000
0000
0010
0100
,  // measure 31
0001
0010
0001
0000
0010
0000
0100
0000
,  // measure 32
1000
0000
0001
0000
0000
0100
0001
0100
,  // measure 33
0001
1000
0100
0000
1000
0001
1000
0000
,  // measure 34
0100
1000
0100
0000
0010
0000
0100
0000
,  // measure 35
1000
0000
0001
1000
0001
0000
0010
0001
,  // measure 36
0010
0000
0000
0000
0100
0000
0000
1000
,  // measure 37
0001
0100
0001
0100
0001
0000
0010
0100
,  // measure 38
0010
0001
1000
0010
,  // measure 39
0100
0010
0100
0000
0001
0000
1000
0000
,  // measure 40
0100
1000
0100
0000
1000
0000
0010
0000
,  // measure 41
0100
0010
0100
0010
1000
0000
0001
0000
,  // measure 42
0010
0000
0100
0010
0100
0000
0010
0000
,  // measure 43
0001
1000
0001
1000
0010
0000
0100
0010
,  // measure 44
0100
0010
0100
0000
,  // measure 45
0001
0010
0100
1000
0001
0000
0001
0000
,  // measure 46
1000
1000
0220
0000
,  // measure 47
0000
0000
0000
0000
,  // measure 48
0330
0000
0000
0000
;

//---------------dance-single - ----------------
#NOTES:
     dance-single:
     :
     Hard:
     9:
     0.392,0.332,0.131,0.092,0.238,328.000,17.000,12.000,0.000,0.000,0.000,0.392,0.332,0.131,0.092,0.238,328.000,17.000,12.000,0.000,0.000,0.000: // measure 0
0002
0000
0023
0000
0230
0000
1300
0000
1001
0000
0000
1000
0000
0000
0010
0000
,  // measure 1
0000
0000
0100
0000
0000
0100
0000
0000
0001
0000
0000
0010
0000
0000
0100
0000
,  // measure 2
0000
0000
0010
0000
0000
0010
0000
0000
0110
0000
0000
0010
0000
0000
1000
0000
,  // measure 3
0000
0000
0001
0000
0000
0001
0000
0000
1000
0000
1000
0000
0100
0000
0100
0000
,  // measure 4
0001
0000
0001
0000
1000
0000
0000
0000
1001
0000
0000
0001
0000
0000
1000
0000
,  // measure 5
0000
0000
0100
0000
0010
0100
0000
0000
1000
0000
0000
0001
0000
0000
1000
0000
,  // measure 6
0100
0000
0010
0000
0001
0000
0010
0000
0100
0000
0000
1000
0000
0000
0100
0000
,  // measure 7
0000
0000
1000
0000
0001
1000
0000
0000
0010
0000
0000
0100
0000
0000
0010
0000
,  // measure 8
1000
0000
0100
0000
0010
0000
0001
0000
1001
0000
0000
0001
0100
0000
0010
0000
,  // measure 9
0100
0000
0001
0000
1000
0100
0001
0100
,  // measure 10
1000
0000
0010
0000
0001
0000
0010
0000
1000
0000
0000
0001
1000
0000
0100
0000
,  // measure 11
1000
0000
0001
0000
1000
0001
0001
1000
,  // measure 12
1000
0000
0001
0000
0001
0000
0000
0000
1001
0000
0000
1000
0001
0000
0010
0000
,  // measure 13
0100
0000
0000
0000
0010
0000
0001
0000
1000
0000
0000
0010
0100
0000
0001
0000
,  // measure 14
0020
0000
0000
0000
0230
0000
0000
0000
0310
0000
0000
0001
1000
0000
0010
0000
,  // measure 15
0100
0000
0010
1000
0100
0000
1000
0001
,  // measure 16
0010
0000
0100
0000
1000
0000
0001
0000
1001
0000
0000
0001
1000
0000
0010
0000
,  // measure 17
0100
0000
0001
1000
0001
0010
1000
0010
,  // measure 18
0001
0000
0100
0000
1000
0000
0100
0000
0001
0000
0000
1000
0001
0000
0010
0000
,  // measure 19
0100
0000
0010
0001
1000
0100
0001
0100
,  // measure 20
1000
1000
0001
0100
0210
0000
0001
0000
,  // measure 21
0000
0301
2000
0100
,  // measure 22
0000
3100
0020
0100
,  // measure 23
0000
0130
2000
0001
,  // measure 24
0000
0000
0000
0000
3001
0000
1000
0000
0100
0000
0000
0010
0100
0000
0000
0010
,  // measure 25
0100
0000
0000
1000
0010
0000
0000
1000
0010
0000
0000
1000
0001
0000
0000
1000
,  // measure 26
0001
0000
0000
0010
0001
0000
0000
0010
0001
0000
0000
1001
0000
0000
0010
0100
,  // measure 27
0010
0000
0000
1001
0000
0000
0100
0010
0100
0000
0000
0001
0100
0000
0000
0100
,  // measure 28
1000
0000
0000
0000
0000
0000
0000
0000
0000
1000
0000
0000
0100
0000
0000
0000
0000
0000
0000
0000
0000
0100
0000
0000
0001
0000
0000
0000
0010
0000
0000
0000
0100
0000
0000
0000
0000
0000
0000
0000
1000
0000
0000
0000
0010
0000
0000
0000
,  // measure 29
0100
0000
0000
0000
0110
0000
0000
0000
0101
0000
0000
0001
1000
0000
0100
0000
,  // measure 30
1000
0000
0000
1000
0010
0000
0100
0000
0001
0000
0000
0001
1000
0000
0100
0000
,  // measure 31
0010
0000
0000
0010
0001
0000
0100
0000
0010
0000
1000
0001
1000
0000
0100
0000
,  // measure 32
0001
0100
1000
0001
1000
0010
0001
0010
,  // measure 33
1000
0000
0001
0000
0100
0000
0001
0000
1001
0000
0000
1000
0010
0000
0100
0000
,  // measure 34
0001
0000
0000
0001
0010
0000
0100
0000
1000
0000
0000
1000
0001
0000
0100
0000
,  // measure 35
0001
0000
0000
0001
1000
0000
0100
0000
0010
0000
0001
1000
0001
0000
1000
0001
,  // measure 36
1000
0100
0010
0001
2000
0000
0000
0001
,  // measure 37
3001
0000
1000
0000
1000
0000
0001
0000
0101
0000
0000
0001
1000
0000
0010
0000
,  // measure 38
0100
0000
0000
0100
0001
0000
0010
0000
0100
0000
0000
0100
0010
0000
0001
0000
,  // measure 39
1000
0000
0100
0000
0010
0000
0100
0000
1000
0000
0001
1000
0001
0000
0010
0000
,  // measure 40
1000
0010
0001
1000
0001
0100
1000
0100
,  // measure 41
0001
0000
0001
0000
1000
0000
1000
0000
1001
0000
0000
0001
1000
0000
0100
0000
,  // measure 42
0010
0000
0000
0010
0100
0000
1000
0000
0001
0000
0000
0001
0100
0000
0010
0000
,  // measure 43
0100
0000
0000
0100
0001
0000
1000
0000
0100
0000
1000
0100
1000
0000
0001
0010
,  // measure 44
0001
1000
0010
0100
0001
0000
1001
1000
,  // measure 45
1000
0000
0100
0000
0100
0000
0010
0000
0011
0000
0000
0001
0100
0000
0100
0000
,  // measure 46
0010
0000
0000
0010
1000
0000
1000
0000
0220
0000
0000
0000
0000
0000
0000
0000
,  // measure 47
0000
0000
0000
0000
,  // measure 48
0330
0000
0000
0000
;

//---------------dance-single - ----------------
#NOTES:
     dance-single:
     :
     Beginner:
     1:
     0.073,0.072,0.092,0.000,0.000,54.000,12.000,0.000,0.000,0.000,0.000,0.073,0.072,0.092,0.000,0.000,54.000,12.000,0.000,0.000,0.000,0.000: // measure 0
0000
0000
1001
0000
,  // measure 1
0000
0000
1000
0000
,  // measure 2
0000
0000
1000
0000
,  // measure 3
0000
0000
0001
0000
,  // measure 4
0000
0000
1001
0000
,  // measure 5
0000
0000
0000
0000
,  // measure 6
0000
0000
0100
0000
,  // measure 7
0000
0000
0010
0000
,  // measure 8
0000
0000
0110
0000
,  // measure 9
0000
0000
0001
0000
,  // measure 10
0001
0000
1000
0000
,  // measure 11
0000
0000
0001
0000
,  // measure 12
0000
0000
1001
0000
,  // measure 13
0000
0000
1000
0000
,  // measure 14
0000
0000
0001
0000
,  // measure 15
0000
0000
1000
0000
,  // measure 16
0000
0000
1001
0000
,  // measure 17
0000
0000
0100
0000
,  // measure 18
0000
0000
0010
0000
,  // measure 19
0000
0000
0100
0000
,  // measure 20
0000
0000
0010
0000
,  // measure 21
0000
0000
0000
0000
,  // measure 22
0000
0000
0000
0000
,  // measure 23
0000
0000
0000
0000
,  // measure 24
0000
0000
0001
0000
,  // measure 25
1000
0000
0001
0000
,  // measure 26
1000
0000
0001
0000
,  // measure 27
0000
0000
1001
0000
,  // measure 28
0000
0000
1000
0000
,  // measure 29
0000
0000
1001
0000
,  // measure 30
0000
0000
0001
0000
,  // measure 31
1000
0000
0001
0000
,  // measure 32
0000
0000
1000
0000
,  // measure 33
0001
0000
1001
0000
,  // measure 34
0000
0000
0010
0000
,  // measure 35
0100
0000
0010
0000
,  // measure 36
0000
0000
0100
0000
,  // measure 37
0010
0000
0110
0000
,  // measure 38
0000
0000
0001
0000
,  // measure 39
1000
0000
0001
0000
,  // measure 40
1000
0000
0001
0000
,  // measure 41
0000
0000
1001
0000
,  // measure 42
0001
0000
1000
0000
,  // measure 43
0000
0000
0100
0000
,  // measure 44
0010
0000
0100
0000
,  // measure 45
0000
0000
1001
0000
,  // measure 46
0000
0000
1001
0000
;
