#TITLE:WHITE BREATH;
#SUBTITLE:;
#ARTIST:BONUS;
#TITLETRANSLIT:;
#SUBTITLETRANSLIT:;
#ARTISTTRANSLIT:;
#CREDIT:DigiMindAxel;
#BANNER:WHITE BREATH.png;
#BACKGROUND:WHITE BREATH-bg.png;
#LYRICSPATH:WHITE BREATH.lrc;
#CDTITLE:REFLEC BEAT.png;
#MUSIC:WHITE BREATH.mp3;
#METERTYPE:DDR X;
#OFFSET:-5.435;
#SAMPLESTART:71.079;
#SAMPLELENGTH:12.000;
#SELECTABLE:YES;
#BPMS:0.000=190.000,136.000=95.000,141.000=190.000,171.000=95.000,183.000=190.000;
#STOPS:;
#BGCHANGES:;

//---------------dance-single - ----------------
#NOTES:
     dance-single:
     :
     Easy:
     7:
     0.256,0.354,0.132,0.018,0.000:
0001
0000
1000
0000
,
0001
0000
1000
0000
,
0001
1000
0001
1000
,
0001
1000
1001
0000
,
1001
0000
0001
0000
,
0100
0000
0010
0000
,
0100
0010
0100
0000
,
0001
0000
1000
0000
,
0100
1000
0100
0000
,
1000
0001
1000
0000
,
0001
0000
0100
0000
,
0010
0100
0010
0100
,
0001
0000
1000
0000
,
0001
1000
0001
0000
,
0010
0000
0001
0000
,
0100
0010
0100
0000
,
0001
0000
1000
0000
,
0100
1000
0100
0000
,
1001
0000
0010
0000
,
0110
0000
0000
0000
,
0100
0100
0100
0100
,
0001
0000
1000
0000
,
0100
0100
0100
0100
,
1000
0000
0001
0000
,
0010
0010
0010
0010
,
0001
0000
1000
0000
,
0010
0000
0110
0000
,
0100
0010
0100
0000
,
1001
0000
0001
0000
,
1000
0000
0001
0000
,
0010
0000
0001
0000
,
0010
0000
0001
0000
,
1000
0000
0001
0000
,
1000
0000
0001
0000
,
1000
1000
0010
0000
,
0000
0110
0000
0100
,
0000
0010
0000
0100
,
0000
0001
0000
1000
,
0000
0001
0000
1000
,
0100
1000
0000
0001
,
0000
1000
0000
1001
,
0000
0001
0000
1000
,
0000
0000
0000
1001
,
0000
0001
0000
1000
,
0000
0000
0000
1001
,
0000
0001
0000
1000
,
0000
0001
0000
1000
,
0000
0000
0000
0010
,
0000
0100
0000
0010
,
0100
0010
0000
1000
,
0000
0001
0000
0010
,
0001
0010
0000
0001
,
0000
1000
0000
0100
,
1000
0100
0000
1000
,
0001
1000
0000
0010
,
0100
0010
0100
0001
,
0000
1000
0000
0010
,
1000
0010
0000
1000
,
0000
0001
0000
0100
,
0001
0100
0000
1001
,
0000
0001
0000
1000
,
0000
0001
0000
0100
,
0010
0100
0010
0100
,
0010
0000
0000
1001
,
0000
0000
0000
1000
,
0000
0001
0000
1000
,
0000
0001
0000
0010
,
0001
0010
0000
0001
,
0000
1000
0000
0100
,
1000
0100
0000
1000
,
0001
1000
0000
0001
,
0010
0100
1000
0001
,
0000
1000
0000
0001
,
0000
0000
0000
1000
,
0000
0001
0000
1000
,
0000
0000
0000
1001
,
0000
0000
0000
0110
,
0000
0000
0000
0010
,
0000
0100
0000
0010
,
0100
0010
0000
0220
,
0000
0000
0000
0330
;

//---------------dance-single - ----------------
#NOTES:
     dance-single:
     :
     Medium:
     10:
     0.502,0.496,0.272,0.245,0.013:
1000
0000
0001
0000
,
0100
0000
0001
0000
,
1000
1000
1000
1000
,
0001
0001
0001
1001
,
1001
1000
0001
0100
,
0001
0100
0001
0000
1000
0001
1000
0000
,
0100
0010
0100
1000
,
0001
0100
0001
0000
1000
0001
1000
0000
,
0100
0010
0001
0100
,
0010
0100
0010
0000
1000
0001
1000
0000
,
0001
0010
0100
0010
,
0001
0011
0011
0011
,
1001
0001
1000
0100
,
1000
0100
1000
0000
0001
1000
0100
0000
,
1000
0010
0100
0001
,
1000
0001
1000
0000
0001
0100
0010
0000
,
1001
0001
0010
0100
,
1100
0010
0100
0001
,
0101
0000
0000
0000
,
2002
0000
3003
1001
,
0010
0100
0010
0000
0010
0100
0010
0000
,
1000
0001
1000
0000
0001
1000
0001
0000
,
0100
0010
0100
0000
0100
0010
0100
0000
,
0001
1000
0001
0000
1000
0001
1000
0000
,
0010
0100
0010
0000
0010
0100
0010
0000
,
1000
0001
1000
0000
0001
1000
0001
0000
,
0101
0000
1010
0000
,
0110
0000
0110
0000
0010
0010
0000
0000
,
1001
1000
0001
0010
,
0100
1000
0100
0010
,
0001
1000
0001
1000
,
0001
0100
0010
1000
,
1001
0001
1000
0100
,
0010
0001
0010
0100
,
2000
3002
2003
0000
,
3000
1001
0001
1000
,
0100
0010
0100
1000
,
0001
1000
0001
0100
,
0001
1000
0010
1001
,
0001
0010
0001
0100
,
0010
0100
0001
1001
,
1000
0000
1001
0000
0001
0001
0000
0000
,
0000
0000
0000
2000
,
3200
0000
0000
0000
2300
0000
0000
0000
3002
0000
0000
0000
0103
0000
0001
1000
,
0000
0100
0000
0010
0000
0000
0010
0000
0000
0000
0000
0000
0210
0000
0000
0000
,
0302
2003
3200
2300
,
0000
3002
0000
2003
,
0000
3001
0000
1001
,
1000
0010
0100
0000
0001
0000
0010
0100
,
0010
0000
0001
0100
0010
0000
0100
0000
,
0001
0010
0100
0000
0010
0000
0001
1000
,
0001
0000
1000
0010
0100
0000
0010
0000
,
1000
0100
0010
0000
0100
0000
1000
0001
,
1000
0000
0010
0100
0001
0000
1000
0000
,
0100
1000
0010
0000
0100
0000
0001
1000
,
0001
1000
0001
1000
0001
0000
1001
0000
,
0001
0010
0100
0000
0010
0000
0001
1000
,
0100
0000
1000
0100
0010
0000
0001
0000
,
0100
0010
1000
0000
0001
0000
0100
0010
,
1000
0000
0010
1000
0001
0000
1001
0000
,
0100
0010
0001
1001
,
1000
0000
0100
0000
0010
0000
0001
1000
,
0100
0000
1000
0001
1000
0000
0020
0000
,
0000
0130
0000
1002
,
0000
1000
0000
1003
,
0001
1000
0100
0000
1000
0000
0001
0100
,
0010
0000
0100
0010
0100
0000
0001
0000
,
1000
0100
0010
0000
0100
0000
1000
0001
,
0100
0000
0010
0100
0001
0000
0010
0001
,
0010
0100
1000
0000
0001
0000
1000
0000
,
0010
0000
0100
0000
0001
0000
1000
0001
,
1000
0001
1000
0001
1000
0000
1002
0000
,
0000
0103
0000
0020
,
0000
1030
0000
0002
,
0000
0013
0000
0200
,
0000
1300
0000
2002
,
0000
0000
3003
0220
,
0000
0000
0000
0000
0330
0000
0010
1000
,
0001
1000
0000
0001
1000
0001
0000
1000
,
0001
1000
0000
0010
0100
0000
0220
0000
,
0000
0000
0000
0330
;

//---------------dance-single - ----------------
#NOTES:
     dance-single:
     :
     Hard:
     12:
     0.661,0.743,0.351,0.210,0.066: // measure 1
0001
1000
0100
1000
,  // measure 2
0001
0010
0100
1000
,  // measure 3
0001
1000
0001
1000
0001
1000
0001
1000
,  // measure 4
0001
1000
0001
1000
0100
0000
1100
0000
,  // measure 5
1001
0000
0001
0100
0010
0000
0100
0000
,  // measure 6
0002
1000
0100
1003
,  // measure 7
0001
0010
0100
0000
1000
0000
0001
0000
,  // measure 8
2000
0100
0001
3100
,  // measure 9
1000
0000
0001
1000
0100
0000
1000
0000
,  // measure 10
1001
0000
0001
1000
0100
0000
1000
0000
,  // measure 11
0001
0010
0100
0010
0001
0000
1000
0000
,  // measure 12
0001
0100
0010
1000
0010
0100
0001
0000
,  // measure 13
1001
0000
1000
0001
0100
0000
0001
0000
,  // measure 14
1000
0100
0010
0100
1000
0001
0010
0000
,  // measure 15
0001
0000
1000
0001
0010
0000
0001
0000
,  // measure 16
1000
0010
0100
0010
1000
0001
0010
0000
,  // measure 17
1001
0000
1000
0100
0010
0000
0100
0000
,  // measure 18
1100
0000
1000
0001
0100
0000
0001
0000
,  // measure 19
1000
0001
0010
0001
0000
0001
0010
0001
,  // measure 20
1000
0010
0100
0001
1000
0000
1001
0000
,  // measure 21
0001
0010
0001
0010
0001
0010
0001
0010
,  // measure 22
0001
1000
0001
1000
0001
1000
0100
0010
,  // measure 23
0001
0100
0001
0100
0001
0100
0001
0100
,  // measure 24
0001
1000
0001
1000
0001
1000
0010
0100
,  // measure 25
0001
1000
0001
1000
0001
1000
0001
1000
,  // measure 26
0100
0010
0100
0010
0100
0010
0100
1000
,  // measure 27
0010
0010
0110
0100
,  // measure 28
1001
0000
1001
0000
0001
1001
0000
0000
,  // measure 29
1010
0000
0010
1000
0100
0000
0001
0000
,  // measure 30
0100
1000
0001
0010
0100
0000
0010
0000
,  // measure 31
0001
1000
0010
0000
0010
1000
0001
0000
,  // measure 32
1000
0000
0010
0100
0000
0100
0000
0000
,  // measure 33
0011
0000
0010
0001
1000
0000
0001
0001
,  // measure 34
0001
0000
0010
0001
1000
0000
0100
0000
,  // measure 35
2100
0000
0000
3002
0000
0000
0103
0100
0100
0010
0010
0010
,  // measure 36
0100
0000
1001
0000
1000
0001
0010
0000
,  // measure 37
1000
0000
0010
0001
1000
0100
0010
0000
,  // measure 38
0101
0000
0100
0000
1010
0000
1000
0001
,  // measure 39
0010
0100
1000
0100
0010
0000
1001
0000
,  // measure 40
0001
1000
0010
0000
0001
0000
0010
1000
,  // measure 41
0001
0010
0100
0000
0010
0001
0011
0000
,  // measure 42
0010
0000
1001
0000
1000
2002
0000
0000
,  // measure 43
0000
0000
3003
0201
,  // measure 44
0310
0000
0000
0000
0100
0000
0000
0000
0010
0000
0000
0000
2000
0000
0000
0000
0000
0000
0000
0000
0000
0000
0000
0000
3002
0000
0000
0000
0000
0000
0000
0000
0000
0000
0000
0000
1003
0000
0000
0100
0000
0000
1000
0000
0000
0002
0000
0000
,  // measure 45
0000
0203
0000
0320
0000
0100
0130
0000
0001
0000
1000
0000
1200
0000
0000
0000
,  // measure 46
1000
1300
0021
0000
0001
0031
1001
0000
,  // measure 47
0100
0010
0001
0010
,  // measure 48
0100
1000
1100
1001
,  // measure 49
0001
1000
0100
0000
0001
0000
0100
1000
,  // measure 50
0001
0000
0010
0000
0001
0000
0000
0001
0000
0000
0001
0000
1000
0000
0000
0000
,  // measure 51
0001
1000
0010
0000
0001
0000
0010
1000
,  // measure 52
0001
0000
0010
0000
0001
0000
0000
0001
0000
0000
0001
0000
1000
0000
0100
0000
,  // measure 53
0010
0100
1000
0000
1100
0000
0100
0001
,  // measure 54
0010
0001
0100
0000
0101
0000
0001
1000
,  // measure 55
0100
0010
0001
0010
0100
0000
1000
0001
,  // measure 56
0100
0001
1000
0001
0100
0001
1001
0000
,  // measure 57
1000
0100
1000
0010
0100
0010
1000
0000
,  // measure 58
0100
0000
0010
0000
0001
0000
0100
0001
0100
0000
0001
0000
1000
0000
0000
0000
,  // measure 59
0001
0100
0001
0010
0100
0010
0001
0000
,  // measure 60
0100
0000
0010
0000
1000
0000
0001
1000
0001
0000
1000
0000
1010
0000
0000
0000
,  // measure 61
0010
0100
1000
0100
0010
0001
1001
0000
,  // measure 62
0100
0010
1000
0010
0100
0001
1000
0010
,  // measure 63
0100
0010
0000
0010
0100
0010
2000
0000
,  // measure 64
0000
3001
0000
2002
,  // measure 65
0003
0200
3300
1001
,  // measure 66
1000
0001
0010
0000
1000
0010
0001
1000
,  // measure 67
0100
0000
0010
0100
1000
0000
0001
0100
,  // measure 68
0001
0010
0100
0010
0001
0000
1000
0001
,  // measure 69
0010
0100
1000
0100
0010
0000
0001
1000
,  // measure 70
0010
0100
0001
0000
1000
0000
0100
1000
,  // measure 71
0010
0100
0010
1000
0100
0000
1000
0001
,  // measure 72
0010
0100
1000
0100
0010
0000
1002
0000
,  // measure 73
0000
0100
0103
0000
0000
0000
0210
0000
,  // measure 74
0000
0001
0301
0000
0000
0000
2100
0000
,  // measure 75
0000
0001
3001
1000
0100
0010
0000
0002
,  // measure 76
0000
1000
1000
0000
1003
0000
0011
0000
,  // measure 77
0001
0001
0001
1001
,  // measure 78
1000
0000
1000
0000
1000
0000
0001
1000
,  // measure 79
0100
1000
0000
1000
0010
1000
0000
1000
,  // measure 80
0100
1000
0000
1000
0001
0010
0022
0000
,  // measure 81
0000
0000
0000
0033
;

//---------------dance-single - ----------------
#NOTES:
     dance-single:
     :
     Challenge:
     14:
     0.802,0.814,0.272,0.219,0.294: // measure 1
1000
0001
0010
0000
0001
1000
0000
0000
,  // measure 2
0010
0100
0001
0000
0100
0001
0000
0000
,  // measure 3
1000
0100
0010
0001
0010
0100
1000
0100
,  // measure 4
0010
0000
0001
0000
0010
0000
0100
0000
1000
0000
0001
1000
0001
0000
0000
0000
,  // measure 5
1001
0000
1000
0010
1000
0001
0010
0100
,  // measure 6
1000
0000
0000
0000
0100
0000
1000
0000
0010
0000
0000
0010
0000
0000
0010
0000
,  // measure 7
1000
0100
0010
0001
1000
0000
0010
1000
,  // measure 8
0001
0000
0000
0000
0010
0000
0100
0000
1000
0000
0000
1000
0000
0000
1000
0000
,  // measure 9
0001
0010
0100
1000
0001
0000
0100
0001
,  // measure 10
1000
0000
0000
0000
0100
0000
0010
0000
0001
0000
0000
0001
0000
0000
0001
0000
,  // measure 11
1000
0100
0010
0000
0100
1000
0001
0000
,  // measure 12
1000
0001
1000
0001
1000
0001
1000
0001
1000
0000
0100
0000
0000
0000
0000
0000
,  // measure 13
1000
0100
0001
0100
1000
0001
1000
0000
,  // measure 14
0001
1000
0010
1000
0001
1000
0010
1000
,  // measure 15
0001
0010
0100
1000
0001
0000
1000
0100
,  // measure 16
1000
0001
0010
1000
0010
0001
1000
0010
,  // measure 17
1010
0000
0000
0000
1000
0000
0100
0000
0010
0000
0001
0000
0100
0000
0010
0100
,  // measure 18
0010
0000
0000
0000
1000
0000
0010
0000
0100
0000
0001
0000
1000
0100
1000
0000
,  // measure 19
0001
1000
0100
0001
0100
0001
0100
1000
,  // measure 20
0001
1000
0001
1000
0001
1000
0001
1000
0001
1000
0001
1000
0001
0000
0000
0000
,  // measure 21
1000
0100
0010
0100
1000
0100
0010
0100
,  // measure 22
1000
0001
0100
0001
1000
0001
0100
0001
,  // measure 23
1000
0001
0010
0001
1000
0001
0010
0001
,  // measure 24
1000
0010
0100
0010
1000
0010
0100
0010
,  // measure 25
1000
0001
0010
0100
1000
0100
0010
0001
,  // measure 26
1000
0000
0001
0000
0100
0000
0010
0000
1000
0000
0010
0000
0100
0000
0001
1000
,  // measure 27
0001
0000
0100
0000
0000
0000
0001
1000
0001
0000
1000
0000
0000
0000
0100
1000
,  // measure 28
0100
1000
1001
0000
0110
0110
0000
0000
,  // measure 29
1001
0000
0001
1000
0200
0000
1300
0001
,  // measure 30
0010
0100
1000
0010
0000
0010
1000
0100
,  // measure 31
0002
0203
2300
3002
,  // measure 32
2003
0000
3001
1000
0001
0010
0100
0000
,  // measure 33
1001
0000
1000
0001
0100
0000
0002
1000
,  // measure 34
1003
0001
0010
0100
2000
0000
0001
0000
,  // measure 35
3001
1000
0010
0100
0000
0000
0002
0000
0000
1000
0000
0000
1003
0000
0010
0000
0100
0000
0101
0000
0001
0000
0010
0100
,  // measure 36
1000
0000
1001
0000
0001
1000
0100
0001
,  // measure 37
0100
1000
0000
1000
0010
1000
0002
0000
,  // measure 38
0023
0000
2030
0000
3020
0000
0031
1000
,  // measure 39
0001
0010
0100
1000
0001
0000
1001
0000
,  // measure 40
1000
0001
0010
0000
0001
0010
1000
0010
,  // measure 41
0001
0000
0100
0001
0010
0100
0110
0000
,  // measure 42
1000
0000
1001
0000
0001
0101
0000
0000
,  // measure 43
0100
0001
1100
1002
,  // measure 44
0013
0000
0000
0000
0100
0000
0000
0000
1000
0000
0000
0000
0001
0000
0000
0000
0001
0000
0000
0000
0001
0000
0000
0000
0002
0000
0000
0000
0000
0000
1003
0000
0000
0000
0000
0000
0001
0000
0000
1000
0000
0000
0100
0000
0000
0020
0000
0000
,  // measure 45
0000
0230
1000
2300
0000
0001
3001
0000
1000
0000
0010
0100
0002
0000
0000
0000
,  // measure 46
1000
1000
1003
0000
0200
0000
0000
0000
2300
0000
3001
0000
1001
0000
0000
0000
,  // measure 47
0010
0100
1000
0000
0100
0010
0001
1000
,  // measure 48
0010
1000
0001
0000
1001
0000
1100
0000
,  // measure 49
1000
0001
0010
1000
0010
0001
1000
0010
,  // measure 50
0100
0000
0010
0000
1000
0000
0001
1000
0000
0001
1000
0000
0001
0000
1000
0000
,  // measure 51
0010
0001
0010
1000
0001
0010
0100
0010
,  // measure 52
0001
0000
1000
0000
0010
0000
1000
0001
0000
1000
0001
0000
1000
0000
0010
0000
,  // measure 53
0001
0010
1000
0000
1010
0000
1000
0100
,  // measure 54
0001
0000
0100
0000
1000
0000
0000
0000
1100
0000
0000
0000
1000
0000
0000
1000
,  // measure 55
0001
0000
0100
0000
0010
0000
0100
0000
0100
0000
0000
0000
0001
1000
0001
1000
,  // measure 56
0001
1000
0001
1000
0001
0000
0100
0000
0000
0000
0000
0000
0001
0000
0010
0000
,  // measure 57
0100
0010
0001
0100
1000
0100
0010
1000
,  // measure 58
0001
0000
0010
0000
0100
0000
0010
0001
0010
0000
0001
0000
1000
0000
0010
0000
,  // measure 59
0100
0010
1000
0100
0010
1000
0010
0001
,  // measure 60
1000
0000
0010
0000
0100
0000
0010
1000
0010
0000
1000
0000
1001
0000
0000
0000
,  // measure 61
0001
0000
0010
0000
1000
0000
0010
0000
0001
0000
1000
0001
1000
0000
0001
0000
,  // measure 62
1000
0000
0100
0000
0001
0000
0100
0000
1000
0001
1000
0000
0001
0000
1000
0000
,  // measure 63
0100
0000
0001
0000
0100
0000
0001
0000
0100
0000
1000
0000
0001
1000
0001
1000
,  // measure 64
0001
1000
0001
1000
0001
0000
0000
0000
0000
0000
0000
0000
2002
0000
0000
0000
,  // measure 65
0000
0000
3003
0000
0000
0000
1001
1000
,  // measure 66
0001
0000
0010
0000
0100
0000
1000
0001
0000
0100
0001
0000
0010
0000
0100
0000
,  // measure 67
1000
0001
1000
0010
0001
0010
0100
0001
,  // measure 68
1000
0100
0010
0100
1000
0000
0001
0100
,  // measure 69
1000
0100
0010
1000
0001
0000
1000
0010
,  // measure 70
0001
0010
0100
0001
1000
0000
0001
0100
,  // measure 71
0010
0000
1000
0000
0100
0000
0001
0000
0100
0000
1000
0000
0001
1000
0001
1000
,  // measure 72
0001
1000
0001
1000
0001
0000
0100
0000
0000
0000
0000
0000
0101
0000
0000
0000
,  // measure 73
0000
0100
0110
0000
0000
0000
0110
0000
,  // measure 74
0000
1000
1100
0000
0000
0000
1001
0000
,  // measure 75
0000
0000
0001
1000
0001
0000
0010
0000
0100
0000
1000
0000
0000
0000
1001
0000
,  // measure 76
0000
0001
0101
0000
0100
0010
1000
0100
,  // measure 77
0010
0100
1000
0100
0010
0100
1000
0001
,  // measure 78
0100
0001
1000
0001
0100
0001
1000
0001
,  // measure 79
0100
0000
1000
0000
0100
0000
1000
0000
0100
0000
0001
0000
1000
0001
1000
0001
,  // measure 80
1000
0001
1000
0001
1000
0001
1000
0001
1000
0000
0000
0000
0220
0000
0000
0000
,  // measure 81
0000
0000
0000
0330
;

//---------------dance-single - ----------------
#NOTES:
     dance-single:
     :
     Beginner:
     4:
     0.160,0.210,0.149,0.000,0.000:
1001
0000
0001
0000
,
0001
0000
0000
0000
,
1000
0000
1000
0000
,
1000
0000
0000
0000
,
1001
0000
0000
0000
,
0001
0000
0000
0000
,
0100
0000
0000
0000
,
0010
0000
0000
0000
,
0100
0000
0000
0000
,
0001
0000
0000
0000
,
1000
0000
0001
0000
,
1000
0000
0000
0000
,
1001
0000
0000
0000
,
1000
0000
0000
0000
,
0010
0000
0000
0000
,
0100
0000
0000
0000
,
0010
0000
0000
0000
,
0010
0000
0000
0000
,
0110
0000
0100
0000
,
0100
0000
0000
0000
,
1001
0000
0001
0000
,
0001
0000
0000
0000
,
1000
0000
1000
0000
,
1000
0000
0000
0000
,
0001
0000
0001
0000
,
0001
0000
0000
0000
,
1001
0000
1000
0000
,
1001
0000
0000
0000
,
0010
0000
0000
0000
,
0100
0000
0000
0000
,
0010
0000
0000
0000
,
0100
0000
0000
0000
,
0001
0000
0000
0000
,
1000
0000
0000
0000
,
1001
0000
0000
0000
,
1000
0100
0000
1000
,
0000
0000
0000
0001
,
0000
0010
0000
0001
,
0000
0000
0000
1000
,
0000
0001
0000
1000
,
0000
0000
0000
0001
,
0000
1000
0000
0001
,
0000
0000
0000
1001
,
0000
0000
0000
0010
,
0000
0000
0000
0100
,
0000
1000
0000
0001
,
0000
0000
0000
1000
,
0000
0000
0000
1001
,
0000
0001
0000
0001
,
0000
0000
0000
1000
,
0000
1000
0000
1000
,
0000
0000
0000
0001
,
0000
0010
0000
0001
,
0000
0000
0000
1000
,
0000
0100
0000
1000
,
0000
1000
0000
1001
,
0000
0001
0000
1000
,
0000
0001
0000
0010
,
0000
0001
0000
0010
,
0000
0001
0000
1000
,
0000
0010
0000
1000
,
0000
0001
0000
1001
,
0000
1000
0000
1001
,
0000
0000
0000
0001
,
0000
0000
0000
0010
,
0000
0001
0000
0010
,
0000
0001
0000
0010
,
0000
0000
0000
0100
,
0000
1000
0000
0100
,
0000
1000
0000
0100
,
0000
0000
0000
1001
,
0000
0001
0000
1001
,
0000
0000
0000
1000
,
0000
0000
0000
0001
,
0000
0000
0000
1000
,
0000
0000
0000
1001
,
0000
0000
0000
0001
,
0000
0000
0000
0001
,
0000
0000
0000
0100
,
0000
0000
0000
0110
;
