#TITLE:海神;
#SUBTITLE:;
#ARTIST:兎々;
#TITLETRANSLIT:WADATSUMI;
#SUBTITLETRANSLIT:;
#ARTISTTRANSLIT:TOTTO;
#CREDIT:DigiMindAxel;
#BANNER:WADATSUMI.png;
#BACKGROUND:WADATSUMI-bg.png;
#LYRICSPATH:;
#CDTITLE:REFLEC BEAT.png;
#MUSIC:WADATSUMI.mp3;
#METERTYPE:DDR X;
#OFFSET:-12.660;
#SAMPLESTART:71.136;
#SAMPLELENGTH:12.000;
#SELECTABLE:YES;
#BPMS:0.000=159.000,100.000=79.500,127.000=159.000;
#STOPS:257.000=0.377
;
#BGCHANGES:;

//---------------dance-single - ----------------
#NOTES:
     dance-single:
     :
     Easy:
     5:
     0.233,0.259,0.093,0.239,0.000:
2001
0000
0000
0000
,
3002
0000
0000
0000
,
2003
0000
0000
0000
,
3002
0000
0000
0000
,
2003
0000
0000
0000
,
3200
0000
0000
0000
,
0320
0000
0000
0000
,
0032
0000
2003
0000
,
3002
0000
0000
0000
,
1003
0000
0100
0000
,
1000
0000
0001
0000
,
0001
0000
0010
0000
,
0100
0000
1000
0000
,
0001
0000
0100
0000
,
0001
0000
1000
0000
,
0010
0000
1000
0000
,
0002
0000
0000
0000
,
1003
0100
1000
0000
,
0010
0100
0001
0000
,
0010
0001
0010
0000
,
0001
0010
0100
0000
,
1000
0001
0100
0000
,
0010
1000
0001
0000
,
0100
0010
0100
0010
,
0100
0000
0000
0000
,
0110
0000
0010
0000
,
0010
0000
0010
0000
,
1000
0100
0010
0001
,
0010
0100
1000
0001
,
2000
3001
1000
0001
,
0200
0000
0000
0000
,
0310
0000
0010
0100
0010
0000
0000
0000
,
0000
1000
0100
1000
,
0010
0100
0010
1000
,
0000
0001
0100
0001
,
0100
0010
0100
0001
,
0000
0010
0100
0010
,
0100
1000
0010
0100
,
0000
0001
0100
0001
,
0100
0001
0010
0100
,
0000
1000
0100
1000
,
0100
1000
0010
0100
,
0000
0001
0010
0001
,
0010
0001
1000
0100
,
0000
1000
0010
0100
,
0010
1000
0001
1000
,
0001
0100
0100
0001
,
0001
0010
0100
1000
,
0010
0220
0000
0000
,
0330
2002
0000
0000
,
3003
0220
0000
0000
,
0330
2002
0000
0000
,
3003
0220
0000
0000
,
0330
2002
0000
0000
,
3003
0220
0000
0000
,
0330
2002
0000
0000
,
3003
1001
1000
0001
,
0100
0010
0010
1000
,
0001
1000
0100
1000
,
0010
0100
0100
0001
,
0001
0010
0100
0010
,
0100
1000
1000
0001
,
0001
1000
0100
0010
,
0001
1000
1000
0001
,
0001
0000
2002
0000
,
0000
0000
0000
0000
,
0000
0000
0000
0000
,
3003
0000
0000
0000
;

//---------------dance-single - ----------------
#NOTES:
     dance-single:
     :
     Medium:
     8:
     0.368,0.440,0.232,0.162,0.000:
2002
0000
0000
0003
,
0200
0000
0000
3000
,
0020
0000
0000
0300
,
0002
0000
0000
0030
,
2000
0000
0000
0003
,
0002
0000
0000
3000
,
0023
0000
0230
0000
,
0310
0100
0010
0100
,
0010
0000
0001
0001
,
1001
1000
0010
1000
,
0001
0100
0001
0100
,
0010
0100
0010
0100
,
0001
0010
0001
0010
,
0001
1000
0001
1000
,
0100
1000
0100
1000
,
0010
0100
0010
0100
,
0001
0000
0001
0000
1000
0001
1000
0000
,
0001
0100
0001
0100
0010
0100
0010
0000
,
1000
0001
1000
0001
0010
0001
0010
0000
,
0100
1000
0100
1000
0001
0100
0001
0000
,
1000
0001
1000
0001
0100
0001
1000
0000
,
0100
0010
0100
0010
0001
0100
0010
0000
,
0100
0001
0100
0001
1000
0100
1000
0000
,
0001
1000
0001
0000
1000
0001
1000
0000
,
1001
0001
1000
0001
,
0210
0000
0320
0000
,
0230
0000
0320
0000
,
0130
0001
0010
0100
,
1000
0001
1000
0010
,
0100
0001
1000
0100
,
0020
0000
0032
0000
,
1003
0000
0001
0001
2002
0000
3003
0000
,
0000
0000
0001
0000
1000
0000
0100
1000
,
0010
0100
0010
0000
1000
0010
1000
0000
,
0001
0000
0010
0001
0010
0000
0001
0100
,
0010
0000
1000
0000
0001
0000
1000
0100
,
1000
0100
0010
0100
,
1000
0001
0100
0000
0001
1000
0001
0000
,
1000
0000
0100
0000
0010
0001
0100
0000
,
0010
0000
1000
0001
1000
0001
0100
0010
,
0100
0000
0001
0000
1000
0000
0100
1000
,
0010
0000
0100
0000
0001
0010
0100
0000
,
0010
0000
0001
1000
0001
0000
1000
0100
,
1000
0010
0100
0000
0110
0000
0010
0000
,
1000
0100
0010
0001
1000
0000
0001
1000
,
0010
1000
0001
0000
0010
0100
0010
0000
,
0001
1001
1000
0001
,
1000
0000
0001
0100
0001
1000
0100
0000
,
0100
0000
1100
0000
0000
1100
0000
0000
,
1000
1001
0010
0100
,
1000
0000
0101
0000
0000
0101
0000
0000
,
0001
1001
0100
0010
,
0001
0000
0011
0000
0000
0011
0000
0000
,
0001
1001
0010
0100
,
1000
0000
1010
0000
0000
1010
0000
0000
,
1000
1001
0100
0010
,
0001
0000
1000
0001
0001
0010
0100
1000
,
0001
0100
0101
0100
,
0101
0000
0001
1000
1000
0100
0010
0001
,
1000
0010
0110
0010
,
0110
0000
1000
0001
0001
0100
0010
1000
,
0001
0010
0011
0010
,
0011
0000
0001
1000
1000
0010
0100
0001
,
1000
0110
1001
0110
,
2002
3003
2002
0000
,
0000
0000
0000
0000
,
0000
0000
0000
0000
,
3003
0000
0000
0000
;

//---------------dance-single - ----------------
#NOTES:
     dance-single:
     :
     Hard:
     12:
     0.549,0.621,0.201,0.239,0.340: // measure 1
2002
0000
0000
3000
,  // measure 2
0200
0000
0000
0003
,  // measure 3
0020
0000
0000
0300
,  // measure 4
2000
0000
0000
3030
,  // measure 5
2002
0000
0000
0003
,  // measure 6
0200
0000
0000
3300
,  // measure 7
2200
3300
0022
0033
,  // measure 8
0110
0110
0110
0110
,  // measure 9
0200
0000
0000
0000
0301
1000
0100
0000
,  // measure 10
1000
0100
1000
0001
1000
0100
1000
0000
,  // measure 11
0001
0010
0001
1000
0001
0010
0001
0000
,  // measure 12
0100
0001
0010
0001
0100
0001
0010
0000
,  // measure 13
0100
1000
0010
1000
0100
1000
0010
0000
,  // measure 14
1000
0001
0100
0001
1000
0001
0100
0000
,  // measure 15
0001
1000
0010
1000
0001
1000
0010
0000
,  // measure 16
1000
0001
0010
0100
0010
0001
1000
0000
,  // measure 17
0001
1000
0100
0000
1000
0001
1001
0000
,  // measure 18
1000
0000
0010
0000
0100
0000
0000
0100
0010
0000
1000
0000
1000
0000
0000
0000
,  // measure 19
0100
0000
0010
0000
0001
0000
0000
0001
0010
0000
0100
0000
0100
0000
0000
0000
,  // measure 20
0010
0000
0001
0000
0100
0000
0000
0100
0001
0000
1000
0000
1000
0000
0000
0000
,  // measure 21
0100
0000
0010
0000
0001
0000
0000
0001
0010
0000
0100
0000
0100
0000
0000
0000
,  // measure 22
1100
0000
1000
0000
0001
0000
0000
0001
1000
0000
0100
0000
0010
0000
0000
0000
,  // measure 23
0011
0000
0001
0000
1000
0000
0000
1000
0001
0000
0010
0000
0100
0000
0000
0000
,  // measure 24
1100
0100
1000
0000
1001
1000
0001
0000
,  // measure 25
0101
0100
0001
0001
1000
0100
0010
0001
,  // measure 26
0200
0000
0000
0000
0000
0000
0301
1000
0002
0000
0000
0000
0000
0000
1003
0010
,  // measure 27
2000
0000
3001
0010
0012
0000
1003
0001
,  // measure 28
1010
0010
1000
0000
0100
0010
0001
0010
,  // measure 29
0100
0000
1000
0000
0100
0000
1000
0001
0100
0000
0001
0000
0100
0000
0001
0000
,  // measure 30
0010
0100
0010
0100
1000
0100
0010
0000
0001
0100
0010
0100
0001
0010
0001
0000
,  // measure 31
2000
0001
0010
3100
2000
0100
0010
3001
,  // measure 32
1001
0000
1100
1100
2002
0000
3003
0000
,  // measure 33
0000
0000
0000
0000
1000
0000
0001
0000
0100
0000
0001
0010
0100
0000
0001
0000
,  // measure 34
0100
0000
1000
0000
0002
0000
0000
0000
1003
0000
0001
0100
0010
0000
1000
0000
,  // measure 35
0010
0000
0100
0000
0001
0000
0000
0001
1000
0000
0000
1000
0010
0000
0100
0000
,  // measure 36
0001
0000
0010
0000
0100
0000
0000
0100
0010
0000
0000
0010
0001
0000
0100
0000
,  // measure 37
0010
0000
1000
0000
0200
0000
0000
0000
0010
0000
0000
0000
0310
0000
0001
0010
,  // measure 38
0100
0000
0001
0000
0100
0000
1000
0000
0001
0000
0000
0001
0100
0000
0000
0100
,  // measure 39
0010
0000
1000
0000
0100
0000
0000
0000
0010
0000
0100
1000
0020
0000
0000
0000
,  // measure 40
0130
0000
0001
0010
0100
0000
0001
0000
0100
0000
1000
0000
0001
0000
0100
0000
,  // measure 41
0010
0000
0000
0000
1000
0000
0100
0000
1000
0000
0001
0100
0010
0000
0001
0000
,  // measure 42
0010
0000
1000
0000
0002
0000
0000
0000
1003
0000
0100
1000
0010
0000
0100
0000
,  // measure 43
0001
0000
0010
0000
0100
0000
0000
0100
1000
0000
0000
1000
0001
0000
0010
0000
,  // measure 44
0100
0010
0011
0000
1100
0000
0011
0000
,  // measure 45
0001
1000
0001
1000
0001
0000
0010
0000
0100
0000
0000
0100
1000
0000
0000
1000
,  // measure 46
0010
0000
0100
0000
0101
0000
0000
0000
0001
0000
1000
0100
0010
0000
1000
0000
,  // measure 47
0010
0000
0001
0000
1001
0000
0000
0000
0001
0000
1000
0010
0200
0000
0000
0000
,  // measure 48
0301
0000
0000
0001
1000
0000
0000
1000
0100
0000
0010
0000
0010
0000
0000
0000
,  // measure 49
0110
0000
0000
0000
0020
0000
0000
0001
0000
0000
0001
0000
0000
0031
0000
1000
,  // measure 50
0000
0001
0000
1000
0001
0000
0100
0000
1000
0000
0100
0000
0001
0000
0100
0000
,  // measure 51
1000
0000
0100
0000
0002
0000
0000
1000
0000
0000
1000
0000
0000
1003
0000
0001
,  // measure 52
0000
1000
0000
0001
1000
0000
0010
0000
0001
0000
0010
0000
1000
0000
0010
0000
,  // measure 53
0001
0000
0010
0000
2000
0000
0000
0001
0000
0000
0001
0000
0000
3001
0000
1000
,  // measure 54
0000
0001
0000
1000
0001
0000
0010
0000
1000
0000
0010
0000
0001
0000
0010
0000
,  // measure 55
1000
0000
0010
0000
0002
0000
0000
1000
0000
0000
1000
0000
0000
1003
0000
0001
,  // measure 56
0000
1000
0000
0001
1000
0000
0010
0000
0001
0000
0010
0000
1000
0000
0010
0000
,  // measure 57
0001
0000
0010
0000
1000
0001
0000
0001
0000
0000
0100
0010
0000
0010
0000
1000
,  // measure 58
0000
1000
0100
0000
0010
0000
0001
0000
0100
0000
1000
0000
0100
0000
0001
0000
,  // measure 59
0001
0000
1000
0000
0001
1000
0000
1000
0000
0000
0010
0100
0000
0100
0000
0001
,  // measure 60
0000
0001
0010
0000
0100
0000
1000
0000
0010
0000
0001
0000
0010
0000
1000
0000
,  // measure 61
1000
0000
0001
0000
1000
0001
0000
0001
0000
0000
0010
0100
0000
0100
0000
1000
,  // measure 62
0000
1000
0010
0000
0100
0000
0001
0000
0010
0000
1000
0000
0010
0000
0001
0000
,  // measure 63
0001
0000
1000
0000
0001
1000
0000
1000
0000
0000
0100
0010
0000
0010
0000
0001
,  // measure 64
0000
0001
0100
0000
0010
1000
0010
0000
1000
0001
1000
0000
0100
0010
0100
0000
,  // measure 65
1000
0100
1000
0100
0000
0000
1000
0001
2000
0000
0000
0000
0000
0000
0000
0000
,  // measure 66
0000
0000
0000
0000
,  // measure 67
0000
0000
0000
0000
,  // measure 68
3000
0000
0000
0000
;

//---------------dance-single - ----------------
#NOTES:
     dance-single:
     :
     Challenge:
     16:
     0.791,1.000,0.154,0.131,1.000: // measure 1
1002
0000
0000
1000
0000
0000
1000
0000
0000
1000
0000
0000
1003
0000
0000
0000
,  // measure 2
0010
0010
0100
0000
0001
0010
0100
0000
,  // measure 3
2001
0000
0000
0001
0000
0000
0001
0000
0000
0001
0000
0000
3001
0000
0000
0000
,  // measure 4
0100
0100
0010
0000
1000
0100
0010
0000
,  // measure 5
1002
0000
0000
1000
0000
0000
1000
0000
0000
1000
0000
0000
1003
0000
0000
0000
,  // measure 6
0001
0001
1000
0001
0010
0100
0010
0000
,  // measure 7
0102
0000
0000
0100
0000
0000
0103
0000
0010
0000
1000
0000
0100
0000
0010
0000
,  // measure 8
0001
0000
0001
0100
0010
0000
0010
1000
0010
0000
0010
1000
0100
0000
0010
0100
,  // measure 9
0020
0000
0000
0000
0000
0000
0000
0000
0130
0010
0100
0000
0001
0010
0100
1000
,  // measure 10
0001
0000
0001
0000
0010
0000
0001
0100
0010
0000
0100
0000
0100
0000
0000
0000
,  // measure 11
0010
0000
1000
0100
1000
0000
0100
0010
0100
0010
0100
0000
1000
0000
0000
0000
,  // measure 12
0001
0000
0001
0000
0100
0000
0010
0100
0001
0000
0010
0000
0010
0000
0000
0000
,  // measure 13
0001
0000
1000
0010
1000
0000
0010
0100
0010
0100
0010
0000
1000
0001
1000
0001
,  // measure 14
1000
0000
1000
0000
0100
0000
0010
0100
1000
0000
0010
0000
0010
0000
0000
0000
,  // measure 15
0100
0000
0001
1000
0001
0000
0010
0001
0010
0001
0010
0000
0100
0000
0000
0000
,  // measure 16
1000
0000
1000
0000
0010
0000
0100
0001
0010
0000
0100
0000
0100
0000
0000
0000
,  // measure 17
1000
0000
1000
0000
0001
0100
0001
0000
0010
0100
1000
0100
0010
0000
0000
0000
,  // measure 18
0001
0000
1000
0010
1000
0000
1000
0001
1000
0000
0010
0000
0100
0000
0010
0000
,  // measure 19
1000
0000
0001
0010
0001
0000
0001
1000
0001
1000
0001
0000
1001
0000
0000
0000
,  // measure 20
1000
0000
0001
0010
0001
0000
0001
1000
0001
0000
0010
0000
0100
0000
0010
0000
,  // measure 21
0001
0000
1000
0010
1000
0010
0100
0001
0100
0001
1000
0001
1000
0001
1000
0000
,  // measure 22
1001
0000
0001
0010
0001
0000
1000
0100
1000
0000
0001
0000
1000
0000
0000
0000
,  // measure 23
1001
0000
1000
0010
1000
0000
0001
0100
0001
0100
0010
0000
0100
0000
0000
0000
,  // measure 24
1001
0000
1000
0100
1000
0000
0100
1000
0001
0000
0100
0000
0101
0000
0000
0000
,  // measure 25
1001
0000
0001
0010
0001
0000
0010
0100
0010
0100
1000
0001
1000
0001
1000
0010
,  // measure 26
0200
0000
0000
0000
0000
0000
0301
0010
0200
0000
0000
0000
0000
0000
1300
0001
,  // measure 27
0200
0000
0000
0000
0000
0000
0000
0000
0310
0000
0000
0000
1000
0000
0000
0000
0210
0000
0000
0000
0000
0000
0301
1000
0001
0000
1000
0000
0100
0000
0010
0000
,  // measure 28
0110
0000
0100
0000
0010
0000
0000
0000
0001
0000
1000
0000
1000
0000
1000
0000
0001
0010
0001
0000
0010
0100
0010
0000
0100
0000
1000
0000
0010
0000
0100
0000
,  // measure 29
0001
0000
0100
0000
1000
0000
0100
0000
0001
0000
0000
0000
1000
0001
1000
0001
1000
0000
0100
0000
0001
0000
0100
0000
1000
0000
0000
0000
0001
0000
1000
0010
,  // measure 30
1000
0010
1000
0000
0100
0010
0100
0010
0001
0010
0001
0010
0100
0000
1000
0000
0010
0000
0100
0001
0010
0000
0001
0010
0001
0010
0100
1000
0100
1000
0010
0100
,  // measure 31
0010
1000
0100
1000
0010
0100
0001
0010
0001
0100
0001
0010
0100
1000
0100
0010
0001
1000
0010
0100
0001
0100
0010
1000
,  // measure 32
1010
0000
0011
0011
2002
0000
3003
0000
,  // measure 33
1000
0001
1000
0001
1000
0000
0100
1000
0100
0000
1000
0010
0100
0000
0001
0000
,  // measure 34
0010
0000
0100
0000
0010
0000
0001
0000
0100
0000
0010
1000
0001
0010
0001
0010
,  // measure 35
0100
1000
0100
1000
0001
0000
0100
0001
0100
0000
0010
1000
0100
0000
1000
0000
,  // measure 36
0010
0000
0100
0000
0001
0000
1000
0001
1000
0000
0100
1000
0001
0100
0001
0100
,  // measure 37
0010
1000
0010
1000
0001
0000
0010
0000
0100
0000
0010
0001
0010
0000
0001
1000
,  // measure 38
0010
0000
1000
0001
1000
0000
0100
0000
0010
0000
0100
1000
0001
0000
1000
0100
,  // measure 39
1000
0000
0100
1000
0001
0000
0100
0001
0100
0001
0010
0100
1000
0000
0001
0000
,  // measure 40
1000
0000
0001
1000
0001
0000
0010
0001
0100
0000
0100
0000
0110
0000
0010
0000
,  // measure 41
1000
0100
0010
0001
1000
0000
0000
1000
0100
0000
0010
0100
1000
0000
0001
0100
,  // measure 42
0001
0000
0100
0001
1000
0000
0000
1000
0100
0000
0010
0001
1000
0010
1000
0010
,  // measure 43
0100
0001
0100
0001
1000
0000
0100
1000
0100
0000
0010
0001
0100
0000
0001
1000
,  // measure 44
0001
0000
1000
0000
1100
0000
0000
0000
0101
0000
0000
0000
0001
0100
0001
0100
,  // measure 45
0010
1000
0010
1000
0001
0000
0000
0001
1000
0000
0000
1000
0100
0000
0010
0100
,  // measure 46
0010
0000
0001
0100
0010
0000
1000
0001
1000
0000
0100
0010
0002
0000
1000
0000
,  // measure 47
1003
0000
0010
0000
0110
0000
0001
1000
0001
0000
0010
0100
2000
0000
0001
0000
,  // measure 48
3001
0000
0100
0001
0010
0000
0000
0010
0200
0000
1000
0000
2300
0000
0000
0000
,  // measure 49
3002
0000
0000
0000
1003
0010
0000
0010
0000
0000
1000
0010
0000
0010
0000
0100
,  // measure 50
0000
0100
0000
0001
1000
0000
0100
0000
0010
0000
0001
1000
0000
0001
0000
0001
,  // measure 51
0000
0001
1000
0000
0001
0100
0000
0100
0000
0000
0010
1000
0000
1000
0000
0001
,  // measure 52
0000
0001
0000
0100
0001
0000
0010
0100
0000
0100
0010
0000
0001
1000
0001
1000
,  // measure 53
0001
1000
0001
1000
0001
0010
0000
0010
0000
0000
0100
1000
0000
1000
0000
0001
,  // measure 54
0000
0001
0000
0100
0010
0000
1000
0000
0010
0000
0100
0010
0000
1000
0000
1000
,  // measure 55
0000
1000
0001
0000
0010
0001
0000
0001
0000
0000
1000
0100
0000
0100
0000
1000
,  // measure 56
0000
1000
0000
0010
0100
0000
0001
1000
0000
1000
0001
0000
1000
0100
0010
0001
,  // measure 57
0010
0100
1000
0001
0010
0001
0000
0001
0000
1000
0001
0010
0000
0010
0000
0100
,  // measure 58
0000
0100
0000
1000
0001
0000
0010
0000
0100
0010
0100
0000
1000
0010
1000
0010
,  // measure 59
0100
0001
0100
0000
0001
1000
0000
1000
0000
0001
1000
0010
0000
0010
0000
0100
,  // measure 60
0000
0100
0000
0001
1000
0000
0100
0000
0010
0100
0010
0000
0001
0100
0001
1000
,  // measure 61
0010
1000
0010
0000
0100
0010
0000
0010
0000
0100
0001
0010
0000
0010
0000
0100
,  // measure 62
0000
0100
0000
1000
0001
0000
0010
0000
0100
0010
0100
0000
1000
0010
1000
0010
,  // measure 63
1000
0001
1000
0000
0010
0100
0000
0100
0000
0001
1000
0100
0000
0100
0000
0010
,  // measure 64
0000
0010
0000
0001
1000
0100
1000
0100
0010
0001
0010
0001
1000
0010
0100
0001
,  // measure 65
0100
0010
1000
0001
0000
0000
0010
0100
0020
0000
0000
0000
0000
0000
0000
0000
,  // measure 66
0000
0000
0000
0000
,  // measure 67
0000
0000
0000
0000
,  // measure 68
0030
0000
0000
0000
;

//---------------dance-single - ----------------
#NOTES:
     dance-single:
     :
     Beginner:
     3:
     0.120,0.125,0.108,0.000,0.000:
1001
0000
0000
0000
,
0000
0000
0000
0000
,
1000
0000
0000
0000
,
0000
0000
0000
0000
,
1001
0000
0000
0000
,
0000
0000
0000
0000
,
0001
0000
1000
0000
,
0001
0000
1000
0000
,
0100
0000
0000
0000
,
0110
0000
0000
0000
,
0010
0000
0000
0000
,
0100
0000
0000
0000
,
0010
0000
0000
0000
,
1000
0000
0000
0000
,
0001
0000
0000
0000
,
1000
0000
0000
0000
,
0100
0000
0000
0000
,
1001
0000
0001
0000
,
1000
0000
0001
0000
,
1000
0000
0001
0000
,
1000
0000
0001
0000
,
0100
0000
0010
0000
,
0100
0000
0010
0000
,
0100
0000
0100
0000
,
0100
0000
0000
0000
,
0110
0000
0010
0000
,
0100
0000
0010
0000
,
1001
0000
0000
0000
,
1000
0000
0000
0000
,
0001
0000
0000
0000
,
1000
0000
0000
0000
,
1001
0000
1001
0000
,
0000
0001
0000
1000
,
0000
0100
0000
0000
,
0000
1000
0000
0001
,
0000
1000
0000
0001
,
0000
1000
0000
0001
,
0000
0100
0000
0000
,
0000
0010
0000
0100
,
0000
0010
0000
0010
,
0000
0110
0000
0100
,
0000
0010
0000
0100
,
0000
0001
0000
1000
,
0000
0001
0000
1000
,
0000
0100
0000
1000
,
0000
0100
0000
0010
,
0000
0100
0000
0010
,
0000
0001
0000
0001
,
0000
1001
0000
0000
,
0000
1000
0000
0000
,
0000
1001
0000
0000
,
0000
0001
0000
0000
,
0000
1001
0000
0000
,
0000
1000
0000
0000
,
0000
1001
0000
0000
,
0000
0001
0000
0000
,
0000
0100
0000
0001
,
0000
0100
0000
0001
,
0000
1000
0000
0100
,
0000
1000
0000
0100
,
0000
0010
0000
0100
,
0000
0010
0000
0100
,
0000
0010
0000
0010
,
0000
0010
0000
0000
,
0000
0000
0110
0000
;
