#TITLE:うた;
#SUBTITLE:;
#ARTIST:mami;
#TITLETRANSLIT:UTA;
#SUBTITLETRANSLIT:;
#ARTISTTRANSLIT:;
#CREDIT:DigiMindAxel;
#BANNER:UTA.png;
#BACKGROUND:UTA-bg.png;
#LYRICSPATH:UTA.lrc;
#CDTITLE:pop'n music.png;
#MUSIC:UTA.mp3;
#METERTYPE:DDR X;
#OFFSET:-7.504;
#SAMPLESTART:51.153;
#SAMPLELENGTH:12.000;
#SELECTABLE:YES;
#BPMS:0.000=220.000;
#STOPS:;
#BGCHANGES:;

//---------------dance-single - ----------------
#NOTES:
     dance-single:
     :
     Easy:
     7:
     0.311,0.419,0.209,0.101,0.000:
0000
1001
0000
0001
,
0000
1001
0000
1000
,
0000
0110
0000
0001
,
0000
0100
0010
0100
,
0001
0000
1000
0000
,
0100
1000
0100
1000
,
0001
0000
0100
0000
,
0010
1000
0010
1000
,
0001
0000
0010
0000
,
0001
0000
0100
0010
,
1000
0000
0100
0000
,
1000
0000
0001
1000
,
0002
0000
0000
0000
,
2003
0000
0000
0000
,
3002
0000
0000
0000
,
1003
0000
0100
0000
,
2000
0000
0000
0000
,
3002
0000
0000
0000
,
1003
0000
0010
0000
,
1000
0000
0000
0000
,
1001
0000
0001
0000
,
1000
0001
1000
0000
,
0001
0000
1001
0000
,
0100
0010
0100
0000
,
1001
0000
0010
0000
,
0110
0000
0100
0000
,
0001
1000
0001
0000
,
1000
0001
1000
0000
,
1001
0000
0001
0000
,
1001
0000
0001
0000
,
1001
0000
1000
0000
,
1001
0000
1000
0000
,
0110
0000
0010
0000
,
0110
0000
0010
0000
,
0200
0000
0000
0000
,
0320
0000
0000
0000
,
0230
0000
0000
0000
,
0302
0000
0000
0000
,
1003
0000
0000
0000
,
1001
0000
0000
0000
,
0001
0000
1000
0000
,
0001
1000
0001
0000
,
0010
0000
0001
0000
,
0100
0010
0100
0000
,
0001
1000
0001
0000
,
1000
0100
1000
0000
,
0010
0100
0010
0000
,
1000
0001
0100
0000
,
0001
1000
0001
1000
,
0001
1000
0001
1000
,
0010
1000
0010
1000
,
0010
1000
0010
1000
,
0001
1000
0001
1000
,
0001
1000
0001
1000
,
0001
0010
0001
0010
,
0001
0010
0001
0010
,
0001
1000
0001
1000
,
0001
1000
0001
1000
,
0001
0100
0001
0100
,
0001
0100
0001
1000
,
0001
1000
0001
1000
,
0100
1000
0100
1000
,
1001
0000
0000
0110
,
0000
0000
1001
0000
,
0010
0000
0000
0000
,
0000
0000
0000
0000
,
0110
0000
0000
0000
,
0000
0000
0000
0000
,
0010
0000
0100
0000
,
0001
0000
0010
0000
,
0100
0000
1000
0000
,
0100
0000
0010
0000
,
0002
0000
0000
0000
,
0000
0000
0000
0000
,
1003
0000
0000
1001
,
0000
0000
0000
0000
,
0010
0000
0000
0000
,
0010
0000
0000
0000
,
0010
0000
0000
0000
,
0010
0000
0000
0000
,
0110
0000
0000
0000
,
0100
0000
0000
0000
,
0010
0000
0100
0000
,
0010
0000
0000
0000
,
1000
0001
1000
0000
,
0100
1000
0100
0000
,
1000
0001
0010
0000
,
0001
0010
0100
0000
,
1000
0001
1000
0000
,
0010
1000
0001
0000
,
1001
0000
1000
0000
,
1001
0000
0000
0000
,
0001
0100
0001
0100
,
0001
0100
0001
1000
,
0001
1000
0001
1000
,
0001
1000
0001
1000
,
0100
0000
0000
0000
,
0000
0000
0000
0000
,
1001
0000
0000
0110
,
0000
0000
2002
0000
,
3003
0000
0000
0000
;

//---------------dance-single - ----------------
#NOTES:
     dance-single:
     :
     Medium:
     11:
     0.509,0.588,0.285,0.142,0.000: // measure 1
1000
0001
1000
0001
,  // measure 2
1000
0001
1000
0001
,  // measure 3
0100
0010
0100
0010
,  // measure 4
1000
1000
1000
1000
,  // measure 5
1001
0000
0001
0100
0001
0000
1000
0001
,  // measure 6
1000
0100
0010
0001
,  // measure 7
1000
0000
0001
0010
0001
0000
1000
0001
,  // measure 8
1000
0010
0100
0001
,  // measure 9
0100
0010
0000
0100
0010
0000
0100
0010
,  // measure 10
0000
0100
0010
0000
1000
0000
1000
0000
,  // measure 11
0001
1000
0000
0001
1000
0000
0001
1000
,  // measure 12
0000
0001
1000
0000
0001
0000
0001
0000
,  // measure 13
2000
0000
3100
0000
,  // measure 14
2000
0000
3100
0000
,  // measure 15
0020
0000
0031
0000
,  // measure 16
0020
0000
0031
0000
,  // measure 17
2000
0000
3001
0000
,  // measure 18
2000
0000
3001
0000
,  // measure 19
0200
0000
0301
0000
,  // measure 20
2000
0000
3010
0000
,  // measure 21
1000
0000
0001
0000
0010
0001
0010
0000
,  // measure 22
0001
0000
1000
0000
0100
1000
0100
0000
,  // measure 23
1000
0000
0001
0000
0100
0001
0100
0000
,  // measure 24
0001
0000
1000
0000
0010
1000
0010
0000
,  // measure 25
1000
0000
0001
0010
0001
0000
0010
0000
,  // measure 26
0001
0000
0100
0000
0010
1000
0010
0000
,  // measure 27
1000
0000
0100
0000
1000
0001
1000
0000
,  // measure 28
0001
0100
0010
0100
,  // measure 29
0001
0001
0001
0001
,  // measure 30
1000
1000
1000
1000
,  // measure 31
0001
0001
0001
0001
,  // measure 32
1000
1000
1000
1000
,  // measure 33
1001
0010
0110
0100
,  // measure 34
0101
0001
1001
1000
,  // measure 35
0200
0000
1300
0000
,  // measure 36
0020
0000
0130
0000
,  // measure 37
0002
0000
0000
0000
1003
0000
0000
0001
,  // measure 38
1000
0100
0010
0001
,  // measure 39
1000
0001
1000
0001
0000
0100
0010
0100
,  // measure 40
0020
0000
0000
0030
,  // measure 41
1000
0001
1000
0001
0000
0001
1000
0000
,  // measure 42
1100
0000
0000
0100
0000
1000
0000
0000
,  // measure 43
0010
0100
0010
0100
0000
0100
0010
0000
,  // measure 44
0101
0000
0000
0100
0000
0001
0000
0000
,  // measure 45
1000
0001
1000
0001
0000
0001
1000
0000
,  // measure 46
1010
0000
0000
0010
0000
1000
0000
0000
,  // measure 47
0100
0010
0100
0010
0000
0010
0100
0000
,  // measure 48
1100
0000
0000
1000
0000
0100
0000
0000
,  // measure 49
1001
0001
0001
0001
,  // measure 50
0101
0010
0110
0010
,  // measure 51
1100
1000
1000
1000
,  // measure 52
1001
1000
1001
0001
,  // measure 53
0101
0001
0001
0100
,  // measure 54
0110
0100
0010
0010
,  // measure 55
1010
1000
1100
0001
,  // measure 56
0101
0000
0001
1000
,  // measure 57
1010
0010
0010
0010
,  // measure 58
0010
0010
0110
0100
,  // measure 59
0101
0001
1001
1000
,  // measure 60
1100
0100
0110
0010
,  // measure 61
1001
1000
1000
1000
,  // measure 62
0001
0001
0001
0001
,  // measure 63
1001
0000
0000
1001
0000
0000
0110
0000
,  // measure 64
0000
0110
0000
0000
0010
0100
0010
0000
,  // measure 65
0200
0000
0000
0000
,  // measure 66
0000
0000
0000
0000
,  // measure 67
0320
0000
0000
0000
,  // measure 68
0000
0000
0000
0000
,  // measure 69
1030
0001
0000
0010
,  // measure 70
0000
0100
0000
1000
,  // measure 71
0000
0001
0000
1000
,  // measure 72
0000
0010
0100
0010
,  // measure 73
0200
0000
0000
0000
,  // measure 74
0320
0000
0000
0000
,  // measure 75
0130
0010
0100
0010
0000
1000
0001
1000
,  // measure 76
0001
0000
0000
0000
,  // measure 77
1000
0000
1000
0000
,  // measure 78
1000
0000
1000
0000
,  // measure 79
0001
0000
0001
0000
,  // measure 80
0001
0000
0001
0000
,  // measure 81
1001
1000
0001
1000
,  // measure 82
0100
1000
0100
1000
,  // measure 83
0010
0100
0010
0100
0010
0100
0000
0000
,  // measure 84
0001
1000
0001
1000
0000
1000
0000
0000
,  // measure 85
0001
0010
0001
0010
0000
0010
0001
0000
,  // measure 86
0100
0000
0010
0100
0000
0100
0000
0000
,  // measure 87
0001
1000
0001
1000
0000
1000
0100
0000
,  // measure 88
1000
0000
0001
0100
0000
0100
0000
0000
,  // measure 89
0001
1000
0001
1000
0000
1000
0010
0000
,  // measure 90
0100
0000
0001
1000
0000
1000
0000
0000
,  // measure 91
0001
1000
0000
0000
1000
0001
0000
0000
,  // measure 92
0001
1000
0001
1000
0000
1000
0000
0000
,  // measure 93
1001
0000
0010
0000
0100
0000
1000
0001
,  // measure 94
0100
0000
0010
1000
0001
0000
1000
0000
,  // measure 95
0001
0000
0100
0000
0010
0000
1000
0100
,  // measure 96
0010
0000
0001
1000
0100
0000
1000
0000
,  // measure 97
1100
0000
0000
0000
,  // measure 98
0000
0000
0000
0000
,  // measure 99
1000
0001
0000
1000
0001
0000
0010
0100
,  // measure 100
0000
0010
0100
0000
1000
0001
1000
0001
,  // measure 101
0200
0300
0000
0000
;

//---------------dance-single - ----------------
#NOTES:
     dance-single:
     :
     Hard:
     13:
     0.649,0.714,0.335,0.260,0.000:
0001
0101
0000
1010
,
0000
0110
0000
1001
,
0000
1100
0000
0011
,
0001
1000
0001
1000
0001
0010
0100
0000
,
1100
0000
0010
0001
0010
0000
0100
0010
,
0100
1000
0100
0010
0001
0100
0010
0000
,
0100
0000
0010
1000
0010
0000
0100
0010
,
1000
0010
0100
0001
0010
0100
0010
0000
,
0001
1000
0000
0100
0010
0000
0001
0100
,
0000
0001
1000
0000
1001
0000
1001
0000
,
0001
1000
0000
0001
0100
0000
0001
1000
,
0000
0100
0010
0000
1001
0000
1001
0000
,
2000
0000
3001
0000
,
0200
0000
0310
0000
,
2000
0000
3001
0000
,
1000
0100
0010
0001
,
0200
0000
0310
0000
,
2000
0000
3001
0000
,
1000
0010
0100
0001
,
0100
0010
1000
0000
,
1001
0000
0001
0000
0100
0001
0010
0000
,
0100
0010
0100
0000
1000
0001
0100
0000
,
0010
0000
0100
0000
0001
0010
0100
0000
,
0010
0001
1000
0000
0010
1000
0001
0000
,
0101
0000
0100
0001
0010
0001
0100
0000
,
0001
0000
1000
0100
0010
0100
1000
0000
,
0100
0000
0001
0000
0100
0000
1000
0001
,
0010
0000
0100
1000
0001
0000
0001
0000
,
0200
0001
0010
0301
,
2000
0100
0010
3100
,
0020
0001
0100
0031
,
0200
1000
0010
1300
,
1001
0100
1001
0010
,
1001
0100
1001
0010
,
1001
0000
1000
0100
0001
0000
0100
0000
,
1001
0000
0001
0010
1000
0000
0010
0000
,
1001
0000
0001
0100
1000
0000
0100
0001
,
1000
0100
0010
0000
0100
1000
0001
0000
,
1000
0010
0100
0001
0000
0001
0100
0010
,
2000
0000
0000
0001
0000
0000
3001
0000
,
1000
0010
0100
0001
0000
0001
1000
0100
,
0010
0100
1000
0002
0000
0103
0000
0000
,
0001
1000
0001
0010
0000
0001
1000
0100
,
0010
0001
1000
0010
0000
0010
0000
0000
,
1000
0010
0100
0001
0000
0001
1000
0100
,
0010
0100
1000
0002
0000
0103
0000
0000
,
0001
1000
0100
0010
0000
0010
0000
0000
,
0001
1000
0010
0100
0000
0100
0000
0000
,
0101
0000
0101
0000
0001
0100
1000
0100
,
0001
1001
1001
1001
,
1100
0000
1100
0000
1000
0100
0001
0100
,
1000
0001
1000
0000
1001
0000
1001
0000
,
1000
0001
0010
0001
1000
0100
0001
0100
,
1000
0000
0010
1000
0001
0010
1000
0010
,
0002
1000
0100
1003
,
1001
0000
0000
0000
0100
0010
0100
0000
,
0110
0000
0110
0000
0110
0000
0100
0001
,
1000
0000
0100
0010
0001
0000
1000
0000
,
1001
0000
1001
0000
1001
0000
0001
1000
,
0010
1000
0100
0010
0001
0100
0010
0000
,
0101
0000
0100
0001
0010
0000
0100
1000
,
0010
0000
1000
0100
0010
0001
1000
0000
,
0010
1000
0000
0010
0100
0000
0001
0010
,
0000
0001
1000
0000
0100
0010
0001
0010
,
0200
0000
1000
0000
,
1000
0000
0000
0000
1300
0000
0000
0001
,
2000
0000
0001
0000
,
0001
0000
0000
0000
3001
1000
0001
1000
,
0001
0010
0001
0000
1000
0100
1000
0000
,
0010
0100
0010
0000
0100
0010
0100
0000
,
0001
1000
0001
0000
1000
0010
1000
0000
,
0001
0100
0001
0000
0010
0100
1000
0001
,
0200
0000
0000
0000
,
0002
0000
0000
0303
,
0001
0010
0100
1000
0000
1000
0100
0010
,
0001
0001
1000
0010
,
0200
0000
0320
0000
,
0230
0000
0320
0000
,
2030
0000
3200
0000
,
0320
0000
0032
0000
,
1003
0100
0010
0100
,
1000
0010
0001
0010
,
1000
0001
0010
0100
1000
0100
0000
0000
,
1000
0001
0100
0010
0000
0010
0000
0000
,
1000
0010
0100
0001
0000
0001
1000
0100
,
0010
0100
1000
0002
0000
0103
0000
0000
,
0001
1000
0001
0010
0000
0001
1000
0100
,
0010
0001
1000
0010
0000
0010
0000
0000
,
1000
0010
0100
0001
0000
0001
1000
0100
,
0010
0100
1000
0002
0000
0103
0000
0000
,
0001
1000
0000
0000
1000
0001
0000
0000
,
0001
0100
0010
1000
0000
1000
0000
0000
,
1002
0100
1000
0100
,
1000
0000
0100
0000
1003
0000
0001
1000
,
0020
0100
0001
0100
,
0001
0100
0031
0110
,
1001
0000
0000
0000
,
0000
0002
0000
0000
0000
0000
0000
0000
,
0013
0001
0000
1000
0010
0000
1000
0001
,
0000
0010
0100
0000
1000
0010
0100
0001
,
2000
3000
0000
0000
;

//---------------dance-single - ----------------
#NOTES:
     dance-single:
     :
     Beginner:
     3:
     0.114,0.208,0.126,0.000,0.000:
0000
0000
0000
0000
,
0000
0000
0000
0000
,
0000
0000
0000
0000
,
0000
0000
0000
0000
,
0001
0000
0000
0000
,
1000
0000
0000
0000
,
0001
0000
0000
0000
,
1000
0000
0000
0000
,
0001
0000
0000
0000
,
0001
0000
0000
0000
,
1001
0000
0000
0000
,
1000
0000
0000
0000
,
0010
0000
0000
0000
,
0000
0000
0000
0000
,
0000
0000
0000
0000
,
0000
0000
0000
0000
,
0100
0000
0000
0000
,
0000
0000
0000
0000
,
0001
0000
0000
0000
,
0000
0000
0000
0000
,
1000
0000
0000
0000
,
1000
0000
0000
0000
,
1000
0000
0000
0000
,
1000
0000
0000
0000
,
1001
0000
0000
0000
,
0001
0000
0000
0000
,
0100
0000
0000
0000
,
0000
0000
0000
0000
,
0110
0000
0000
0000
,
0010
0000
0000
0000
,
0100
0000
0000
0000
,
0010
0000
0000
0000
,
1001
0000
0000
0000
,
0000
0000
0000
0000
,
0001
0000
0000
0000
,
1000
0000
0000
0000
,
0100
0000
0000
0000
,
1000
0000
0000
0000
,
1001
0000
0000
0000
,
0000
0000
0000
0000
,
0001
0000
0000
0000
,
0100
0000
0000
0000
,
0001
0000
0000
0000
,
0100
0000
0000
0000
,
0010
0000
0000
0000
,
0100
0000
0000
0000
,
0001
0000
0000
0000
,
0001
0000
0000
0000
,
1001
0000
0000
0000
,
1000
0000
0000
0000
,
1001
0000
0000
0000
,
0001
0000
0000
0000
,
1000
0000
0000
0000
,
0001
0000
0000
0000
,
0100
0000
0000
0000
,
0100
0000
0000
0000
,
0001
0000
0000
0000
,
1000
0000
0000
0000
,
0001
0000
0000
0000
,
0010
0000
0000
0000
,
0010
0000
0000
0000
,
0100
0000
0000
0000
,
0100
0000
0000
0000
,
0000
0000
0000
0000
,
0110
0000
0000
0000
,
0000
0000
0000
0000
,
0010
0000
0000
0000
,
0000
0000
0000
0000
,
0100
0000
0000
0000
,
0010
0000
0000
0000
,
0100
0000
0000
0000
,
0010
0000
0000
0000
,
0110
0000
0000
0000
,
0000
0000
0000
0000
,
1001
0000
0000
0000
,
0000
0000
0000
0000
,
1000
0000
0000
0000
,
0000
0000
0000
0000
,
0100
0000
0000
0000
,
0000
0000
0000
0000
,
1000
0000
0000
0000
,
1000
0000
0000
0000
,
0001
0000
0000
0000
,
0001
0000
0000
0000
,
0100
0000
0000
0000
,
0010
0000
0000
0000
,
0100
0000
0000
0000
,
0001
0000
0000
0000
,
1000
0000
0000
0000
,
0001
0000
0000
0000
,
1001
0000
0000
0000
,
0110
0000
0000
0000
,
0010
0000
0000
0000
,
0100
0000
0000
0000
,
0010
0000
0000
0000
,
0100
0000
0000
0000
,
1001
0000
0000
0000
,
0000
0000
0000
0000
,
1001
0000
0000
0000
,
0000
0000
0110
0000
;
