#TITLE:歌の翼;
#SUBTITLE:;
#ARTIST:あーたん;
#TITLETRANSLIT:UTA NO TSUBASA;
#SUBTITLETRANSLIT:;
#ARTISTTRANSLIT:A-TAN;
#CREDIT:DigiMindAxel;
#BANNER:UTA NO TSUBASA.png;
#BACKGROUND:UTA NO TSUBASA-bg.png;
#LYRICSPATH:UTA NO TSUBASA.lrc;
#CDTITLE:jubeat.png;
#MUSIC:UTA NO TSUBASA.mp3;
#METERTYPE:DDR X;
#OFFSET:-7.557;
#SAMPLESTART:7.337;
#SAMPLELENGTH:12.000;
#SELECTABLE:YES;
#BPMS:0.000=140.000;
#STOPS:;
#BGCHANGES:;

//---------------dance-single - ----------------
#NOTES:
     dance-single:
     :
     Easy:
     4:
     0.212,0.257,0.112,0.017,0.000:
1000
0001
1000
0000
,
0100
1000
0100
0000
,
1000
0001
1000
0000
,
0100
1000
0100
0010
,
0001
1000
0001
0000
,
0100
0001
0100
0000
,
0001
1000
0001
0000
,
0100
0010
1000
0000
,
1001
0000
0000
0000
,
0001
0000
0000
0000
,
0010
0000
0000
0000
,
0100
0000
1000
0000
,
0100
0000
0000
0000
,
1000
0000
0000
0000
,
0010
0010
0010
0000
,
0100
0000
0000
0000
,
0010
0100
0010
0000
,
1000
0001
1000
0000
,
0100
1000
0100
0000
,
0010
0001
0010
0001
,
1000
0010
1000
0000
,
0001
0100
0001
0000
,
1000
0001
1000
0001
,
0100
0100
0100
0000
,
0010
0100
0010
0000
,
0100
0001
1000
0000
,
0100
1000
0100
0000
,
0010
0001
0010
0100
,
1000
0001
1000
0000
,
0010
1000
0010
0000
,
0100
0001
0100
0001
,
1000
1000
1000
0000
,
1001
0001
1000
0000
,
0100
1000
0010
0000
,
0100
0001
0010
0000
,
0100
0010
0100
0010
,
0100
1000
0100
0000
,
1000
0001
1000
0000
,
0001
0010
0001
0010
,
0001
0001
0001
0000
,
1001
0000
0000
0000
,
0000
0000
0000
0000
,
0110
0000
0000
0000
,
0010
0000
0010
0000
,
0110
0000
0000
0000
,
1001
0000
0000
0000
,
1000
0000
0001
0000
,
1000
0000
0000
0000
,
0001
0100
0001
0000
,
1000
0010
1000
0000
,
0100
0010
0100
0010
,
0001
1000
0001
1000
,
0100
1000
0100
0000
,
0010
0001
0010
0000
,
0001
1000
0001
1000
,
0010
0010
0010
0000
,
0110
0000
1001
0000
,
0110
0000
0110
0000
,
1001
0000
0110
0000
,
2002
0000
3003
0000
;

//---------------dance-single - ----------------
#NOTES:
     dance-single:
     :
     Medium:
     7:
     0.329,0.359,0.233,0.035,0.004:
1000
0100
1000
0000
0010
0000
1000
0000
,
0001
0100
0001
0000
0010
0000
0001
0000
,
0100
0010
0100
0000
0001
0000
1000
0000
,
0100
0010
0000
0010
0000
0010
0000
0000
,
1002
0000
1000
1003
0000
0000
0001
0000
,
2000
0000
0001
3001
0000
0000
1000
0001
,
2000
0000
0000
3010
0000
0100
0001
0000
,
1000
0000
1001
0000
,
0110
0000
0000
0010
0000
0000
0010
0000
,
0010
0000
0000
0010
0000
0000
0010
0000
,
0100
0000
0000
0100
0000
0000
0100
0000
,
0100
0000
0100
0000
,
1001
0000
0000
0001
0000
0000
0001
0000
,
0001
0000
0000
1000
0000
0000
1000
0000
,
0001
0000
1000
0000
0001
0000
0000
1001
,
0000
0000
0010
0100
,
0010
0110
0010
0110
,
1000
1001
1000
1001
,
0001
0101
0001
0101
,
0010
1000
0001
0000
0100
0010
0100
0000
,
0001
1001
0001
1001
,
1000
1100
1000
1100
,
0010
0001
0010
0000
0001
0100
0001
0000
,
1000
1001
0002
0000
,
1003
0100
1000
0000
0001
0000
1000
0000
,
0001
0010
0001
0000
1000
0000
0001
0000
,
0100
0010
0100
0000
0001
0000
1000
0000
,
0100
0010
0000
0010
0000
0010
0000
0000
,
1001
0000
1000
0100
1000
0000
0010
0100
,
0001
0000
1000
0001
1000
0000
0100
1000
,
0100
0010
0001
1000
,
0001
1000
0001
1000
0001
0000
0000
0000
,
0110
0010
0100
0010
,
1000
0100
1000
0100
,
0010
0001
0010
0001
,
1000
0010
1000
0001
,
0100
0001
0100
0001
,
1000
0001
1000
0001
,
0100
0010
1000
0001
,
0100
0010
0100
0010
0100
0000
0000
0000
,
0110
0000
0000
0000
,
0000
0000
0000
0000
,
1001
0000
0000
0000
,
0001
1000
0001
1000
,
1001
0000
0000
0001
0000
0000
0000
0000
,
1001
0000
0000
1000
0000
0000
0000
0000
,
0001
0001
0001
0001
,
1000
0100
1000
0000
,
0010
0100
0010
0000
1000
0000
0001
0000
,
0010
0001
0010
0000
0001
0000
1000
0000
,
0100
1000
0100
0000
1000
0000
0001
0000
,
0100
0001
0000
0001
0000
0001
0000
0000
,
1000
0100
1000
0000
0001
0000
1000
0000
,
0001
0010
0001
0000
1000
0000
0001
0000
,
0100
0010
0100
0010
0100
0010
0100
0000
,
0110
1001
1001
0000
,
0001
0001
0000
0000
1000
1000
0000
0000
,
0001
0001
0000
0000
1001
0000
0000
0000
,
0100
0100
0000
0000
0001
0001
0000
0000
,
1000
0000
1000
0000
1000
0000
0000
1001
0000
0000
0000
0000
0000
0000
0000
0000
;

//---------------dance-single - ----------------
#NOTES:
     dance-single:
     :
     Hard:
     10:
     0.527,0.488,0.458,0.069,0.117: // measure 1
0001
0010
0100
0000
0100
1000
0100
0000
,  // measure 2
1000
0001
0100
0000
0100
0010
0100
0000
,  // measure 3
0001
0010
0100
0000
0100
0010
0100
0000
,  // measure 4
1000
0010
0001
0010
1000
0001
1000
0000
,  // measure 5
1010
1000
0001
0010
0001
0000
1000
0001
,  // measure 6
1000
1000
0001
0010
0001
0000
1000
0001
,  // measure 7
1000
0100
0010
0001
0010
0100
1000
0001
,  // measure 8
0101
1010
1001
0000
,  // measure 9
0110
0000
0000
0010
0100
0000
0010
0000
0000
1000
0001
0000
1000
0000
0000
0000
,  // measure 10
0100
0000
0000
0100
1000
0000
0100
0000
0000
0010
0001
0000
0010
0000
0000
0000
,  // measure 11
0001
0000
0000
0001
1000
0000
0001
0000
0000
0100
0001
0000
0100
0000
0000
0000
,  // measure 12
0010
0000
0000
0010
1000
0000
0001
0000
0000
1000
0001
0000
1000
0000
0000
0000
,  // measure 13
1001
0000
0000
0001
0010
0000
0001
0000
0000
0100
0010
0000
0100
0000
0000
0000
,  // measure 14
0010
0000
0000
0010
1000
0000
0010
0000
0000
1000
0001
0000
1000
0000
0000
0000
,  // measure 15
1100
0000
0011
0000
1000
1001
0000
1002
,  // measure 16
0000
0100
0100
0000
0103
0001
0010
0100
,  // measure 17
1100
0011
1100
0011
,  // measure 18
1001
0110
1001
0110
,  // measure 19
0101
1010
0101
1010
,  // measure 20
1000
0000
0001
0100
0001
0000
0010
0000
0100
1000
0100
0000
0010
0000
0000
0000
,  // measure 21
0101
1001
1010
1001
,  // measure 22
0011
1001
1100
1001
,  // measure 23
1000
0001
1000
0000
0100
0000
0010
0000
0001
0100
0001
0000
1000
0000
0000
0000
,  // measure 24
0001
0000
0000
0000
1000
0001
0000
0000
0102
0000
0000
0000
0000
0000
0000
0000
,  // measure 25
1003
0100
1000
0010
0100
0001
1000
0000
,  // measure 26
1000
0100
0010
0001
0100
0010
0100
0000
,  // measure 27
0100
0001
1000
0100
1000
0001
0010
0000
,  // measure 28
0001
0010
1000
0010
0001
1000
0001
1000
,  // measure 29
1200
0000
1000
1300
0001
0100
0010
0100
,  // measure 30
0002
0000
1000
1003
0001
1000
0100
0010
,  // measure 31
0001
1000
0010
1000
0001
1000
0010
1000
,  // measure 32
0001
0010
0001
0000
1000
0100
1000
0000
1001
0000
0000
0000
0000
0000
0000
0000
,  // measure 33
0001
0001
1000
0100
0010
0100
1000
0000
,  // measure 34
0010
0010
1000
0100
1000
0001
0100
0000
,  // measure 35
0001
0001
1000
0100
0010
0001
1000
0000
,  // measure 36
0100
0100
1000
0010
0100
0001
0010
0000
,  // measure 37
0100
0100
1000
0010
0001
0010
1000
0000
,  // measure 38
0001
0001
1000
0100
0010
0100
1000
0000
,  // measure 39
0001
0001
1000
0010
1000
0001
0010
0000
,  // measure 40
0001
1000
0001
0000
1000
0100
1000
0000
1001
0000
0000
0000
0000
0000
0000
0000
,  // measure 41
0110
0000
0000
0000
,  // measure 42
0000
0000
0000
0000
,  // measure 43
1001
0001
0000
0000
0000
0000
0000
0000
,  // measure 44
1001
1001
0110
0110
,  // measure 45
0102
0000
1000
1003
0000
0000
0100
0000
,  // measure 46
1200
0000
1000
1300
0000
0000
0001
0000
,  // measure 47
1000
0000
0100
0000
0010
0000
0100
0000
1000
0000
0010
0000
0100
0001
0100
0000
,  // measure 48
0001
0000
0000
0000
1000
0001
0000
0000
0001
1000
0000
0000
1000
0000
0000
0000
,  // measure 49
0010
0100
0001
0100
0010
1000
0100
0000
,  // measure 50
0100
1000
0010
0100
0001
0010
0100
0000
,  // measure 51
0100
1000
0010
0100
0010
1000
0001
0000
,  // measure 52
0001
0100
0010
0001
0010
0100
0001
0000
,  // measure 53
2001
0000
0100
3100
1000
0001
0010
0100
,  // measure 54
2100
0000
0001
3001
1000
0010
0100
0001
,  // measure 55
1000
0100
0001
0100
1000
0001
0010
0001
,  // measure 56
0011
1100
1001
0000
,  // measure 57
1100
0100
1000
0000
0100
0100
0010
0000
,  // measure 58
0011
0000
0010
0000
0001
1000
0000
0000
1001
0000
0000
0000
0010
0000
0100
0000
,  // measure 59
0101
0001
0100
0000
0001
0001
1000
0000
,  // measure 60
1100
0000
0100
0000
0100
1000
0000
1001
0000
0000
0000
0000
0000
0000
0000
0000
;

//---------------dance-single - ----------------
#NOTES:
     dance-single:
     :
     Challenge:
     13:
     0.670,0.616,0.233,0.009,0.587: // measure 1
1000
0000
0001
0000
1000
0010
0000
0000
0100
0000
0010
0000
1000
0000
0000
0000
,  // measure 2
0100
0000
1000
0000
0010
1000
0000
0000
0100
0000
0010
0000
0001
0000
0000
0000
,  // measure 3
0100
0000
0001
0000
0010
0001
0000
0000
1000
0000
0010
0000
0100
0000
0000
0000
,  // measure 4
0001
1000
0000
0100
1000
0100
0000
0010
0100
0010
0000
0001
1000
0001
1000
0001
,  // measure 5
1000
0000
0100
0000
0010
0001
0010
0000
0100
0000
1000
0000
0001
1000
0000
0000
,  // measure 6
0001
0000
0100
0000
0010
1000
0010
0000
0100
0000
0001
0000
1000
0001
0000
0000
,  // measure 7
1000
0010
0001
0010
1000
0010
0001
0010
,  // measure 8
1000
0001
1000
0001
0010
0001
0010
0001
1000
0000
0000
0000
0000
0000
0010
0100
,  // measure 9
0010
0000
1000
0010
0100
0000
0010
0000
1000
0010
0100
0000
0010
0000
0000
0000
,  // measure 10
1000
0000
0001
0010
0100
0000
0010
0000
0001
0010
0100
0000
0010
0000
0000
0000
,  // measure 11
0001
0000
1000
0010
0100
0000
0010
0000
1000
0010
0100
0000
0010
0000
0000
0000
,  // measure 12
1000
0000
0001
1000
0010
0000
1000
0000
0001
1000
0010
0000
1000
0001
1000
0001
,  // measure 13
1000
0000
0001
0100
0010
0000
0100
0000
0001
0100
0010
0000
0100
0000
0000
0000
,  // measure 14
0001
0000
1000
0100
0010
0000
0100
0000
1000
0100
0010
0000
0100
0000
1000
0000
,  // measure 15
1001
0000
1100
0000
0011
1001
0000
1001
,  // measure 16
0000
0000
0001
0000
0001
0000
1000
0000
0010
1000
0010
1000
0100
0010
0100
0010
,  // measure 17
0001
1000
0100
1000
0001
1000
0100
1000
,  // measure 18
0001
1000
0100
1000
0001
1000
0100
1000
,  // measure 19
0001
0100
0010
1000
0001
0100
0010
1000
,  // measure 20
0001
0000
1000
0010
1000
0010
0100
0000
0001
0010
0100
1000
0001
0100
0001
0100
,  // measure 21
0001
0010
0100
1000
0100
0010
0001
1000
,  // measure 22
0001
1000
0010
1000
0001
1000
0010
1000
,  // measure 23
0001
0010
0100
0000
0010
0001
0010
0000
0100
1000
0100
0000
0010
0000
0000
0000
,  // measure 24
0110
0000
0000
0000
0100
0001
0000
0000
2001
0000
0000
0000
0000
0000
0001
0000
,  // measure 25
3001
0000
1000
0000
0100
1000
0000
0000
0010
0000
0100
0000
0001
0000
0000
0000
,  // measure 26
1000
0000
0100
0000
0010
0100
0000
0000
1000
0000
0001
0000
0100
0000
0000
0000
,  // measure 27
0001
0000
0010
0000
0100
0010
0000
0000
0001
0000
1000
0000
0010
0000
1000
0000
,  // measure 28
0001
1000
0000
0100
1000
0100
0000
0010
0001
0010
0000
0001
1000
0001
1000
0001
,  // measure 29
1000
0000
0100
0000
0010
0100
0000
0000
1000
0000
0001
0000
0010
0001
0000
0000
,  // measure 30
0010
0000
0001
0000
0100
0001
0000
0000
0100
0000
0010
0000
1000
0100
0000
0000
,  // measure 31
1000
0100
0001
0100
1000
0001
0100
0010
,  // measure 32
1000
0100
1000
0100
0010
0001
0100
0001
0100
0000
0000
0000
0001
0000
0000
0000
,  // measure 33
1000
0000
0001
0000
1000
0001
0000
0001
0100
0000
0010
0000
0100
0000
0000
0000
,  // measure 34
0001
0000
1000
0000
0100
1000
0000
1000
0001
0000
1000
0000
0010
0000
0000
0000
,  // measure 35
1000
0000
0100
0000
1000
0001
0000
0001
0100
0000
0001
0000
1000
0000
0000
0000
,  // measure 36
0100
0000
0010
0000
0001
1000
0000
1000
0010
0000
1000
0000
0001
1000
0001
1000
,  // measure 37
0001
0000
0010
0100
1000
0000
0001
0000
0010
0100
1000
0100
0010
0000
0001
0000
,  // measure 38
1000
0000
0010
1000
0100
0000
1000
0000
0010
1000
0100
1000
0010
0000
0100
0000
,  // measure 39
0001
1000
0001
1000
0001
0010
0100
1000
0001
0000
0100
0000
0010
0000
1000
0000
,  // measure 40
0001
0010
0001
0010
0100
1000
0010
0100
0001
0000
0000
0000
0000
0000
0000
0000
,  // measure 41
1001
1000
0000
0001
0000
1000
0000
0001
,  // measure 42
0000
1000
0000
0001
0000
1000
0000
0001
,  // measure 43
0101
0100
0000
0010
0000
0100
0000
0010
,  // measure 44
1010
0110
0101
1001
,  // measure 45
1010
0000
0100
0110
0000
0000
0010
0100
,  // measure 46
0101
0000
1000
1001
0000
0000
0001
1000
,  // measure 47
0001
0100
0010
0000
0100
0000
0100
0000
0001
0010
0100
0000
1000
0001
1000
0000
,  // measure 48
1001
0000
0000
0000
0001
1000
0000
0000
1000
0001
0000
0000
0001
0000
0000
0000
,  // measure 49
0010
0000
0100
0000
1000
0001
0000
0001
0100
0000
0001
0000
1000
0100
0000
0000
,  // measure 50
0010
0000
0100
0000
1000
0001
0000
0001
0100
0000
0001
0000
1000
0100
0000
0000
,  // measure 51
1000
0000
0001
0000
0100
0010
0000
0010
1000
0000
0100
0000
0010
0100
0000
0000
,  // measure 52
1000
0001
0000
0100
0001
0100
0000
0010
1000
0010
0000
1000
0001
1000
0001
1000
,  // measure 53
0001
0000
0010
0000
0100
1000
0000
1000
0001
0000
0100
0000
0010
0100
0000
0000
,  // measure 54
0001
0000
1000
0000
0100
0010
0000
0010
0001
0000
0100
0000
0010
1000
0000
0000
,  // measure 55
0001
0000
0010
0000
1000
0000
0010
0000
0001
0000
1000
0000
0100
0010
0100
0000
,  // measure 56
0110
0000
0000
0000
1001
0000
0000
0000
0110
0000
0000
0000
1000
0001
1000
0001
,  // measure 57
1000
0000
1100
0000
0100
0010
0000
0010
0001
0000
0011
0000
0001
1000
0000
1000
,  // measure 58
0010
0000
1010
0000
1000
0001
0000
0001
0100
0000
0000
0000
0010
0100
0010
0100
,  // measure 59
0010
0000
0110
0000
0100
0001
0000
0001
1000
0000
1001
0000
0001
0010
0000
0010
,  // measure 60
0100
0000
0100
0000
0100
1000
0000
1001
0000
0000
0000
0000
0000
0000
0000
0000
;

//---------------dance-single - ----------------
#NOTES:
     dance-single:
     :
     Beginner:
     2:
     0.094,0.153,0.095,0.000,0.000:
0001
0000
0000
0000
,
0000
0000
0000
0000
,
0100
0000
0000
0000
,
0000
0000
0000
0000
,
0010
0000
0000
0000
,
1000
0000
0000
0000
,
0001
0000
0000
0000
,
1000
0000
0000
0000
,
1001
0000
0000
0000
,
0001
0000
0000
0000
,
0010
0000
0000
0000
,
0100
0000
0000
0000
,
1001
0000
0000
0000
,
0100
0000
0000
0000
,
0010
0000
0100
0000
,
0010
0000
0000
0000
,
1001
0000
1000
0000
,
0001
0000
1000
0000
,
0001
0000
1000
0000
,
0001
0000
0000
0000
,
0110
0000
0100
0000
,
0010
0000
0100
0000
,
0010
0000
0000
0000
,
1000
0000
0000
0000
,
1001
0000
0000
0000
,
0001
0000
0000
0000
,
0010
0000
0000
0000
,
0100
0000
0000
0000
,
1000
0000
0010
0000
,
1000
0000
0000
0000
,
0001
0000
0100
0000
,
0001
0000
0000
0000
,
1000
0000
0000
0000
,
0100
0000
0000
0000
,
0010
0000
0000
0000
,
0001
0000
0000
0000
,
1000
0000
0000
0000
,
0100
0000
0000
0000
,
0010
0000
0000
0000
,
0001
0000
0000
0000
,
1000
0000
0000
0000
,
0000
0000
0000
0000
,
1000
0000
0000
0000
,
0001
0000
0000
0000
,
1001
0000
0000
0000
,
1001
0000
0000
0000
,
0001
0000
0000
0000
,
1000
0000
0000
0000
,
0001
0000
0000
0000
,
0010
0000
0000
0000
,
0100
0000
0000
0000
,
1000
0000
0000
0000
,
0001
0000
0000
0000
,
1000
0000
0000
0000
,
0010
0000
0000
0000
,
1000
0000
0000
0000
,
1001
0000
0000
0000
,
0110
0000
0000
0000
,
1001
0000
0000
0000
,
0110
0000
0000
0000
;
