#TITLE:Tangerine Stream;
#SUBTITLE:;
#ARTIST:dj TAKA;
#TITLETRANSLIT:;
#SUBTITLETRANSLIT:;
#ARTISTTRANSLIT:;
#CREDIT:DigiMindAxel;
#BANNER:Tangerine Stream.png;
#BACKGROUND:Tangerine Stream-bg.png;
#LYRICSPATH:;
#CDTITLE:beatmania IIDX.png;
#MUSIC:Tangerine Stream.mp3;
#METERTYPE:DDR X;
#OFFSET:-11.770;
#SAMPLESTART:23.189;
#SAMPLELENGTH:12.000;
#SELECTABLE:YES;
#BPMS:0.000=84.000;
#STOPS:;
#BGCHANGES:;

//---------------dance-single - ----------------
#NOTES:
     dance-single:
     :
     Easy:
     2:
     0.106,0.127,0.052,0.042,0.005:
0001
0000
0000
0000
,
0010
0000
0000
0000
,
0100
1000
0000
1000
,
0000
1000
0000
0000
,
1001
1000
0000
0000
,
0100
1000
0000
0000
,
0100
0010
0000
0000
,
0001
0100
0000
0000
,
0001
1000
0000
0000
,
0100
0010
0000
0000
,
0001
0100
0000
0000
,
0010
0100
0001
0001
,
1001
1000
0000
0000
,
0100
0000
0010
0001
,
0010
0000
0000
0001
,
1000
0000
0100
1000
,
0010
0110
0010
0100
,
0001
0000
1000
0001
,
1000
0200
0000
0000
,
0320
0000
0000
0030
,
1001
1000
0001
0010
,
0001
0000
0100
0010
,
0100
0000
0001
1000
,
0001
0000
0010
0001
,
0100
0100
0000
0100
,
0000
0000
0000
0000
0100
0000
0000
0000
0000
0000
0000
0000
0000
0000
0000
2002
,
0000
0000
0000
0000
0000
0000
0000
0000
0000
0000
0000
0000
0000
0000
0000
3003
;

//---------------dance-single - ----------------
#NOTES:
     dance-single:
     :
     Medium:
     5:
     0.190,0.212,0.042,0.147,0.010:
1000
0000
0000
0000
,
0001
0000
0000
0000
,
1000
0100
0000
0100
,
0000
0000
0100
0000
0000
0000
0100
1000
,
0001
0000
0100
0000
0010
0100
0000
0000
,
0001
0000
1000
0000
0100
1000
0000
0000
,
0010
0000
0100
0000
0001
1000
0000
0000
,
0100
0000
1000
0000
0100
0010
0001
0000
,
0100
0000
0010
0000
0100
0001
0000
0000
,
1000
0001
0010
0100
,
0010
0000
0001
0000
1000
0000
0100
1000
,
0100
0000
1000
0000
0010
0100
0010
0100
,
0001
0000
2001
0000
0000
0000
0000
0001
,
3002
0000
0203
0320
,
0230
0000
0000
0000
0000
0001
0301
1000
,
0002
0000
2003
0000
,
3100
0000
1000
0100
0010
0000
0100
1000
,
0100
0000
1000
0000
0010
0100
0010
0100
,
0001
2000
3200
0320
,
0032
0203
0010
0310
,
0110
0000
0100
0000
0001
1000
0100
0010
,
0001
0000
1000
0000
0100
1000
0010
0100
,
0010
0000
1000
0000
0100
1000
0010
0100
,
0010
0000
1000
0000
0001
0010
0100
1000
,
0001
0000
0000
0000
0010
0000
0000
0000
0001
0000
0000
0000
0100
0000
0000
0010
,
0000
0000
0000
0000
0100
0000
0000
0000
0010
0000
0000
0000
0110
0000
0000
2002
,
0000
0000
0000
0000
0000
0000
0000
0000
0000
0000
0000
0000
0000
0000
0000
3003
;

//---------------dance-single - ----------------
#NOTES:
     dance-single:
     :
     Hard:
     8:
     0.281,0.282,0.230,0.126,0.215: // measure 1
1001
0000
0000
0000
0000
0000
0000
0000
0000
1000
0000
0100
0000
0000
0000
0000
,  // measure 2
1100
0000
0000
0000
0000
0000
0000
0000
0000
0000
0000
0000
0010
0100
0000
0000
,  // measure 3
0002
1000
0000
1000
,  // measure 4
0000
0000
0000
0000
1000
0000
0000
0000
0003
0000
0000
1000
0001
0000
0010
0000
,  // measure 5
0011
0000
0000
0000
0001
0000
2000
0000
0000
0000
3001
0000
0000
0001
0000
0000
,  // measure 6
0001
0000
0100
0010
0100
0010
1000
0100
0000
0000
1000
0000
0000
1000
0000
0000
,  // measure 7
1000
0000
0000
0000
0110
0000
0000
0000
0010
0000
0100
0000
0000
0100
0000
0000
,  // measure 8
0100
0000
0000
0000
1001
0000
0000
0000
0001
0000
0001
0000
1000
0010
0000
0000
,  // measure 9
1000
0000
0000
0000
0100
1000
0100
1000
0000
0001
0000
1000
0000
0000
0000
0000
,  // measure 10
1001
0000
0000
0000
0110
0000
0000
0000
0010
0001
0010
0001
0000
1000
0000
0000
,  // measure 11
1001
0000
0110
0010
0100
0000
0101
0000
,  // measure 12
0010
0000
0100
0000
0110
0000
0000
0010
1000
0000
0001
1000
0001
0000
0010
0000
,  // measure 13
0110
0000
0000
0000
1200
0000
0000
0000
0000
0000
0000
0000
1300
0000
0010
0100
,  // measure 14
0020
0000
0000
0000
0000
0000
1030
0000
0002
0000
0003
0200
0000
0000
0320
0000
,  // measure 15
2030
0000
0001
0000
0000
3001
0010
0100
,  // measure 16
2000
0000
0000
0000
0001
0000
0000
0000
3001
0000
0000
1000
0000
0100
0000
0000
,  // measure 17
1000
0001
0101
0100
0010
0000
1000
0100
,  // measure 18
0010
0000
0000
0010
0000
0000
0000
0000
0000
0000
0001
0000
0000
0100
0000
0000
,  // measure 19
0010
0010
1000
0100
0001
0010
1000
0100
,  // measure 20
0001
0000
0010
0000
2000
0000
0000
0000
3002
0000
0000
0000
1003
0001
1000
0000
,  // measure 21
1001
0000
0011
0000
1000
0100
0001
0100
,  // measure 22
1000
0000
0000
0000
1100
0000
0000
0000
0001
0000
0100
0010
0000
0010
0000
0000
,  // measure 23
0110
0000
0000
0000
0100
0000
0000
0000
0001
0000
0100
0010
0000
0000
0010
0000
,  // measure 24
0110
0000
0000
0000
0100
0000
0000
0000
0001
0000
1000
0010
0000
0010
0000
0000
,  // measure 25
0110
0000
0000
0000
1001
0000
0000
0001
0100
0000
0010
0000
0100
0000
0000
0101
,  // measure 26
0000
0000
0001
1000
0001
0000
0000
1000
0000
1000
0000
1000
0001
0010
0100
2000
,  // measure 27
0000
0000
0000
0000
0000
0000
0000
0000
0000
0000
0000
0000
0000
0000
0000
3001
;

//---------------dance-single - ----------------
#NOTES:
     dance-single:
     :
     Beginner:
     1:
     0.043,0.054,0.052,0.000,0.005:
0001
0000
0000
0000
,
0010
0000
0000
0000
,
0001
0000
0000
0000
,
0000
0000
0000
0000
,
0110
0000
0000
0000
,
0100
0000
0000
0000
,
0010
0000
0000
0000
,
1000
0000
0000
0000
,
1000
0000
0000
0000
,
0001
0000
0000
0000
,
0001
0000
0000
0000
,
1000
0000
0000
0000
,
0000
1001
0000
0000
,
0000
0000
0000
0000
,
0001
0000
0000
0000
,
0010
0000
0000
0000
,
0000
0110
0000
0000
,
0100
0000
0000
0000
,
0010
0000
0000
0000
,
1000
0000
0000
0000
,
1001
0000
0000
0000
,
0001
0000
0000
0000
,
0100
0000
0000
0000
,
0001
0000
0000
0000
,
1001
0000
0000
0000
,
0000
0000
0000
0000
0000
0000
0000
0000
0000
0000
0000
0000
0000
0000
0000
0010
;
