#TITLE:TUMBLING DICE;
#SUBTITLE:;
#ARTIST:今堀恒雄;
#TITLETRANSLIT:;
#SUBTITLETRANSLIT:;
#ARTISTTRANSLIT:TSUNEO IMAHORI;
#CREDIT:DigiMindAxel;
#BANNER:TUMBLING DICE.png;
#BACKGROUND:TUMBLING DICE-bg.png;
#LYRICSPATH:;
#CDTITLE:DigiMindAxel original simfile.png;
#MUSIC:TUMBLING DICE.mp3;
#METERTYPE:DDR X;
#OFFSET:-5.422;
#SAMPLESTART:10.240;
#SAMPLELENGTH:12.000;
#SELECTABLE:YES;
#DISPLAYBPM:196.000;
#BPMS:0.000=196.000,35.000=194.000,36.000=196.000,51.500=200.000,52.000=196.000,146.000=200.000,148.000=196.000,163.000=200.000,164.000=196.000;
#STOPS:;
#BGCHANGES:-18.000=TUMBLING DICE.avi=1.000=1=0=1,
99999=-nosongbg-=1.000=0=0=0 // don't automatically add -songbackground-
;

//---------------dance-single - ----------------
#NOTES:
     dance-single:
     :
     Hard:
     11:
     0.588,0.576,0.254,0.230,0.036:
2002
0000
0000
0000
,
0000
0000
3003
0000
0001
0010
0100
1000
,
0002
0000
0000
0000
,
0000
0000
0003
0000
1000
0100
0010
0001
,
1000
0100
0000
0100
1000
0000
0001
0100
,
0000
0100
0001
0000
1000
0100
1000
0010
,
0100
0001
0000
0001
0100
0000
0001
1000
,
0000
1000
0001
0000
0010
0100
0010
0100
,
1000
0001
0000
0001
0100
0000
0001
1000
,
0000
1000
0100
0000
1000
0100
1000
0001
,
0010
0001
0000
0001
1000
0000
0010
1000
,
0000
1000
0001
0000
0100
0010
0100
0010
,
1000
0100
0000
0100
0010
0000
0001
0100
,
0000
0100
0010
0000
1000
0001
1000
0001
,
1000
0010
0000
0010
0100
0000
0001
0010
,
0000
0010
0100
0000
1000
1001
0000
0000
,
0001
0100
0000
0100
0010
0000
1000
0100
,
0000
0100
0010
0000
0001
1000
0000
0000
,
1002
0000
0000
0000
,
2000
3000
2000
3000
2000
3000
2003
3000
,
0001
1000
0100
1000
0000
0001
0000
0011
,
0000
0110
0110
0110
,
1000
0001
0100
0001
0000
1000
0000
1010
,
0000
0000
0100
0010
1000
0100
0010
0001
,
1000
0001
0010
0001
0000
1000
0000
1100
,
0000
0110
0110
0110
,
0001
1000
0010
1000
0000
0001
0000
0101
,
0000
0110
0110
0110
,
1001
0000
0001
1000
0000
0010
0100
0010
,
2000
0001
0100
3001
,
1000
0010
1000
0001
0000
0010
0100
0010
,
0002
1000
0100
1003
,
0001
0010
0001
1000
0000
0010
0100
0010
,
2000
0001
0100
3001
,
1000
0010
1000
0001
0000
0010
0100
0010
,
0002
1000
0100
1003
,
0001
1000
0000
1000
0010
0000
1000
0001
,
0000
0001
0010
0000
0001
1000
0100
0010
,
0001
1000
0000
1000
0100
0000
1000
0001
,
0000
0001
0100
0000
0001
1000
0010
0100
,
0001
1000
0000
1000
0100
0000
0010
0100
,
0000
0100
1000
0000
0010
0100
0001
0100
,
0010
1000
0100
0010
0001
0010
0100
0010
,
0001
1000
0100
0000
0100
0000
0100
0000
,
1000
0001
0000
0001
0010
0000
0100
0010
,
0000
0010
0001
1000
0001
1001
0000
0000
,
0010
0100
0000
0100
0001
0000
0010
0100
,
0000
0100
1000
0001
0100
0101
0000
0000
,
0001
1000
0000
1000
0100
0000
0010
0001
,
0000
0001
0100
0010
0100
0101
0000
0000
,
0001
0010
0100
1000
0100
0010
0001
1000
,
0010
0100
0001
2000
0000
3002
0000
0000
,
1003
0000
0000
0100
0000
0000
0010
0000
0000
0100
0000
0000
2000
0000
0000
0000
,
0000
0000
0001
3001
,
1000
0000
0000
0010
0000
0000
0100
0000
0000
0001
0000
0000
2000
0000
0000
0000
,
0000
0000
0001
3001
,
1000
0000
0000
0001
0000
0000
0010
0000
0000
0100
0000
0000
0020
0000
0000
0000
,
0000
0000
0001
0031
,
1000
0010
0100
0001
0010
0000
0010
0000
,
0220
0000
0330
0000
;

//---------------dance-single - ----------------
#NOTES:
     dance-single:
     :
     Challenge:
     14:
     0.732,0.648,0.508,0.073,0.303:
1001
0000
0000
0000
0000
0000
0000
0000
0000
0000
0000
0000
0000
0001
0000
0000
0000
0000
0000
0000
0000
0000
0000
0000
0000
0000
0101
0000
0000
0000
0000
0000
0000
0000
0000
0000
0000
0000
0000
0000
0000
0000
0000
0000
0000
0000
0000
0000
1010
0000
0000
0000
0000
0000
0000
0000
0000
0000
0000
0000
0000
1000
0000
0000
,
0000
0000
0000
0000
0000
1001
0000
0000
0000
0000
0000
0000
0000
0000
0000
0000
0001
0000
0000
0000
1000
0000
0000
0000
0100
0000
0000
0000
1000
0000
0000
0000
,
0001
0000
0000
0000
0000
0000
0000
0000
0000
0000
0000
0000
0000
0010
0000
0000
0000
0000
0000
0000
0000
0000
0000
0000
0000
0000
0011
0000
0000
0000
0000
0000
0000
0000
0000
0000
0000
0000
0000
0000
0000
0000
0000
0000
0000
0000
0000
0000
1100
0000
0000
0000
0000
0000
0000
0000
0000
0000
0000
0000
0000
1000
0000
0000
,
0000
0000
0000
0000
0000
1001
0000
0000
0000
0000
0000
0000
0000
0000
0000
0000
1000
0000
0000
0000
0001
0000
0000
0000
0100
0000
0000
0000
0001
0000
0000
0000
,
1000
0100
0000
0100
0010
0000
0100
1000
,
0000
1000
0001
0100
0010
0100
0001
1000
,
0100
0010
0000
0010
0001
0000
1000
0010
,
0000
0010
0100
0001
1000
0100
0010
0100
,
1000
0010
0000
0010
0100
0000
0001
0010
,
0000
0010
0100
1000
0001
0100
0010
0100
,
0001
1000
0000
1000
0100
0000
0010
0001
,
0000
0000
0000
0001
0000
0000
0100
0000
0000
0010
0000
0000
1000
0000
0001
0000
1000
0000
0001
0000
1000
0000
0001
0000
,
1000
0100
0000
0100
0010
0001
0010
0100
,
0000
0100
1000
0001
0100
0010
0100
0001
,
0010
0100
0000
0100
1000
0001
0100
0001
,
0000
0001
1000
0100
1000
1001
0000
0000
,
0001
1000
0000
1000
0010
0100
0001
1000
,
0000
0000
0000
1000
0000
0000
0001
0000
0100
0000
0001
0000
0100
0000
0001
0000
0100
0000
0001
0000
0100
0000
0001
0000
,
1000
0100
0010
0100
1000
0000
0001
2000
,
0000
0000
0000
3001
0000
1000
0001
0000
,
0000
1001
0000
1001
0000
1001
0000
0101
,
0000
0000
0000
0001
0000
0000
1000
0000
0100
0000
1000
0000
0100
0000
1000
0000
0100
0000
1000
0000
0000
0000
0000
0000
,
0000
1001
0000
1001
0000
1001
0000
1010
,
0000
1000
0001
0001
1000
0100
0010
0001
,
0000
1001
0000
1001
0000
1001
0000
1010
,
0000
0000
0000
1000
0000
0000
0001
0000
0010
0000
0001
0000
0010
0000
0001
0000
0010
0000
0001
0000
0000
1000
0000
0000
,
0000
0001
1000
1000
0000
1001
0000
1001
,
0000
0000
0000
0101
0000
0000
0000
0000
0000
0001
0000
0000
1000
0000
0100
0000
1000
0000
0100
0000
1000
0000
0100
0000
,
1000
0001
0000
1001
0000
1001
0000
1100
,
0000
1000
0001
0200
0000
0001
0000
0301
,
0000
1001
0000
1001
0000
1100
0000
1100
,
0000
1000
0010
0200
0000
0001
0000
0301
,
0000
1001
0000
1001
0000
0011
0000
0011
,
0000
0001
0100
0020
0000
0100
0000
0130
,
0000
1001
0000
1001
0000
0110
0000
0110
,
0000
0000
0000
0010
0000
0000
0100
0000
0000
0001
0000
0000
1000
0000
0100
0000
1000
0000
0100
0000
1000
0000
0100
0000
,
1000
0001
0000
0001
1000
0100
0010
0001
,
0000
0001
1000
0010
0100
0001
1000
0100
,
1000
0001
0000
0001
1000
0010
0100
0001
,
0000
0001
1000
0100
0010
0001
0010
0100
,
1000
0001
0000
0001
1000
0100
0010
0001
,
0000
0001
1000
0100
0001
0100
1000
0001
,
1000
0100
0100
1000
0001
0001
0100
0010
,
0010
1000
0100
0001
0100
1000
0001
0010
,
0100
1000
0000
1000
0001
0100
0010
0100
,
0000
0100
0001
1000
0100
1100
0000
1000
,
0001
0100
0000
0100
0001
0010
0100
0010
,
0000
0010
0001
1000
0010
1010
0000
1000
,
0001
0010
0000
0010
0100
1000
0010
0100
,
0000
0100
0001
1000
0100
1100
0000
0000
,
1000
0100
0001
0100
1000
0010
0001
0010
,
1000
0100
0010
0001
0010
0100
1000
0001
,
0010
0000
0000
1000
0000
0000
0010
0000
0000
0001
0000
0000
1000
0000
0000
0010
,
0000
0000
0100
0000
0000
0010
0000
0000
1000
0000
0100
0000
0010
0000
0001
0000
,
1000
0000
0000
0100
0000
0000
0001
0000
0000
0100
0000
0000
1000
0000
0000
0010
,
0000
0000
0000
0000
0000
0000
0100
0000
0000
0000
0000
0000
0000
0000
0000
0001
0000
0000
0000
0000
0000
0000
0000
0000
1000
0000
0000
0000
0001
0000
0000
0000
1000
0000
0000
0000
0001
0000
0000
0000
1000
0000
0000
0000
0001
0000
0000
0000
,
1000
0000
0000
0010
0000
0000
0001
0000
0000
0010
0000
0000
1000
0000
0000
0100
,
0000
0000
0010
0000
0000
0001
0000
0000
1000
0000
0100
0000
0010
0000
0001
0000
,
1000
0100
0001
0100
1000
0001
0100
0000
,
0220
0000
0330
0000
;

//---------------dance-single - ----------------
#NOTES:
     dance-single:
     :
     Medium:
     7:
     0.375,0.504,0.097,0.169,0.000:
2002
0000
0000
0000
,
0000
3003
0000
0000
,
0220
0000
0000
0000
,
0000
0330
0000
0000
,
0010
0000
0000
0100
0000
0000
0001
0000
,
0000
1000
0000
0000
0001
1000
0001
1000
,
0010
0000
0000
0100
0000
0000
0010
0000
,
0000
0100
0000
0000
0001
0010
0001
0010
,
0001
0000
0000
0100
0000
0000
0001
0000
,
0000
0100
0000
0000
0001
1000
0001
1000
,
0001
0000
0000
0010
0000
0000
0100
0000
,
0000
1000
0000
0000
0001
0100
0001
0100
,
0010
0000
0000
1000
0000
0000
0100
0000
,
0000
0010
0000
0000
0001
0100
0001
0100
,
0001
0000
0000
0100
0000
0000
0010
0000
,
0000
0100
0000
0000
0001
0001
0000
0000
,
0010
0000
0000
0100
0000
0000
1000
0000
,
0000
0001
0000
0000
1000
1000
0000
0000
,
2002
0000
0000
0000
,
0000
0000
0000
3003
,
1000
0001
0100
0001
,
1000
0100
0010
0100
,
1000
0001
1000
0001
,
0010
0001
1000
0010
,
0100
0010
0100
0001
,
1000
0100
1000
0100
,
1000
0001
0100
0001
,
1000
0100
0010
0001
,
1000
0100
1000
0100
,
1000
0001
1000
0001
,
0100
0001
0100
0001
,
0100
0010
1000
0100
,
1000
0001
1000
0001
,
0010
0100
1000
0001
,
1000
0100
1000
0100
,
1000
0000
0001
0000
0100
0010
0100
0010
,
0100
0000
0000
0100
0000
0000
0010
0000
,
0000
1000
0000
0000
0001
1000
0010
0100
,
0010
0000
0000
0010
0000
0000
1000
0000
,
0000
0010
0000
0000
1000
0001
0010
0001
,
0010
0000
0000
0010
0000
0000
0001
0000
,
0000
1000
0000
0000
1000
0001
1000
0001
,
0010
0000
0010
0000
0100
0000
1000
0001
,
0000
1000
0001
0100
0010
0000
0010
0000
,
1001
0000
0000
1000
0000
0000
0001
0000
,
0000
0100
0000
0000
0010
0100
0000
0000
,
0001
0000
0000
1000
0000
0000
0100
0000
,
0000
0010
0000
0000
0001
1000
0000
0000
,
0001
0000
0000
0100
0000
0000
0010
0000
,
0000
1000
0000
0000
0001
1000
0000
0000
,
0001
0010
0100
0000
1000
0001
1000
0000
,
0010
0100
0001
0000
1000
0001
1000
0000
,
2002
0000
0000
0000
,
0000
0000
0000
3003
,
0220
0000
0000
0000
,
0000
0000
0000
0330
,
2002
0000
0000
0000
,
0000
0000
0000
3003
,
1000
0100
0010
0000
0001
1000
0010
0000
,
0220
0000
0330
0000
;

//---------------dance-single - ----------------
#NOTES:
     dance-single:
     :
     Easy:
     5:
     0.278,0.288,0.182,0.206,0.000:
2002
0000
0000
0000
,
0000
0000
0000
3003
,
2002
0000
0000
0000
,
0000
0000
0000
3003
,
0001
0000
0010
0000
,
0001
0000
1000
0001
,
1000
0000
0100
0000
,
1000
0000
0010
0100
,
0010
0000
1000
0000
,
0001
0000
0010
0001
,
0010
0000
0100
0000
,
0010
0000
0100
1000
,
0001
0000
0010
0000
,
0001
0000
0100
0010
,
1000
0000
0010
0000
,
1000
0000
1001
0000
,
0001
0000
0100
0000
,
0010
0000
1000
0001
,
2002
0000
0000
0000
,
0000
0000
0000
3003
,
0001
0010
0001
0000
,
0100
0010
0100
0010
,
0100
0001
0100
0000
,
0001
1000
0002
0000
,
1003
0100
1000
0000
,
0010
0100
0010
0100
,
0001
1000
0001
0000
,
0010
0001
0020
0000
,
0031
1000
0001
0000
,
1000
0010
1000
0001
,
1000
0000
0000
0000
,
0100
1000
0100
0000
,
0010
0100
0010
0000
,
0001
1000
0001
1000
,
0100
1000
0100
0000
,
0010
0001
0010
0000
,
1001
0000
0001
0000
,
1000
0100
1000
0000
,
1001
0000
0001
0000
,
0010
0001
0010
0000
,
1001
0000
1000
0000
,
0010
1000
0010
0000
,
0110
0000
0100
0000
,
0100
0000
0000
0000
,
0110
0000
0100
0000
,
0010
0100
0001
0000
,
1001
0000
0001
0000
,
0010
0001
1000
0000
,
1001
0000
1000
0000
,
0100
1000
0010
0000
,
0220
0000
0000
0000
,
0000
0000
0000
0330
,
2002
0000
0000
0000
,
0000
0000
0000
3003
,
0220
0000
0000
0000
,
0000
0000
0000
0330
,
2002
0000
0000
0000
,
0000
0000
0000
3003
,
0001
0010
0100
1000
,
0002
0000
0003
0000
;

//---------------dance-single - ----------------
#NOTES:
     dance-single:
     :
     Beginner:
     2:
     0.100,0.143,0.109,0.000,0.000: // measure 1
0001
0000
0000
0000
,  // measure 2
0000
0000
0000
0000
,  // measure 3
0010
0000
0000
0000
,  // measure 4
0000
0000
0000
0000
,  // measure 5
0001
0000
0000
0000
,  // measure 6
0001
0000
0000
0000
,  // measure 7
1000
0000
0000
0000
,  // measure 8
1000
0000
0000
0000
,  // measure 9
0010
0000
0000
0000
,  // measure 10
0100
0000
0000
0000
,  // measure 11
0010
0000
0000
0000
,  // measure 12
0100
0000
0000
0000
,  // measure 13
1001
0000
0000
0000
,  // measure 14
0000
0000
0000
0000
,  // measure 15
0001
0000
0000
0000
,  // measure 16
0000
0000
1001
0000
,  // measure 17
1000
0000
0000
0000
,  // measure 18
0000
0000
0001
0000
,  // measure 19
1001
0000
0000
0000
,  // measure 20
0000
0000
0000
0000
,  // measure 21
0100
0000
0000
0010
,  // measure 22
0000
0000
0000
0000
,  // measure 23
0100
0000
0000
0010
,  // measure 24
0000
0000
0000
0000
,  // measure 25
1000
0000
0000
0001
,  // measure 26
0000
0000
0000
0000
,  // measure 27
1000
0000
0000
0001
,  // measure 28
0000
0000
0000
0000
,  // measure 29
0010
0000
0000
0000
,  // measure 30
0100
0000
0000
0000
,  // measure 31
0010
0000
0000
0000
,  // measure 32
0100
0000
0000
0000
,  // measure 33
1000
0000
0000
0000
,  // measure 34
0001
0000
0000
0000
,  // measure 35
1000
0000
0000
0000
,  // measure 36
0001
0000
0000
0000
,  // measure 37
1001
0000
0000
0000
,  // measure 38
0000
0000
0000
0000
,  // measure 39
0010
0000
0000
0000
,  // measure 40
0000
0000
0000
0000
,  // measure 41
0110
0000
0000
0000
,  // measure 42
0000
0000
0000
0000
,  // measure 43
0100
0000
0000
0000
,  // measure 44
0000
0000
0000
0000
,  // measure 45
1001
0000
0000
0000
,  // measure 46
0001
0000
0000
0000
,  // measure 47
1000
0000
0000
0000
,  // measure 48
0001
0000
0000
0000
,  // measure 49
0010
0000
0000
0000
,  // measure 50
0100
0000
0000
0000
,  // measure 51
1000
0000
0000
0000
,  // measure 52
0000
0000
0000
0000
,  // measure 53
1001
0000
0000
0000
,  // measure 54
0000
0000
0000
0000
,  // measure 55
0110
0000
0000
0000
,  // measure 56
0000
0000
0000
0000
,  // measure 57
1001
0000
0000
0000
,  // measure 58
0000
0000
0000
0000
,  // measure 59
0100
0000
0010
0000
,  // measure 60
0100
0000
0000
0000
;
