#TITLE:떳다! 그녀!;
#SUBTITLE:;
#ARTIST:Witches;
#TITLETRANSLIT:TTEOTTA! GEUNYEO!;
#SUBTITLETRANSLIT:;
#ARTISTTRANSLIT:;
#CREDIT:DigiMindAxel;
#BANNER:TTEOTTA! GEUNYEO!.png;
#BACKGROUND:TTEOTTA! GEUNYEO!-bg.png;
#LYRICSPATH:TTEOTTA! GEUNYEO!.lrc;
#CDTITLE:DigiMindAxel original simfile.png;
#MUSIC:TTEOTTA! GEUNYEO!.mp3;
#METERTYPE:DDR X;
#OFFSET:-6.160;
#SAMPLESTART:68.245;
#SAMPLELENGTH:12.000;
#SELECTABLE:YES;
#BPMS:0.000=166.000;
#STOPS:;
#BGCHANGES:-18.000=TTEOTTA! GEUNYEO!.avi=1.000=1=1=0,
99999=-nosongbg-=1.000=0=0=0 // don't automatically add -songbackground-
;

//---------------dance-single - ----------------
#NOTES:
     dance-single:
     :
     Easy:
     4:
     0.217,0.254,0.210,0.029,0.000: // measure 1
1001
0000
0000
0000
,  // measure 2
0100
0000
0100
0000
,  // measure 3
0110
0000
0000
0000
,  // measure 4
0002
0000
0000
0000
,  // measure 5
1003
0000
0001
0000
,  // measure 6
1000
0100
1000
0000
,  // measure 7
0001
0000
1000
0000
,  // measure 8
0001
0010
0001
0000
,  // measure 9
0100
0000
0010
0000
,  // measure 10
1000
0001
1000
0001
,  // measure 11
0200
0000
0300
0000
,  // measure 12
0001
0001
1001
0000
,  // measure 13
0110
0000
0010
0000
,  // measure 14
0010
0000
0010
0000
,  // measure 15
0100
0000
0100
0000
,  // measure 16
0100
0000
0100
0000
,  // measure 17
0001
0000
0001
0000
,  // measure 18
0001
0000
0001
0000
,  // measure 19
0010
0000
0010
0000
,  // measure 20
0010
0000
0010
0000
,  // measure 21
1001
0000
1000
0000
,  // measure 22
1000
0000
1000
0000
,  // measure 23
0010
0000
0010
0000
,  // measure 24
0010
0000
0010
0000
,  // measure 25
0100
0000
0100
0000
,  // measure 26
0100
0000
0100
0000
,  // measure 27
0001
0000
0001
0000
,  // measure 28
0001
0000
0001
0000
,  // measure 29
1001
0000
0000
0000
,  // measure 30
0000
0000
0000
0000
,  // measure 31
0110
0000
0000
0000
,  // measure 32
0000
0000
0000
0000
,  // measure 33
0010
0100
0010
0000
,  // measure 34
0000
0000
0000
0000
,  // measure 35
1000
0001
1000
0000
,  // measure 36
0000
0000
0000
0000
,  // measure 37
1001
0000
0000
0000
,  // measure 38
0000
0000
0000
0000
,  // measure 39
0110
0000
0000
0000
,  // measure 40
0000
0000
0000
0000
,  // measure 41
0001
1000
0001
0000
,  // measure 42
0000
0000
1000
0001
,  // measure 43
1000
0000
0000
0000
,  // measure 44
1001
0000
0001
0000
,  // measure 45
0100
0001
0100
0000
,  // measure 46
0001
0000
0010
0000
,  // measure 47
0100
1000
0100
0000
,  // measure 48
1001
0000
0001
0000
,  // measure 49
1000
0100
1000
0000
,  // measure 50
0010
0100
0010
0000
,  // measure 51
0100
0001
0100
0000
,  // measure 52
1001
0000
0010
0000
,  // measure 53
0110
0000
0100
0000
,  // measure 54
0001
1000
0001
0000
,  // measure 55
0010
0001
0010
0000
,  // measure 56
1001
0000
1001
0000
,  // measure 57
1000
0100
1000
0000
,  // measure 58
0010
0100
0010
0100
,  // measure 59
0001
0000
0000
0000
,  // measure 60
1001
0000
1001
0000
,  // measure 61
1000
0001
1000
0000
,  // measure 62
1001
0000
1001
0000
,  // measure 63
0001
0100
0001
0000
,  // measure 64
1001
0000
1001
0000
,  // measure 65
1000
0100
1000
0100
,  // measure 66
2000
0000
0000
3000
,  // measure 67
0010
0010
0110
0000
;

//---------------dance-single - ----------------
#NOTES:
     dance-single:
     :
     Medium:
     8:
     0.394,0.413,0.468,0.105,0.000:
1001
0000
0000
0000
,
1001
0000
0001
0000
,
1001
0000
0000
0000
,
0010
0010
0010
0010
,
0110
0110
0110
0001
,
0010
0100
1000
0000
,
1001
1001
1001
1000
,
0100
0010
0001
0000
,
0110
0110
0110
1000
,
0010
0100
0001
1000
,
0002
0000
0000
0000
0003
1000
0001
0000
,
1001
1001
1001
0000
,
0110
0100
0010
0100
,
0010
0100
0010
0100
,
0001
0100
0001
0100
,
0001
0100
0001
0100
,
0001
1000
0001
1000
,
0001
1000
0001
1000
,
0100
1000
0100
1000
,
0100
1000
0100
1000
,
1001
0001
0100
0001
,
0100
0001
0100
0000
,
0100
0010
0100
0010
,
0100
0010
0100
0010
,
0100
0001
0010
0001
,
0010
0001
0010
0001
,
1000
0001
1000
0001
,
1000
0001
1000
0000
,
2002
0000
0000
0000
,
3003
0000
0000
0000
,
0220
0000
0000
0000
,
0330
0000
0000
0000
,
0010
0000
1000
0010
1000
0000
0001
1000
,
0001
1000
0001
1000
,
0001
0000
0100
0010
0100
0000
0001
1000
,
0001
0000
1000
0100
1000
0000
0001
0000
,
2002
0000
0000
0000
,
3003
0000
0000
0000
,
0220
0000
0000
0000
,
0330
0000
0000
0000
,
1000
0000
0001
0010
0001
0000
1000
0001
,
1000
0000
0001
0100
0001
0000
0010
0000
,
0200
0000
0000
0300
,
1001
1000
1100
0000
,
0001
0010
0001
0000
0011
0000
0000
0000
,
0001
0000
1000
0010
1000
0000
0001
0100
,
0001
0100
0110
0000
,
1001
0001
0101
0000
,
1000
0010
1000
0000
1010
0000
0000
0000
,
1000
0000
0001
0010
0001
0000
1000
0100
,
1000
0100
0110
0000
,
0101
0100
0110
0000
,
1010
0010
0110
0000
,
0010
0001
0010
0000
0100
1000
0100
0000
,
1000
0001
1000
0000
0100
0000
0010
0000
,
1001
1000
1100
0000
,
0010
0100
0010
0000
0101
0000
0000
0000
,
0010
0000
1000
0100
1000
0000
0001
0010
,
0001
0000
0000
1001
0000
0000
0000
0000
,
1001
1001
1001
0001
,
1000
0000
0010
0100
0010
0000
0000
0000
,
0110
0110
0110
1000
,
0001
0000
0010
0100
0010
0000
0000
0000
,
1001
1001
1001
0000
,
0001
0000
0100
0000
0010
1000
0010
0000
,
2000
0000
0000
0000
3000
0010
0100
0000
,
0110
1001
0110
0000
;

//---------------dance-single - ----------------
#NOTES:
     dance-single:
     :
     Hard:
     10:
     0.513,0.540,0.449,0.315,0.000:
0202
0000
0000
0303
,
1010
0000
1001
0000
,
0110
0000
0000
0000
,
0000
0010
0100
0010
0100
0010
0100
0000
,
1001
0000
1100
0000
1001
0000
0001
0010
,
0100
0001
0100
0010
0001
0000
0000
0000
,
1001
0000
0011
0000
1001
0000
1000
0100
,
0010
1000
0010
0100
1000
0000
0000
0000
,
0110
0000
1001
0000
0110
0000
0010
0100
,
0001
0100
1000
0100
0001
0010
0100
1000
,
0002
0000
0000
0003
0000
1000
0001
0010
,
0011
1001
0011
0000
,
1001
0001
0010
1000
,
0010
0001
1000
0001
,
1000
0100
0001
0100
,
1000
0001
1000
0001
,
1000
0010
0001
0010
,
1000
0001
0100
0001
,
1000
0100
0001
0100
,
1000
0010
0100
0001
,
1001
1000
0010
0001
,
0010
1000
0001
1000
,
0001
0100
1000
0100
,
0001
1000
0001
1000
,
0001
0010
1000
0010
,
0001
1000
0100
1000
,
0001
0100
1000
0100
,
0001
0000
1000
0000
0010
0100
0001
1000
,
2002
0000
0000
0000
0000
0000
0000
3003
,
0000
1000
0000
1000
0010
0000
0010
0000
,
0220
0000
0000
0000
0000
0000
0000
0330
,
0000
0010
0000
0010
0001
0000
0001
0000
,
1000
0010
0100
0000
0100
0010
0100
0000
,
0100
0001
0010
0000
0010
0100
0010
0000
,
0010
0001
1000
0000
1000
0010
0100
0000
,
0100
0001
1000
0000
1000
0001
0010
0100
,
2002
0000
0000
0000
0000
0000
0000
3003
,
0000
0001
0000
0001
0010
0000
0010
0000
,
0220
0000
0000
0000
0000
0000
0000
0330
,
0000
0010
0000
0010
1000
0000
1000
0000
,
0001
0100
0010
0000
0010
0100
0010
0000
,
0010
1000
0001
0000
0001
0010
0100
1000
,
0020
0000
0000
0030
,
0220
0330
2002
3003
,
1000
0100
0001
0100
2200
0000
3300
0000
,
1000
0010
0100
1000
0100
0001
1000
0001
,
0010
0100
1000
0010
0100
0000
0010
0000
,
0220
0330
2002
3003
,
0001
0010
1000
0010
0022
0000
0033
0000
,
0001
0010
0100
0001
0100
1000
0001
1000
,
0001
0100
0010
1000
0010
0000
0100
0000
,
0110
0000
0100
0001
0010
0000
0000
0000
,
0110
0000
0010
1000
0100
0000
0000
0000
,
1000
0100
0010
1000
0010
0001
1000
0001
,
1000
0010
0100
0001
0010
0000
0100
0000
,
0220
0330
2002
3003
,
0001
1000
0010
0100
0110
0000
0000
0000
,
0001
0100
0010
0001
0010
1000
0001
0100
,
0220
0000
0330
2002
0000
0000
3003
0000
,
1001
0000
1010
0000
1001
0000
1000
0010
,
0001
0010
1000
0100
0010
0000
0000
0000
,
0110
0000
0101
0000
0110
0000
0100
0001
,
0010
1000
0010
0001
0100
0000
0000
0000
,
1001
0000
0011
0000
1001
0000
1000
0100
,
0001
0100
1000
0010
0100
0001
0100
0010
,
2000
0000
0000
3000
0000
0001
1000
0100
,
1100
1001
1100
0000
;

//---------------dance-single - ----------------
#NOTES:
     dance-single:
     :
     Challenge:
     12:
     0.664,0.667,0.382,0.411,0.129:
1001
0001
0010
0100
,
2200
3300
0022
0033
,
0220
0000
0000
0330
0000
0010
0100
0001
,
0020
0100
0100
0130
,
1100
0000
0011
0000
1100
0000
1000
0001
,
0010
1000
0010
0001
1000
0100
1000
0000
,
1010
0000
0101
0000
1010
0000
1000
0001
,
0100
1000
0100
0001
1000
0010
1000
0000
,
1001
0000
0110
0000
1001
0000
0001
0010
,
0100
0001
0100
1000
0001
0100
0010
1000
,
0002
0000
1000
0000
1003
0010
0100
0001
,
0101
0000
0000
0000
0110
0000
0000
0000
1010
0000
1000
0001
1000
0000
0001
0000
,
0101
0000
0010
0000
0100
1000
0100
0000
,
0010
0100
1000
0000
0010
0100
0001
0010
,
0100
1000
0010
0000
0100
0010
0100
0000
,
0001
0010
0100
0000
0010
0001
0100
0010
,
1000
0100
0010
0000
0100
1000
0100
0000
,
0010
0001
0100
0000
0010
0100
0001
0010
,
0100
0010
0001
0000
1000
0010
1000
0000
,
0010
1000
0001
0000
0010
0001
0100
0010
,
1010
0000
1000
0000
0100
1000
0100
0000
,
0010
0100
1000
0000
0001
0100
0010
0100
,
0001
1000
0100
0000
0010
0100
0010
0000
,
0001
1000
0010
0000
0100
0001
1000
0010
,
0100
0010
1000
0000
0100
0010
0100
0000
,
1000
0100
0010
0000
0100
1000
0001
0010
,
0001
0100
0010
0000
1000
0001
1000
0000
,
0100
0000
1000
0000
0001
0000
0000
0000
1000
0000
0001
0000
1000
0100
1000
0100
,
2000
0000
0000
0000
,
3000
0002
0000
1000
1003
0000
0010
0100
,
0002
0000
0000
0000
,
0003
2000
0000
0001
3001
0000
1000
0001
,
0100
0000
0000
0100
0010
0000
0000
0100
0001
0000
0000
0100
0010
0000
0000
1000
,
0100
0000
0000
1000
0001
0000
0000
1000
0100
0000
0000
1000
0001
0000
0000
0010
,
0100
0000
0000
0010
0001
0000
0000
0010
0100
0000
0000
1000
0010
0000
0000
0100
,
0010
0000
0000
0100
0001
0000
0000
1000
0100
0000
0000
1000
0001
0000
0000
0000
,
0012
0000
0000
0000
,
0003
2000
0000
0010
3010
0000
1000
0100
,
2100
0000
0000
0000
,
3000
0002
0000
0010
0013
0000
0001
1000
,
0100
0000
0000
0100
1000
0000
0000
0010
0100
0000
0000
1000
0100
0000
0000
0010
,
0001
0000
0000
0100
0010
0000
0000
0100
0001
0000
0000
0100
0010
0000
0000
0000
,
0110
0010
0100
0100
0001
0001
1000
0100
,
1200
0000
1300
0000
0021
0000
0032
1000
,
1003
0010
0100
0001
1000
0000
0002
1000
,
1003
0001
0010
1000
0010
0001
0100
1000
,
0100
0001
0010
0100
0010
0001
0100
0010
,
1020
0000
1030
0000
0201
0000
0302
1000
,
1003
0100
0001
0100
1000
0000
0002
1000
,
1003
0010
0001
0010
1000
0100
0001
0100
,
1000
0000
0001
0000
0010
0000
0100
0000
1000
0000
0100
0000
0010
0000
0001
1000
,
0002
0000
1003
0100
0001
0000
0100
1000
,
0001
0010
1000
0010
0001
0000
0100
0001
,
1000
0100
0010
1000
0010
0001
1000
0010
,
0100
1000
0100
0001
1000
0100
0010
0001
,
0012
0000
0013
0000
2100
0000
3100
2000
,
0001
3001
1000
0100
0001
0100
2000
0001
,
3001
1000
0010
0100
1000
0100
0001
1000
,
2020
0000
0000
0000
3030
0000
0202
0000
0000
0000
0303
0000
0001
0000
1000
0001
,
1000
0000
1100
0000
0011
0000
0002
0100
,
0203
0010
0310
1000
0100
0010
0100
0000
,
1010
0000
0110
0000
0101
0000
0002
1000
,
2003
0100
3100
1000
0010
0100
0010
0000
,
0011
0000
0110
0000
1100
0000
2000
0001
,
3002
0100
0203
0001
0302
1000
2003
0100
,
3200
0000
1000
0000
1300
0001
0100
0010
,
0110
1001
0110
0000
;

//---------------dance-single - ----------------
#NOTES:
     dance-single:
     :
     Beginner:
     3:
     0.116,0.190,0.162,0.000,0.000: // measure 1
1001
0000
0000
0000
,  // measure 2
1000
0000
1000
0000
,  // measure 3
1001
0000
0000
0000
,  // measure 4
0000
0000
0000
0000
,  // measure 5
1001
0000
0001
0000
,  // measure 6
0001
0000
0000
0000
,  // measure 7
1000
0000
1000
0000
,  // measure 8
1000
0000
0000
0000
,  // measure 9
0001
0000
0001
0000
,  // measure 10
0001
0000
1000
0000
,  // measure 11
0010
0000
0000
0000
,  // measure 12
0110
0000
0000
0000
,  // measure 13
0100
0000
0000
0000
,  // measure 14
0010
0000
0000
0000
,  // measure 15
1000
0000
0000
0000
,  // measure 16
0100
0000
0000
0000
,  // measure 17
1000
0000
0000
0000
,  // measure 18
0001
0000
0000
0000
,  // measure 19
0100
0000
0000
0000
,  // measure 20
0001
0000
0000
0000
,  // measure 21
1001
0000
0000
0000
,  // measure 22
1000
0000
0000
0000
,  // measure 23
0001
0000
0000
0000
,  // measure 24
0010
0000
0000
0000
,  // measure 25
0001
0000
0000
0000
,  // measure 26
0100
0000
0000
0000
,  // measure 27
0001
0000
0000
0000
,  // measure 28
0010
0000
0000
0000
,  // measure 29
1001
0000
0000
0000
,  // measure 30
0000
0000
0000
0000
,  // measure 31
1001
0000
0000
0000
,  // measure 32
0000
0000
0000
0000
,  // measure 33
0001
0000
0000
0000
,  // measure 34
1000
0000
0000
0000
,  // measure 35
0100
0000
0000
0000
,  // measure 36
0010
0000
0000
0000
,  // measure 37
1001
0000
0000
0000
,  // measure 38
0000
0000
0000
0000
,  // measure 39
1001
0000
0000
0000
,  // measure 40
0000
0000
0000
0000
,  // measure 41
1000
0000
0000
0000
,  // measure 42
0001
0000
0000
0000
,  // measure 43
0010
0000
0000
0000
,  // measure 44
1001
0000
0000
0000
,  // measure 45
0001
0000
0000
0000
,  // measure 46
1001
0000
0000
0000
,  // measure 47
1000
0000
0000
0000
,  // measure 48
1001
0000
0000
0000
,  // measure 49
0001
0000
0000
0000
,  // measure 50
0010
0000
0000
0000
,  // measure 51
0100
0000
0000
0000
,  // measure 52
0010
0000
0000
0000
,  // measure 53
0010
0000
0000
0000
,  // measure 54
0100
0000
0000
0000
,  // measure 55
0100
0000
0000
0000
,  // measure 56
1001
0000
0000
0000
,  // measure 57
0001
0000
0000
0000
,  // measure 58
1001
0000
0000
0000
,  // measure 59
1001
0000
0000
0000
,  // measure 60
1000
0000
0000
0000
,  // measure 61
0010
0000
0000
0000
,  // measure 62
0100
0000
0000
0000
,  // measure 63
0001
0000
0000
0000
,  // measure 64
0100
0000
0000
0000
,  // measure 65
0010
0000
0000
0000
,  // measure 66
1000
0000
0000
0000
,  // measure 67
1001
0000
1001
0000
;
