#TITLE:THE SAFARI;
#SUBTITLE:-Ryu☆remix-;
#ARTIST:Remixed by Ryu☆;
#TITLETRANSLIT:;
#SUBTITLETRANSLIT:-Ryu*remix-;
#ARTISTTRANSLIT:Remixed by Ryu*;
#CREDIT:DigiMindAxel;
#BANNER:THE SAFARI -Ryu remix-.png;
#BACKGROUND:THE SAFARI -Ryu remix--bg.png;
#LYRICSPATH:;
#CDTITLE:Konami original REMIX.png;
#MUSIC:THE SAFARI -Ryu remix-.mp3;
#METERTYPE:DDR X;
#OFFSET:-9.077;
#SAMPLESTART:52.090;
#SAMPLELENGTH:12.000;
#SELECTABLE:YES;
#BPMS:0.000=154.900;
#STOPS:;
#BGCHANGES:;

//---------------dance-single - ----------------
#NOTES:
     dance-single:
     :
     Easy:
     7:
     0.284,0.302,0.166,0.000,0.000:
1000
0001
1000
0000
,
0010
0100
0010
1000
,
0100
1000
0100
1000
,
0001
0010
0001
0100
,
0010
0100
0010
0110
,
0100
0010
0100
0000
,
0010
0100
0010
0110
,
0001
1000
0001
1000
,
0100
0100
0000
1001
,
0000
0000
0000
1001
,
1000
0001
0000
0010
,
0001
0010
0000
0100
,
0010
0100
0000
0010
,
0001
0010
0000
0100
,
1000
0100
1000
0010
,
0100
0010
0100
0001
,
1000
0001
1000
0001
,
0000
0100
0110
0000
,
0010
0100
0010
0100
,
0001
0100
0001
1000
,
0100
1000
0100
0010
,
0001
0010
0001
1000
,
0000
0000
1001
0001
,
0000
0000
1001
1000
,
0000
0110
0010
0100
,
0000
0000
0000
0110
,
0000
0000
0000
0000
,
0000
0000
0000
0010
,
0100
0010
0100
0001
,
0001
0001
0000
0100
,
0010
0100
0010
1000
,
1000
1000
0000
0001
,
0100
0001
0100
0001
,
1000
0001
1000
0001
,
0100
0001
0100
0010
,
0000
0000
0000
1000
,
0010
1000
0010
1000
,
0100
1000
0100
1000
,
0001
1000
0001
0010
,
0001
0010
0000
0001
,
1000
0001
1000
0001
,
0100
0001
0100
0010
,
0010
0010
0010
0110
,
0000
0000
0000
0110
,
0100
0100
0010
0010
,
0100
0100
0010
0000
,
1000
1000
0001
0001
,
1000
0010
0000
0110
,
0100
0100
0001
0001
,
0100
0100
0001
1000
,
0100
0100
1000
1000
,
0000
0110
0110
0010
,
0010
0100
0100
0010
,
0010
0100
0100
0001
,
0001
1000
1000
0001
,
0001
0010
0100
1000
,
0001
1000
0001
1001
,
1000
0001
1000
1001
,
0010
0100
0010
0110
,
0000
0000
0000
0110
;

//---------------dance-single - ----------------
#NOTES:
     dance-single:
     :
     Medium:
     9:
     0.442,0.419,0.433,0.147,0.000:
1001
0000
1000
0000
0100
1000
0100
0000
,
1001
0000
1000
0000
0100
1000
0100
0000
,
1001
0000
1000
0000
0100
1000
0100
0000
,
0010
0000
0001
0000
0100
0010
0100
0000
,
0110
0000
0010
0000
1000
0001
1000
0000
,
0010
0100
0010
0110
,
0100
0001
1000
1100
,
0010
0011
0010
0010
,
0110
0110
0100
2002
,
0000
0000
3003
2100
,
3001
0000
1000
0001
0100
0001
2000
0000
,
3001
0000
1000
0001
0010
0001
2000
0000
,
3001
0000
1000
0001
0100
0001
2000
0000
,
3001
0000
1000
1000
1000
0000
1002
0000
,
0103
0000
0001
0010
0100
0010
0002
0000
,
0013
0000
0001
0100
0010
0100
0002
0000
,
0103
0000
0001
0010
0100
0010
0001
0000
,
0000
0000
0100
0100
0100
0000
0110
0000
,
0010
0110
0010
1001
,
1000
1001
1000
0110
,
0100
0110
0100
1001
,
0001
1001
0001
0011
,
0010
0001
0010
0000
1001
0000
1100
0000
,
0100
1000
0100
0000
1001
0000
0101
0000
,
0100
0110
0110
0110
,
0000
0000
0000
0220
,
0000
0000
0000
0000
,
0000
0000
0330
0110
,
0010
0100
0010
0100
,
0001
0100
0001
0100
,
0010
1000
0010
1000
,
0001
0000
1000
0000
0000
0000
0100
1000
,
0100
0000
1000
0000
0001
0000
1000
0100
,
1000
0000
0010
0000
0100
0000
0001
0100
,
0001
0000
0010
0000
0100
0000
0000
1000
,
0000
1000
0000
1000
0000
1000
0001
0000
,
0100
0000
0101
0000
0100
0001
0010
0000
,
0100
0000
1100
0000
0100
1000
0010
0000
,
0100
0000
0110
0000
0100
0010
0001
0000
,
0010
0000
0110
0000
0010
0100
1000
0000
,
0001
0000
0011
0000
0010
0001
0100
0000
,
0010
0000
1010
0000
0010
1000
0100
0000
,
0010
0110
0100
0220
,
0000
0330
1001
1001
,
0001
0010
0001
0000
0001
0010
0001
0000
,
0001
0010
0001
0000
0100
0000
0010
0000
,
1000
0100
1000
0000
1000
0100
1000
0000
,
0001
0200
0300
1001
,
1000
0010
1000
0000
1000
0010
1000
0000
,
1000
0010
1000
0000
0100
0000
0010
0000
,
0001
0100
0001
0000
0001
0100
0001
0000
,
0000
0000
1000
1000
1000
0000
1001
0000
,
0001
0010
0001
0000
0001
0010
0001
0000
,
1000
0100
1000
0000
1000
0100
1000
0000
,
0001
1000
0001
0000
0001
1000
0001
0000
,
0100
0010
0100
0100
0100
0000
0110
0000
,
0010
0001
0010
0001
0100
0000
0101
0000
,
0010
1000
0010
1000
0100
0000
1100
0000
,
0010
0001
0100
0010
0100
0000
0110
0000
,
0000
0000
0000
0220
,
0000
0000
0000
0330
;

//---------------dance-single - ----------------
#NOTES:
     dance-single:
     :
     Hard:
     12:
     0.589,0.643,0.423,0.175,0.364:
1002
0000
0023
0000
0130
0010
0001
0000
,
1002
0000
0023
0000
0130
0010
0001
0000
,
1002
0000
0023
0000
0130
0010
0001
0000
,
0200
0000
0310
1000
0100
0001
0100
0000
,
2100
0000
3001
1000
0100
0010
0110
0000
,
1000
1000
0010
0010
0100
0001
0101
0000
,
0001
0001
1000
1000
0010
0100
0110
0000
,
0200
0001
0301
0000
2000
0000
3100
0000
,
1001
1001
0100
1001
,
0000
0000
1000
0100
0010
0001
0101
0000
,
0101
0000
0001
0010
1000
0010
0001
0000
,
0101
0000
0001
0010
1000
0010
0001
0000
,
0011
0000
0001
0100
1000
0100
0001
0000
,
0011
0000
0002
1000
1003
0010
0110
0000
,
1010
0000
1000
0100
0001
0100
1000
0000
,
1010
0000
1000
0100
0001
0100
1000
0000
,
1100
0000
1000
0010
0001
0010
1000
0000
,
0000
0000
0000
0000
0001
0000
0001
0000
1001
0000
0000
0000
1001
0000
0000
0001
,
0100
0000
0000
0100
0001
0000
0000
0001
1000
0000
0000
1000
0001
0000
0000
0001
,
0010
0000
0000
0010
0001
0000
0000
0000
1001
0000
0000
0000
1001
0000
0000
1000
,
0010
0000
0000
0010
1000
0000
0000
1000
0001
0000
0000
0001
1000
0000
0000
1000
,
0100
0000
0000
0100
1000
0000
1000
0000
1001
0000
0000
0000
0110
0000
0000
0000
,
0100
0001
0100
0001
0100
0001
0100
0000
1001
0000
0000
0000
1001
0000
0000
0000
,
0010
1000
0010
1000
0010
1000
0010
0000
1001
0000
0000
0000
1001
0000
0000
0000
,
0010
0000
0100
0000
1000
0001
1000
0000
0001
1000
0001
0000
0220
0000
0000
0000
,
0000
0000
0330
0110
,
0000
0000
0000
0000
0000
0000
0000
0000
0000
0000
0000
0000
0001
0000
0000
0001
,
0000
0000
1000
0000
0000
1000
0001
0000
0010
0000
0100
0000
1000
0000
0010
0000
,
0100
0000
0001
0010
0100
0010
0001
0000
,
0010
0100
1000
0000
1000
0000
0001
0100
,
0010
0000
1000
0100
0010
0100
1000
0000
,
0010
0100
0001
0000
0001
0000
1001
0000
,
1000
0000
0000
0001
0000
1000
0010
1000
0000
0001
1000
0000
0000
0000
0001
0000
,
0010
0100
1000
0000
0100
0001
0100
0000
,
1000
0000
0000
0001
0000
1000
0100
1000
0000
0001
1000
0000
0000
0000
1000
0000
,
0000
1000
0000
1000
0000
1000
1001
0000
,
0100
0000
0000
0000
1100
0000
0000
0000
1000
0100
1000
0100
0010
0000
0000
0000
,
0100
0000
0000
0000
0100
0000
0100
0000
0100
0001
0100
0001
0010
0000
0000
0000
,
0100
0000
0000
0000
0110
0000
0000
0000
0100
1000
0100
1000
0010
0000
0000
0000
,
0100
0000
0000
0010
0100
0000
0100
0000
0010
0100
0010
0100
0001
0000
0000
0000
,
1000
0100
0010
0100
1000
0001
0011
0000
,
0100
0000
0010
0000
0001
0000
1000
0000
0010
0000
0100
0000
0010
0100
0010
0000
,
0100
0000
0000
0000
0001
1000
0001
0000
1000
0000
0000
0000
2002
0000
0000
0000
,
0000
0000
3003
0000
1001
0000
1000
0001
,
0100
0000
0000
0100
0000
0000
0001
0000
0100
0000
0000
0100
0000
0000
0001
0000
,
0100
0000
0000
0100
0000
0001
1000
0000
0000
1000
0010
0000
0100
0000
0001
0000
,
1000
0000
0000
1000
0000
0000
0001
0000
1000
0000
0000
1000
0000
0000
0100
0000
,
0010
0001
0200
0000
0300
0000
0001
1000
,
0100
0000
0000
0100
0000
0000
1000
0000
0100
0000
0000
0100
0000
0000
1000
0000
,
0100
0000
0000
0100
0000
1000
0001
0000
0000
0001
0100
0000
0000
0000
0001
0000
,
1000
0000
0000
1000
0000
0000
0001
0000
1000
0000
0000
1000
0000
0000
0000
0000
,
0000
0000
0000
0000
0001
0000
0001
0000
1001
0000
0000
0000
0001
0000
1000
0010
,
1000
0000
0000
1000
0000
0000
0001
0100
0001
0000
0000
0001
0000
0000
1000
0100
,
1000
0000
0000
1000
0000
0000
0001
0010
0001
0000
0000
0001
0000
0000
1000
0001
,
1000
0000
0000
1000
0000
0000
0001
1000
0001
0000
0000
0001
0000
0000
0100
0010
,
0100
0000
0000
0100
0010
0000
0010
0000
0110
0000
0000
0000
0110
0000
0000
0000
,
0100
1000
0100
1000
0100
1000
0100
0000
1001
0000
0000
0000
1001
0000
0000
0000
,
0010
0001
0010
0001
0010
0001
0010
0000
1001
0000
0000
0000
1001
0000
0000
0000
,
0010
0000
0100
0000
0010
0100
0010
0100
0010
0100
0010
0100
0010
0000
0000
0000
,
0000
0200
0310
2002
,
0000
0000
0000
3003
;

//---------------dance-single - ----------------
#NOTES:
     dance-single:
     :
     Challenge:
     14:
     0.725,0.755,0.451,0.202,0.663:
1100
0000
0110
0000
0010
0001
1000
0000
,
1100
0000
0000
0000
0110
0000
0000
0000
0010
0001
0010
0000
0100
0000
0000
0000
,
0101
0000
0000
0000
0110
0000
0000
0000
0010
1000
0010
0000
0100
0000
0000
0000
,
0110
0000
0000
0000
0010
0100
0010
0100
0001
0000
0001
0000
0010
0000
0000
0000
,
0011
0000
0000
0000
0001
1000
0001
0000
0010
0000
0100
0000
0110
0000
0000
0000
,
0100
1000
0100
0000
0010
0100
0010
0000
0001
0000
0100
0000
0110
0000
0000
0000
,
0010
0001
0010
0000
0100
0000
0100
0000
1000
0000
0010
0000
0110
0000
0000
0000
,
0010
1000
1100
0000
0010
0100
0010
0000
,
0110
0110
0001
1001
,
0000
0000
0000
0000
0001
0000
1000
0000
0100
0000
1000
0000
1001
0000
0000
0001
,
0200
0000
0000
0000
0301
0000
1000
0000
0100
0000
0010
0000
0100
0000
0000
1000
,
0020
0000
0000
0000
1030
0000
0001
0000
0100
0000
0010
0000
0100
0000
0000
0001
,
2000
0000
0000
0000
3100
0000
0010
0000
0001
0000
0010
0000
0100
0000
0000
1000
,
0020
0000
0000
0000
0130
0010
0200
0000
0001
0000
0301
0000
1001
0000
0000
0001
,
0020
0000
0000
0000
0031
0000
1000
0000
0010
0000
0100
0000
0010
0000
0000
1000
,
0200
0000
0000
0000
1300
0000
0001
0000
0010
0000
0100
0000
0010
0000
0000
0001
,
2000
0000
3001
0100
0010
0100
0101
0000
,
0000
0000
0000
0000
0110
0000
0110
0000
0110
0000
0000
0000
1000
0000
0001
0010
,
0001
0000
1000
0001
1000
0000
0001
0010
0001
0000
1000
0001
1000
0000
0100
1000
,
0100
0000
0010
0100
0010
0000
0100
1000
0100
0000
0000
0000
1100
0000
1000
0001
,
1000
0000
0001
0100
0001
0000
1000
0001
1000
0000
0001
0100
0001
0000
1000
0010
,
1000
0000
0010
0100
0010
0000
0110
0000
0110
0000
0000
0000
1001
0000
0000
0000
,
0001
0010
0001
0010
0100
1000
0100
1000
0001
0000
0000
0000
1001
0000
0000
0000
,
0001
0100
0001
0100
0010
1000
0010
1000
0001
0000
0000
0000
1001
0000
0001
0000
,
1000
0000
0100
0000
0010
0100
1000
0000
0010
0100
0001
0000
0202
0000
0000
0000
,
0000
0000
0303
0220
,
0000
0000
0000
0000
0000
0000
0000
0000
0330
0000
0000
0000
0100
0010
0000
0100
,
0010
0000
1000
0001
0000
1000
0001
0010
0001
0010
0001
0010
0001
0000
2000
0000
,
0010
0000
0000
3010
0000
1000
0000
0010
0000
0100
0001
0000
0100
0000
0002
0000
,
1000
0000
0000
2003
0000
0000
0000
0000
3001
0000
0000
0000
1000
0000
0002
0000
,
0100
0000
0000
0103
0000
0010
0000
0100
0000
0001
1000
0000
0100
0000
2000
0000
,
0001
0000
0000
3002
0000
0000
0000
0000
1003
0000
0000
0000
1001
0000
0000
0000
,
0001
1000
0000
0100
0000
1000
0001
1000
0000
0100
1000
0000
0001
0000
1000
0000
,
0100
0010
0000
0010
0100
0000
1000
0000
0010
0000
0000
0000
0100
0000
0001
0000
,
1000
0001
0000
0100
0000
0001
1000
0001
0000
0100
0001
0000
0000
0000
0001
0000
,
0000
0001
0000
0001
0000
0001
1001
0000
,
1100
0000
0000
0000
0110
0000
0000
0000
0100
1000
0010
1000
0100
0000
0000
0000
,
0110
0000
0000
0000
0100
0000
0100
0000
0100
0001
0010
0100
1000
0000
0000
0000
,
1001
0000
0000
0000
0101
0000
0000
0000
0100
0001
0010
0001
0100
0000
0000
0000
,
0110
0000
0000
0010
1000
0000
1000
0000
0100
0010
0001
0010
0100
0000
0000
0000
,
1000
0010
0100
0010
1000
0001
0101
0100
,
0001
0000
0010
0000
0100
0000
0010
0000
0001
0000
1000
0000
0100
0010
0100
0010
,
0100
0010
0100
0010
0001
1000
0001
1000
0001
1000
0001
1000
0002
0000
0000
0000
,
0000
0000
0003
0000
1001
0000
1000
0001
,
0100
0001
0000
0001
0000
0000
1000
0000
0100
1000
0000
1000
0000
0000
0001
0000
,
0100
0001
0000
0001
0000
1000
0100
1000
0000
0010
0100
0000
0001
0000
1000
0000
,
0010
1000
0000
1000
0000
0000
0001
0000
0010
0001
0000
0001
0000
0000
1000
0000
,
0010
1000
0000
1000
0001
0000
0001
0000
0001
0000
0000
0000
1000
0000
0001
0000
,
0010
0001
0000
0001
0100
0000
0001
0000
0100
0001
0000
0001
0010
0000
0100
0000
,
1000
0001
0000
0001
0000
1000
0001
1000
0000
0010
0100
0000
0010
0000
1000
0000
,
0010
0100
0000
0100
0001
0000
1000
0000
0001
0100
0000
0100
0020
0000
0000
0000
,
0030
0000
0000
0000
1001
0000
1001
0000
1001
0000
0000
0000
0001
0000
1000
0100
,
1000
0100
1000
0001
0100
0000
0001
0100
0001
0100
0001
1000
0100
0000
1000
0001
,
1000
0001
1000
0001
0010
0000
0100
0010
0100
0000
0000
0000
0110
0000
0010
1000
,
0010
1000
0010
1000
0100
0000
0010
0001
0010
0001
0010
0001
0100
0000
0001
1000
,
0001
1000
0001
0100
0010
0000
0110
0000
0110
0000
0000
0000
1001
0000
0000
0000
,
1000
0100
0010
0100
1000
0100
0010
0100
1000
0000
0000
0000
1001
0000
0000
0000
,
0001
0010
0100
0010
0001
0010
0100
0010
0001
0000
0000
0000
1001
0000
1000
0000
,
0001
0000
1000
0000
0100
0010
0100
0010
0001
0100
0001
0100
0010
0000
0000
0000
,
0000
0000
1000
1000
1000
0000
2002
0000
,
0000
0000
0000
3003
;

//---------------dance-single - ----------------
#NOTES:
     dance-single:
     :
     Beginner:
     2:
     0.105,0.137,0.101,0.000,0.000: // measure 1
1000
0000
0000
0000
,  // measure 2
1000
0000
0000
0000
,  // measure 3
0001
0000
0000
0000
,  // measure 4
0001
0000
0000
0000
,  // measure 5
1000
0000
0000
0000
,  // measure 6
0001
0000
0000
0000
,  // measure 7
1000
0000
0000
0000
,  // measure 8
0100
0000
0000
0000
,  // measure 9
0010
0000
0000
0110
,  // measure 10
0000
0000
0000
0100
,  // measure 11
0000
0000
0000
0010
,  // measure 12
0000
0000
0000
0100
,  // measure 13
0000
0000
0000
0010
,  // measure 14
0000
0000
0000
0001
,  // measure 15
0000
0000
0000
1000
,  // measure 16
0000
0000
0000
0001
,  // measure 17
0000
0000
0000
1000
,  // measure 18
0000
0000
0000
0100
,  // measure 19
0000
0000
0000
1000
,  // measure 20
0000
0000
0000
0100
,  // measure 21
0000
0000
0000
0010
,  // measure 22
0000
0000
0000
0100
,  // measure 23
0000
0000
0000
0010
,  // measure 24
0000
0000
0000
0001
,  // measure 25
0000
0000
0000
0000
,  // measure 26
0000
0000
0000
1001
,  // measure 27
0000
0000
0000
0000
,  // measure 28
0000
0000
0000
1000
,  // measure 29
0000
0000
0000
0100
,  // measure 30
0000
0000
0000
1000
,  // measure 31
0000
0000
0000
0100
,  // measure 32
0000
0000
0000
0010
,  // measure 33
0000
0000
0000
0100
,  // measure 34
0000
0000
0000
0010
,  // measure 35
0000
0000
0000
0100
,  // measure 36
0000
0000
0000
0010
,  // measure 37
0000
0000
0000
0001
,  // measure 38
0000
0000
0000
0010
,  // measure 39
0000
0000
0000
0001
,  // measure 40
0000
0000
0000
1000
,  // measure 41
0000
1000
0000
0001
,  // measure 42
0000
0001
0000
1000
,  // measure 43
0000
0001
0000
1000
,  // measure 44
0000
0000
0000
1001
,  // measure 45
0000
0001
0000
0100
,  // measure 46
0000
0001
0000
1000
,  // measure 47
0000
0010
0000
1000
,  // measure 48
0000
0000
0000
1001
,  // measure 49
0000
1000
0000
0010
,  // measure 50
0000
1000
0000
0001
,  // measure 51
0000
0100
0000
0001
,  // measure 52
0000
0000
0000
1001
,  // measure 53
0000
0000
0000
0001
,  // measure 54
0000
0000
0000
0110
,  // measure 55
0000
0000
0000
1000
,  // measure 56
0000
0000
0000
1001
,  // measure 57
0000
0000
0000
0110
,  // measure 58
0000
0000
0000
1001
,  // measure 59
0000
1000
0000
1001
,  // measure 60
0000
0000
0000
1001
;
