#TITLE:THANK YOU FOR PLAYING;
#SUBTITLE:;
#ARTIST:SUPER STAR 満-MITSURU-;
#TITLETRANSLIT:;
#SUBTITLETRANSLIT:;
#ARTISTTRANSLIT:SUPER STAR -MITSURU-;
#CREDIT:DigiMindAxel;
#BANNER:THANK YOU FOR PLAYING.png;
#BACKGROUND:THANK YOU FOR PLAYING-bg.png;
#LYRICSPATH:THANK YOU FOR PLAYING.lrc;
#CDTITLE:beatmania IIDX.png;
#MUSIC:THANK YOU FOR PLAYING.mp3;
#METERTYPE:DDR X;
#OFFSET:-9.093;
#SAMPLESTART:14.733;
#SAMPLELENGTH:12.000;
#SELECTABLE:YES;
#DISPLAYBPM:45.000:170.000;
#BPMS:0.000=170.010,8.000=42.502,10.000=170.005,234.000=160.000,236.000=145.000,237.000=140.000,238.000=128.000,239.000=117.000,240.000=99.000,241.000=45.000,242.000=145.000;
#STOPS:;
#BGCHANGES:-28.000=THANK YOU FOR PLAYING.avi=1.000=1=1=0,
99999=-nosongbg-=1.000=0=0=0 // don't automatically add -songbackground-
;

//---------------dance-single - ----------------
#NOTES:
     dance-single:
     :
     Easy:
     7:
     0.286,0.339,0.243,0.140,0.000:
0000
0000
0000
0000
,
0000
0000
0000
0000
,
0000
0000
0001
1000
,
0001
1000
0001
1000
,
0110
0000
0110
1000
,
0001
1000
0001
1000
,
0110
0000
0110
1000
,
0001
1000
0001
1000
,
0110
0000
0010
0001
,
0010
0100
1000
0100
,
1000
0100
1001
0010
,
0001
0010
0100
1000
,
0010
0100
1001
0100
,
0010
0001
0010
0100
,
1001
0010
0110
1000
,
0100
1000
0100
0010
,
1001
0100
0110
0001
,
0010
0001
0010
0100
,
0100
0100
1002
0000
,
0000
0000
2003
0000
,
0000
0000
3020
0000
,
0000
0000
0230
0000
,
0000
0000
0302
0000
,
0000
0000
0023
0000
,
0000
0000
0130
1000
,
0100
0010
0001
0010
,
0002
0000
1003
0100
,
1000
0100
0010
0001
,
0010
0010
0001
0010
,
0100
1000
1001
0000
,
0001
1000
1002
0000
,
0000
0000
2003
0000
,
0000
0000
3010
0010
,
0010
0010
0110
0100
,
0100
0100
1001
0001
,
1001
1000
2002
0000
,
0000
3003
0100
0001
,
0100
0001
0100
0001
,
1001
0010
0110
1000
,
0100
0010
0001
1000
,
1001
0100
0110
0001
,
1000
0010
0100
0001
,
1001
0010
0110
0100
,
0010
1000
0001
0001
,
1000
1000
1001
0001
,
1000
0001
0010
0010
,
0010
0010
0001
1000
,
0100
1000
0100
0100
,
0100
0100
1000
0010
,
0100
0001
0100
0010
,
1000
0100
0010
0001
,
1000
0100
0010
0001
,
1000
0010
1020
0000
,
0000
0000
0000
0000
,
0230
0000
0000
0000
,
0000
0000
0000
0000
,
0320
0000
0000
0000
,
0000
0000
0000
0000
,
0230
0000
0000
0000
,
0000
0000
0000
0000
,
0000
0000
0310
0000
;

//---------------dance-single - ----------------
#NOTES:
     dance-single:
     :
     Hard:
     12:
     0.536,0.525,0.346,0.318,0.028:
0001
0000
0000
0001
0000
0000
1000
0000
,
0002
0000
0203
0000
,
0310
0000
1001
0100
,
0110
0000
0010
0001
1000
0100
0010
0000
,
0102
2003
3001
1000
,
1010
0000
0010
1000
0100
0010
0001
0000
,
0021
0230
1300
0010
,
1010
0000
0010
1000
0100
0010
0100
0000
,
2020
0000
3000
0000
0130
0001
0010
0100
,
1000
0100
0001
0100
1000
0002
0000
1003
,
0001
0000
0001
0000
1001
0000
0001
1000
,
0100
0000
1000
0100
0001
0100
1000
0000
,
1200
0000
2300
0000
3001
0000
1000
0001
,
0100
0000
0001
0100
1000
0100
0001
0000
,
0201
0000
0320
0000
1030
0000
0001
1000
,
0010
0000
1000
0010
0001
0010
1000
0000
,
1200
0000
0000
0000
1300
0000
0002
1000
,
0000
1003
0001
0000
1000
0010
0100
0001
,
0100
0010
1000
0000
1001
0000
1000
0001
,
0000
0001
0000
0001
0010
0001
0100
0001
,
0010
0100
1000
0000
0001
0100
0001
1000
,
0000
1000
0000
1000
0001
1000
0100
0010
,
0001
1000
0010
0000
0110
0000
0100
0010
,
0000
0010
0000
0010
1000
0100
1000
0010
,
0100
0010
1000
0100
0020
0000
0000
0032
,
0000
0000
1003
1001
,
1001
0000
0000
0001
0000
0000
0100
0000
0110
0000
0000
0000
0010
0000
1000
0000
,
0100
0001
0100
1000
0010
0000
1000
0100
,
0010
0000
0001
0000
0010
0000
0100
0000
2000
0000
0000
0001
0000
0000
3002
0000
,
0000
0003
1001
1000
,
0001
1000
0100
0010
0001
0000
0001
0000
,
0001
0001
1000
1000
,
0001
0001
1001
1001
,
1001
1001
0101
0101
,
0101
0101
0110
1001
,
0110
0000
0000
0000
1001
0000
0000
0000
0000
0001
0000
0000
1000
0000
0000
0100
,
0000
0010
0000
0000
0001
0010
1000
0010
,
0001
0010
0100
1000
0100
0001
0100
0000
,
2001
0000
3002
0000
1003
0100
0001
0100
,
1000
0100
0010
0001
0010
1000
0010
0000
,
1002
0000
2003
0000
3001
0010
1000
0010
,
0001
0100
0010
1000
0100
0001
0100
0000
,
2001
0000
3002
0000
1003
0100
0001
0100
,
1000
0010
0100
0001
0010
1000
0010
0001
,
1000
0000
0100
0000
0010
0000
0000
0000
0101
0000
0000
0100
0000
0000
0100
0000
,
0000
0000
0001
1000
1000
0100
0100
0010
,
0010
0000
0001
0000
0001
0000
1000
0000
0010
0000
0000
0010
0000
0000
0010
0000
,
0100
0000
0000
0001
1000
0100
0010
0100
,
1000
0001
0100
0000
0001
0010
0100
1000
,
0100
0001
0100
1000
0100
1000
0100
0010
,
0001
0010
1000
0010
0001
0001
0001
1000
,
0100
0100
1000
1000
0001
0010
0100
1000
,
0001
0010
0100
1000
1001
0000
0001
1000
,
0000
1000
0100
0010
0001
0010
0100
0000
,
2001
0000
0000
0000
3001
0000
1000
0001
,
0000
0001
1000
0010
0100
0001
1000
0000
,
1002
0000
0000
0000
1003
0000
0001
1000
,
0000
1000
0001
0010
0100
0010
0001
0000
,
1002
0000
0000
0000
0203
0000
0000
0320
,
0000
2030
3200
0000
,
0320
0000
0002
0000
,
0000
0000
0000
0000
,
0000
0000
0033
0000
;

//---------------dance-single - ----------------
#NOTES:
     dance-single:
     :
     Beginner:
     3:
     0.089,0.141,0.093,0.000,0.000:
0000
0000
0000
0000
,
0000
0000
0000
0000
,
0000
0000
0110
0000
,
0000
0000
0000
0000
,
0000
0000
0100
0000
,
0000
0000
0000
0000
,
0000
0000
0010
0000
,
0000
0000
0000
0000
,
0000
0000
1000
0000
,
0000
0000
0001
0000
,
0000
0000
1001
0000
,
0000
0000
0000
0000
,
0000
0000
1000
0000
,
0000
0000
0000
0000
,
0000
0000
0010
0000
,
0000
0000
0000
0000
,
0000
0000
0100
0000
,
0000
0000
0100
0000
,
0000
0000
1001
0000
,
0000
0000
0001
0000
,
0000
0000
1000
0000
,
0000
0000
0001
0000
,
0000
0000
0010
0000
,
0000
0000
0100
0000
,
0000
0000
1000
0000
,
0001
0000
1000
0000
,
0000
0000
1001
0000
,
0000
0001
0000
0000
,
1000
0000
0100
0000
,
0000
0000
0100
0000
,
0000
0000
1001
0000
,
0000
0000
0000
0000
,
0000
0000
0100
0000
,
0100
0000
0100
0000
,
0100
0000
0110
0000
,
0110
0000
0000
0000
,
0000
0000
1001
0000
,
0000
0000
0001
0000
,
0000
0000
1000
0000
,
0000
0000
0001
0000
,
0000
0000
0010
0000
,
0000
0000
0100
0000
,
0000
0000
1000
0000
,
0000
0000
0100
0000
,
0000
0000
0010
0000
,
0000
0000
0001
0000
,
0001
0000
1000
0000
,
0100
0000
0010
0000
,
0000
0000
1001
0000
,
1000
0000
0100
0000
,
0010
0000
0001
0000
,
0000
0000
1000
0000
,
1000
0000
1001
0000
,
0000
0000
0000
0000
,
0000
0000
0010
0000
,
0000
0000
0000
0000
,
0000
0000
0100
0000
,
0000
0000
0000
0000
,
0000
0000
1000
0000
,
0000
0000
0000
0000
,
0000
0000
0001
0000
;

//---------------dance-single - ----------------
#NOTES:
     dance-single:
     :
     Challenge:
     14:
     0.658,0.730,0.327,0.187,0.220: // measure 1
2000
0000
0000
0001
0000
0000
0001
0000
,  // measure 2
3002
0000
0000
0000
0000
0000
0103
0010
0200
0000
0000
0000
0000
0000
0000
0000
,  // measure 3
0310
0000
0000
0000
1001
0000
2000
0100
,  // measure 4
0000
3100
1000
0001
0100
0001
1000
0100
,  // measure 5
1100
0000
0010
0001
1001
0000
0002
0010
,  // measure 6
0000
0013
0001
1000
0010
0100
0010
1000
,  // measure 7
1010
0000
0000
0010
0100
0000
0001
0000
1001
0000
0000
0000
2000
0000
0010
0000
,  // measure 8
0000
3010
1000
0001
0010
0100
0010
0001
,  // measure 9
0011
0000
0100
1000
0001
0010
1000
0010
,  // measure 10
0001
0000
0010
0000
0100
0000
0010
0000
0001
0000
1000
0010
1000
0000
0001
0100
,  // measure 11
0001
1000
0000
1000
0010
0000
0100
0000
0110
0000
0000
0000
0002
0000
1000
0000
,  // measure 12
0000
1003
0001
0100
1000
0100
0001
1000
,  // measure 13
1100
0000
0011
0000
1001
0000
2000
0001
,  // measure 14
0000
3001
1000
0010
0001
0010
1000
0001
,  // measure 15
0011
0000
0000
0001
1000
0000
0010
0000
1010
0000
0000
0000
0200
0000
0010
0000
,  // measure 16
0000
0310
0100
0001
0010
1000
0010
0001
,  // measure 17
0011
0000
1100
0000
1000
0001
1000
0010
,  // measure 18
0001
0010
1000
0100
0001
0100
1000
0001
,  // measure 19
0010
0000
0100
0000
1000
0000
0001
0000
1001
0000
0000
0000
0001
0000
0100
0001
,  // measure 20
0100
0000
0001
0000
1000
0000
0100
1000
0100
0000
0010
0000
0001
0000
0100
0000
,  // measure 21
1000
0000
0100
0000
0001
0000
0100
0010
0100
0000
0000
0000
0001
0000
1000
0100
,  // measure 22
1000
0000
0100
0000
0010
0000
0001
0100
0001
0000
1000
0000
0001
0000
0010
0000
,  // measure 23
1000
0000
0010
0000
0001
0000
1000
0001
1000
0000
0000
0000
0001
0000
0100
0001
,  // measure 24
0100
0000
0001
0000
1000
0000
0100
0010
0100
0000
1000
0000
0001
0000
1000
0000
,  // measure 25
0100
0001
0100
1000
0010
0001
0010
1000
,  // measure 26
0100
0010
0001
0100
0101
0000
0101
0000
,  // measure 27
0101
0000
0000
0110
0000
0000
1010
0000
1001
0000
0000
0000
0001
0000
0010
0000
,  // measure 28
0100
0001
0100
1000
0001
0000
1000
0100
,  // measure 29
0010
0000
1000
0000
0010
0000
0001
0000
2000
0000
0000
0001
0000
0000
3001
0000
,  // measure 30
1000
0000
0010
0000
0100
0000
0001
1000
0002
0000
0000
0000
1000
0000
0000
0000
,  // measure 31
1003
0001
0010
0100
1100
0000
1000
0000
,  // measure 32
1000
0000
1000
0001
1000
0000
0010
0100
,  // measure 33
0010
0000
0010
1000
1000
0100
0010
0100
,  // measure 34
1000
0100
0010
0100
1000
0001
0100
0010
,  // measure 35
0100
0000
0001
0000
0100
0000
0010
0000
0100
0000
0001
0000
1000
0100
1000
0000
,  // measure 36
0100
0000
0010
0000
0001
1000
0001
0000
0000
0100
0000
0010
0100
0000
0010
0100
,  // measure 37
0000
0010
0100
0000
0000
0000
0000
0000
0001
0000
1000
0000
0200
0000
0010
0000
,  // measure 38
0000
0310
0100
1000
0010
0001
0010
1000
,  // measure 39
1001
0000
0010
0100
0101
0000
0002
1000
,  // measure 40
0000
1003
0001
1000
0010
0001
0010
1000
,  // measure 41
1001
0000
0000
0010
0100
0000
0001
0000
0101
0000
0000
0000
0200
0000
0010
0000
,  // measure 42
0000
0310
0100
0001
0010
1000
0010
0001
,  // measure 43
1001
0000
0100
0010
1000
0100
0001
0100
,  // measure 44
1000
0000
0100
0000
0010
0000
0001
0000
1000
0000
0001
0010
0001
0000
1000
0100
,  // measure 45
1000
0001
0000
0001
0100
0000
0010
0000
0200
0000
0000
0010
0000
0000
0320
0000
,  // measure 46
0000
0000
0000
0000
1030
0000
0001
0010
0001
0000
0010
0100
0010
0000
0100
1000
,  // measure 47
0100
0000
1000
0001
1000
0000
0100
0000
0020
0000
0000
0001
0000
0000
0031
0000
,  // measure 48
2000
0000
0000
0000
0000
0000
3010
0100
0001
0000
0100
0000
0010
0000
0100
0000
,  // measure 49
0001
0010
0100
1000
0001
0100
1000
0001
,  // measure 50
0010
1000
0001
0100
1000
0001
0010
1000
,  // measure 51
0001
0000
0010
0000
0100
0000
1000
0000
0010
0100
0010
0100
0010
0000
1000
0001
,  // measure 52
1000
0001
1000
0000
0100
1000
0100
1000
0100
0000
1000
0001
1000
0000
0001
0100
,  // measure 53
0001
1000
0000
1000
0100
0000
1000
0000
1001
0000
0000
0000
0100
0000
0001
0000
,  // measure 54
0000
0001
1000
0100
0010
0001
1000
0000
,  // measure 55
1100
0000
0100
0000
1100
0000
0010
0001
,  // measure 56
0000
0001
1000
0010
0100
0010
1000
0000
,  // measure 57
1001
0000
0001
0000
0101
0000
0010
1000
,  // measure 58
0000
1000
0001
0010
0100
0010
0001
0000
,  // measure 59
1001
0000
0100
0000
0110
0000
0010
0100
,  // measure 60
0000
0100
0001
0000
1000
0100
0001
0100
,  // measure 61
1000
0000
0000
0001
0000
0000
0010
0000
0010
0000
0000
0000
0220
0000
0000
0000
0000
0000
0000
0000
0000
0000
0000
0000
,  // measure 62
0000
0000
0000
0000
,  // measure 63
0000
0000
0330
0000
;

//---------------dance-single - ----------------
#NOTES:
     dance-single:
     :
     Medium:
     9:
     0.403,0.424,0.299,0.093,0.000:
0000
0000
0000
0000
,
0000
0000
0000
0000
,
2000
0000
3001
1000
,
0001
0000
1000
0010
1000
0000
0001
0100
,
0001
0100
0110
1000
,
0001
0000
1000
0100
1000
0000
0001
0010
,
0001
0100
0110
1000
,
0001
0000
1000
0010
1000
0000
0001
0010
,
0001
0000
0100
0000
0010
0000
0100
0001
,
0000
0100
0001
0000
1000
0000
0100
1000
,
0010
0010
1001
0010
,
0001
0000
0100
0010
0100
0000
0001
1000
,
0001
0110
1001
0100
,
0010
0001
0010
0000
0100
1000
0100
0000
,
1001
0010
0110
1000
,
0100
0000
1000
0010
1000
0000
0001
0100
,
0001
0000
0100
0000
0110
0000
0001
0010
,
0000
0001
0010
0000
0001
0000
0100
0010
,
0100
0010
0100
0000
1001
0000
0010
0000
,
1000
0010
1001
0100
,
1000
0100
1001
0010
,
0001
0010
1001
0100
,
1000
0100
1001
0010
,
0001
0010
1001
0100
,
1000
0000
0100
0000
1001
0000
0100
1000
,
0000
0010
0100
0000
1001
0000
1001
0000
,
1001
0000
0000
1000
0001
1000
0001
0000
,
0100
0000
0010
1000
0000
0000
0010
0100
,
0010
0100
0001
0000
0010
0000
0100
0000
,
1000
0000
0100
1000
0100
0000
0010
0001
,
0010
0001
1000
0000
1001
0000
0000
0000
,
0000
0000
0000
0001
0010
0000
0000
0100
,
1000
0000
0000
0010
0100
0000
0100
0000
,
0100
0100
1001
1000
,
1000
1000
1001
0010
,
1001
0100
2002
0000
,
0000
0000
3003
0000
0010
0001
0010
0001
,
0010
0001
0010
0100
,
1001
0000
0010
0000
0110
0000
1000
0100
,
1000
0100
1000
0000
0001
0000
0010
0000
,
1001
0000
0100
0000
0110
0000
0001
0100
,
0001
0100
0001
0000
0010
0000
0001
0000
,
1001
0000
0010
0000
0110
0000
0100
0010
,
0000
0100
0001
0000
0010
0001
0100
0000
,
0010
1000
0100
0000
1001
0000
0010
0001
,
0010
0000
0001
1000
0001
1000
0001
1000
,
0001
1000
0001
0000
1000
0100
1000
0100
,
1000
0000
0010
0100
0010
0100
0010
0100
,
0010
0100
0010
0000
1001
0000
0100
0001
,
0100
0000
0010
1000
0010
0000
0100
0001
,
0010
0000
0100
1000
0010
0100
0001
0010
,
0100
1000
0001
0000
1000
0001
1000
0010
,
0100
0001
1000
0000
1002
0000
0000
0000
,
0000
0000
0000
0000
,
0203
0000
0010
0000
,
0000
0000
0000
0000
,
0320
0000
0100
0000
,
0000
0000
0000
0000
,
0230
0000
0302
0000
,
0000
0000
2003
0000
,
3020
0000
0130
0000
;
