#TITLE:鉄甲乙女;
#SUBTITLE:-under the steel-;
#ARTIST:Seiya Murai;
#TITLETRANSLIT:TEKKOU OTOME;
#SUBTITLETRANSLIT:;
#ARTISTTRANSLIT:;
#CREDIT:DigiMindAxel;
#BANNER:TEKKOU OTOME -under the steel-.png;
#BACKGROUND:TEKKOU OTOME -under the steel--bg.png;
#LYRICSPATH:TEKKOU OTOME -under the steel-.lrc;
#CDTITLE:beatmania IIDX.png;
#MUSIC:TEKKOU OTOME -under the steel-.mp3;
#METERTYPE:DDR X;
#OFFSET:-10.890;
#SAMPLESTART:14.600;
#SAMPLELENGTH:12.000;
#SELECTABLE:YES;
#BPMS:0.000=160.000;
#STOPS:;
#BGCHANGES:;

//---------------dance-single - ----------------
#NOTES:
     dance-single:
     :
     Easy:
     5:
     0.257,0.267,0.083,0.091,0.000:
2002
0000
0000
3000
,
2000
0000
0000
3003
,
0000
0000
1001
0000
,
1000
0000
0001
1000
,
0001
0000
0010
0000
,
0100
0010
0100
0010
,
0100
0000
1000
0000
,
0001
0000
1000
0100
,
1000
0000
0100
0010
,
0100
0000
1000
0000
,
0001
0000
1001
0000
,
0000
0000
0001
0100
,
0001
0000
0010
0000
,
0000
0000
0100
0010
,
0100
0000
1000
0000
,
0010
0000
0100
0010
,
0100
0000
0001
1000
,
0001
1000
0100
0000
,
0010
0000
0001
1000
,
0001
1000
0100
1000
,
0100
0000
0010
0001
,
0010
0001
1000
0001
,
1000
0000
0010
1000
,
0010
1000
0001
1000
,
0001
0000
0100
0001
,
0100
0001
1000
0001
,
1000
0001
1000
0001
,
1000
0100
1000
0100
,
0010
0001
0010
0001
,
1000
0001
1000
0001
,
0100
0001
0100
0001
,
1000
0010
1000
0010
,
1000
0001
1000
0001
,
1001
0000
0000
0001
0000
0000
1001
0000
,
0000
0000
0000
0010
,
0100
0010
1000
0100
,
0000
0010
0100
0000
,
0010
0000
0001
1000
,
0001
1000
0100
0000
,
0010
0000
0100
0000
,
0010
0000
0001
0000
,
1000
0000
0001
0000
,
1000
0000
0100
1000
,
0100
1000
0010
0100
,
0000
0001
0010
0001
,
0000
0100
0010
0100
,
0010
1000
0002
0000
,
0203
0000
0302
0000
,
2003
0000
3020
0000
,
0230
0000
0302
0000
,
1003
1001
0000
0000
,
0110
0000
0110
0000
,
0100
0000
0001
1000
,
0100
1000
0001
0000
,
0010
0000
0100
0010
,
0100
1000
0010
0000
,
0100
0000
0001
1000
,
0001
0010
0001
0000
,
1000
0000
0010
0100
,
0010
1000
0100
0000
,
0010
0000
0001
1000
,
0001
0100
0001
0000
,
0010
0000
0100
1000
,
0010
0100
0010
0000
,
1000
0000
0001
0100
,
0001
1000
0100
0000
,
0010
0000
0100
0010
,
0001
0100
0010
0000
,
0110
1001
2000
0000
,
0000
0000
0000
0000
,
0000
0000
0000
0000
,
0000
0000
3000
0000
;

//---------------dance-single - ----------------
#NOTES:
     dance-single:
     :
     Medium:
     7:
     0.399,0.445,0.199,0.182,0.000:
2002
0000
0000
3003
,
0200
0000
0000
0300
,
0000
1001
0202
0000
,
0303
0001
1000
0100
,
0010
0100
2000
0000
,
3000
0010
1000
0100
,
0010
0001
0200
0000
,
0300
0001
1000
0100
,
0010
0000
0000
0001
1000
0000
0010
0000
,
0100
0000
0001
0000
1000
0000
0000
0010
,
0100
0010
0220
0000
,
0330
0100
0001
0010
,
0100
0010
0002
0000
,
0003
0100
0001
1000
,
0100
1000
0002
0000
,
0003
1000
0100
0010
,
0100
0000
0000
1000
0001
0000
0010
0000
,
0100
0000
0010
0000
0001
0000
0000
0100
,
0010
0000
0100
0000
0001
1000
0001
0000
,
1000
0001
1000
0000
0100
0000
0010
0000
,
0001
0000
0011
0000
0100
1000
0100
0000
,
0010
0001
0010
0000
0001
0000
1000
0000
,
0010
0000
0110
0000
0100
0001
0100
0000
,
0010
1000
0010
0000
1000
0000
0001
0000
,
0010
0000
0011
0000
0010
0100
0010
0000
,
0001
1000
0001
0000
0010
0000
0110
0000
,
0100
0001
0100
0001
0100
0001
1000
0000
,
0100
1000
0100
1000
0100
1000
0010
0000
,
0100
0001
0100
0001
1000
0100
1000
0000
,
0010
0100
0010
0100
0001
0010
0001
0000
,
0010
0100
0010
0100
1000
0010
1000
0000
,
0100
0010
0100
0010
0001
0100
0001
0000
,
1000
0010
1000
0010
0100
0001
1000
0000
,
1001
0000
0000
0110
0000
0000
1001
0000
,
0000
0001
0001
2000
,
0010
3010
0110
0110
,
1000
0020
0200
0330
,
0010
0000
0100
0001
0100
0000
0010
0000
,
1000
0001
1000
0000
0200
0000
0010
0000
,
0010
0000
0320
0001
,
0001
0000
0032
1000
,
1000
0000
2003
0100
,
0100
0000
3100
0010
,
0001
0100
0110
0110
,
0000
0000
0100
0000
1000
0010
1000
0000
,
0100
0000
0010
0000
0001
1000
0001
0000
,
0100
0010
0200
0001
,
0001
0000
0302
1000
,
1000
0000
2003
0100
,
0100
0000
3100
1000
,
1001
1001
0000
0000
,
0100
0100
0100
0100
0100
0000
0001
0000
,
0100
0000
1000
0001
1000
0000
0100
0000
,
0001
1000
1001
1000
,
0100
0000
0001
1000
0001
0000
0100
0000
,
1000
0001
1001
0001
,
0010
0000
1000
0001
1000
0000
0010
0000
,
0001
1000
1001
1000
,
0010
0000
0001
1000
0001
0000
0010
0000
,
1000
0001
1001
1000
,
0100
0000
0001
1000
0001
0000
0100
0000
,
1000
0010
0100
0000
0110
0000
1000
0000
,
0010
0000
0001
1000
0001
0000
0010
0000
,
1000
0010
0100
0000
0110
0000
0001
0000
,
0010
0000
1000
0001
1000
0000
0010
0000
,
0001
0100
0010
0000
0110
0000
0001
0000
,
0100
0000
1000
0001
1000
0000
0100
0000
,
0001
1000
0100
0010
,
0001
1000
0010
1000
0002
0000
0000
0000
,
0000
0000
0000
0000
,
0000
0000
0000
0000
,
0000
0000
0003
0000
;

//---------------dance-single - ----------------
#NOTES:
     dance-single:
     :
     Hard:
     10:
     0.559,0.504,0.166,0.373,0.095:
2002
0000
0000
0003
,
0200
0000
0000
3300
,
0000
0000
0000
0000
1000
0001
1000
0000
1002
0000
0000
0000
0100
0000
0000
0000
,
0103
0000
0000
0000
0001
0000
0000
0001
2000
0000
0000
0000
3200
0000
0000
0000
,
0320
0130
2001
0100
,
3100
0000
0000
0000
1000
0000
0000
1000
0002
0000
0000
0000
0203
0000
0000
0000
,
0320
0130
0201
0010
,
0310
0000
0000
0000
1000
0000
0000
1000
0200
0000
0000
0000
0320
0000
0000
0000
,
0230
0000
0300
1000
0002
0000
2003
0000
,
3020
0000
0000
0000
0230
0000
0000
0000
0320
0000
0000
0000
0030
0000
1000
0001
,
1000
0010
0100
0001
2001
0000
0100
0000
,
3100
0000
0000
0000
1000
0000
0000
1000
0002
0000
0000
0000
0203
0000
0000
0000
,
2300
3100
1002
0100
,
0103
0000
0000
0000
0001
0000
0000
0001
2000
0000
0000
0000
3020
0000
0000
0000
,
0032
0013
2001
0010
,
3010
0000
0000
0000
1000
0000
0000
1000
0002
0000
0000
0000
0203
0000
0000
0000
,
0320
0000
0030
1000
0002
0000
0023
0000
,
0230
0000
0000
0000
2300
0000
0000
0000
3002
0000
0000
0000
0003
0000
0100
0010
,
0100
0001
0010
0100
1000
0001
0100
0001
,
1000
0100
0010
0000
0010
0100
1000
0001
,
0100
0000
0101
0000
0010
1000
0100
1000
,
0001
0010
0100
0000
0100
1000
0010
0100
,
0010
0000
0110
0000
0100
0001
0010
0100
,
0010
0001
1000
0000
1000
0001
0100
0010
,
1000
0000
1010
0000
0010
0100
1000
0100
,
0010
0001
1000
0100
0010
0000
0110
0000
,
0010
1000
0001
0010
0100
1000
0010
1000
,
0001
0010
0100
1000
0010
1000
0001
0001
,
1000
0001
1000
0100
0001
0100
1000
0001
,
1000
0100
0001
0100
1000
0001
1000
1000
,
0001
0010
0001
1000
0010
0100
0001
0010
,
0001
1000
0010
0100
0001
0010
0001
1000
,
0010
0100
0001
0010
1000
0010
0001
1000
,
0001
0001
0000
1000
1000
0000
0001
1001
,
0000
0000
0000
0000
1000
0001
1000
0001
1000
0000
0000
0000
0100
0000
1000
0000
,
0020
0130
1010
1010
,
0001
0000
0100
0001
2000
0000
3100
0000
,
0010
0000
0001
0100
1000
0000
0100
0000
,
0001
1000
0100
0010
0001
1000
0100
0000
,
0100
0010
0001
0000
0001
1000
0010
0000
,
0010
0100
0001
0000
0001
0010
0100
0000
,
0100
1000
0001
0000
0001
0010
0100
1000
,
0001
0000
0001
0000
1000
0001
1000
0000
0001
0000
0000
0000
0100
0000
0001
0000
,
2000
3100
1100
1100
,
1000
0000
0100
0010
0002
0000
0103
0000
,
0001
0000
1000
0010
0001
0000
0010
0000
,
1000
0001
0010
0100
1000
0001
0100
0000
,
0100
0010
1000
0000
1000
0100
0010
0000
,
0010
0001
1000
0000
1000
0001
0010
0000
,
0010
0100
1000
0000
1000
0001
0100
0000
,
0100
0000
0001
0000
1000
0000
1000
0000
0000
0000
0010
0000
0010
0000
0000
1000
,
0001
0001
1000
1000
0001
0000
0101
0000
,
0100
0000
0000
0000
0001
0000
0000
1000
0010
0000
0100
0000
0010
0000
0000
0000
,
1000
0100
0010
0000
0001
0000
0011
0000
,
0010
0000
0000
0000
0001
0000
0000
1000
0100
0000
0010
0000
0100
0000
0000
0000
,
1000
0001
0100
0000
0010
0000
0110
0000
,
0100
0000
0000
0000
0001
0000
0000
1000
0001
0000
0010
0000
0100
0000
0010
0000
,
0001
0000
1000
0010
0100
0000
0101
0000
,
0001
0000
0000
0000
0010
0000
0100
0000
1000
0000
0001
0000
1000
0000
0010
1000
,
0010
0000
0000
0000
0100
0010
0100
0000
0001
0000
1000
0000
0100
0000
1000
0000
,
0001
0000
0000
0000
1000
0000
0000
1000
0001
0000
0010
0000
0001
0000
0100
0000
,
0010
0000
0100
0000
0010
0100
0001
0100
,
0010
0000
0000
0000
1000
0000
0000
1000
0001
0000
0010
0000
0100
0000
0010
0000
,
0001
0000
0100
0000
0010
1000
0100
1000
,
0010
0000
0000
0000
1000
0000
0000
1000
0010
0000
0100
0000
0001
0000
0010
0000
,
0001
0000
0100
0001
1000
0100
1000
0010
,
0100
0000
0000
0000
0001
0000
0100
0000
0020
0000
0000
0000
1030
0000
0001
1000
,
0002
0000
0000
0000
1003
0000
0000
0000
0200
0000
0000
0000
1300
0000
0001
1000
,
0001
0100
0010
1000
0002
0000
0000
0000
,
0000
0000
0000
0000
,
0000
0000
0000
0000
,
0000
0000
0003
0000
;

//---------------dance-single - ----------------
#NOTES:
     dance-single:
     :
     Challenge:
     13:
     0.642,0.682,0.390,0.100,0.282: // measure 1
2002
0000
0000
3000
,  // measure 2
0020
0000
0000
0000
,  // measure 3
0033
0000
0000
0000
0001
1000
0001
0000
1001
0000
0000
0000
1000
0000
0000
0000
,  // measure 4
0110
0000
0000
0000
0001
0000
0000
0001
1000
0000
0100
0000
0010
0000
0100
0000
,  // measure 5
1000
0010
0110
0100
,  // measure 6
0101
0000
0000
0000
0001
0000
0000
0001
1000
0000
0010
0000
0100
0000
0010
0000
,  // measure 7
1000
0001
0011
0010
,  // measure 8
0110
0000
0000
0000
0100
0000
0000
0100
0001
0000
0010
0000
0100
0000
0010
0000
,  // measure 9
0001
0000
0001
1000
1010
0000
0110
0000
,  // measure 10
0101
0000
0000
0000
0110
0000
0000
0000
1002
0000
0000
0000
0000
0000
1003
0100
,  // measure 11
1000
0000
0001
0000
1000
0001
1000
0001
1000
0000
0000
0000
0001
0000
0000
0000
,  // measure 12
0011
0000
0000
0000
0010
0000
0000
0010
0100
0000
1000
0000
0010
0000
0100
0000
,  // measure 13
0010
1000
1100
0100
,  // measure 14
0110
0000
0000
0000
0010
0000
0000
0010
0001
0000
1000
0000
0100
0000
0010
0000
,  // measure 15
0100
1000
1001
0001
,  // measure 16
0101
0000
0000
0000
0100
0000
0000
0100
0010
0000
1000
0000
0100
0000
0010
0000
,  // measure 17
0100
0000
0100
1000
0001
0000
0011
0000
,  // measure 18
1100
0000
0000
0000
0110
0000
0000
0000
1002
0000
0000
0000
0000
0000
1003
0100
,  // measure 19
1000
0000
0001
1000
0001
1000
0001
1000
0001
0000
0010
0000
0100
0000
1000
0000
,  // measure 20
0001
0010
1000
0010
0001
0010
0100
1000
,  // measure 21
0100
0000
0010
0000
0001
1000
0001
0000
0100
0000
1000
0000
0100
0000
0001
0000
,  // measure 22
1000
0100
0010
0001
0100
1000
0100
0001
,  // measure 23
1000
0000
0010
0000
0100
0001
0100
0000
0001
0000
1000
0000
0100
0000
0001
0000
,  // measure 24
0100
1000
0001
1000
0100
0001
0100
1000
,  // measure 25
0001
0000
0010
0000
0001
1000
0001
0000
1000
0000
0010
0000
0001
0000
0010
0000
,  // measure 26
1000
0000
0100
0000
0010
0000
0001
0000
1000
0000
0010
0000
1000
0001
1000
0000
,  // measure 27
0100
1000
0001
0000
0010
0000
0100
0000
1000
0001
0100
0000
0001
0000
0010
0000
,  // measure 28
0100
1000
0001
0000
0010
0000
0100
0000
0010
0001
0100
0000
0010
0100
0010
0000
,  // measure 29
1000
0001
0010
0000
0001
0000
0010
0000
0100
1000
0010
0000
0100
0000
0001
0000
,  // measure 30
1000
0100
0010
0000
0100
0000
1000
0000
0001
0100
0010
0000
0100
0010
0100
0000
,  // measure 31
0001
1000
0100
0000
0010
0000
0100
0000
1000
0001
0100
0000
0010
0000
0100
0000
,  // measure 32
0001
0010
0100
0000
1000
0001
1000
0000
0001
0010
0100
0000
0010
0001
0010
0000
,  // measure 33
0001
1000
0010
0000
0100
0000
0001
0000
0100
0010
1000
0000
0100
0000
0010
0000
,  // measure 34
0011
0011
0000
0110
0110
0000
1010
1010
,  // measure 35
0000
0000
0000
0000
1000
0001
1000
0001
1000
0000
0000
0000
1001
0000
0000
0001
,  // measure 36
0100
0000
0000
0100
1000
0000
0000
1000
0100
0000
0000
0000
0101
0000
0000
0000
,  // measure 37
0001
0000
1000
0100
0002
0000
0103
0000
,  // measure 38
1000
0000
0000
0000
0001
0000
0000
0001
0100
0000
0000
0100
1000
0000
0000
1000
,  // measure 39
0100
0000
0000
0100
0001
0000
0000
0000
0010
0000
0100
0000
1000
0000
0100
0000
,  // measure 40
0010
0100
0110
0000
0100
1000
0010
1000
,  // measure 41
0100
0010
0110
0000
0010
0001
1000
0010
,  // measure 42
1000
0001
0011
0000
0001
0100
0010
0100
,  // measure 43
0001
0000
1000
0000
0001
1000
0001
0000
1000
0000
0000
1000
0100
0000
0000
0100
,  // measure 44
0001
0000
0000
0001
0100
0000
0000
0100
1000
0000
0000
0000
1100
0000
0000
0000
,  // measure 45
1000
0000
0001
0010
2000
0000
3010
0000
,  // measure 46
1001
0000
0000
0000
0001
0000
0000
0001
0010
0000
0000
0010
1000
0000
0000
1000
,  // measure 47
0010
0000
0000
0010
0001
0000
0000
0000
1000
0000
0100
0000
0010
0000
1000
0000
,  // measure 48
0010
0001
0011
0000
0001
0100
0010
0001
,  // measure 49
0010
1000
1010
0000
1000
0010
0100
1000
,  // measure 50
0100
0000
0001
0000
0101
0000
0000
0000
0001
0000
1000
0000
0100
0000
0000
0100
,  // measure 51
0010
0000
0001
0000
1000
0001
1000
0000
0000
0000
0100
0000
0100
0000
0000
1000
,  // measure 52
0001
0001
0001
0001
0101
0000
0100
0000
,  // measure 53
0110
0000
0000
0000
0010
0000
0000
0010
1000
0000
0100
0000
0010
0000
0100
0000
,  // measure 54
1000
0010
0100
0000
0110
0000
0010
0000
,  // measure 55
0011
0000
0000
0000
0001
0000
0000
0001
1000
0000
0010
0000
0100
0000
0010
0000
,  // measure 56
1000
0100
0010
0000
0101
0000
0100
0000
,  // measure 57
0110
0000
0000
0000
0010
0000
0000
0010
1000
0000
0100
0000
0010
0000
0100
0000
,  // measure 58
1000
0000
1000
0001
0010
0000
0011
0000
,  // measure 59
1100
0000
0000
0000
0110
0000
0000
0000
1002
0000
0000
0000
0000
0000
0103
0001
,  // measure 60
0010
0000
0000
0000
0001
1000
0001
0000
1000
0000
0100
0000
0010
0000
0100
0000
,  // measure 61
1000
0010
0100
0001
1000
0100
0001
0100
,  // measure 62
1000
0001
0010
0000
0010
0001
0100
0010
,  // measure 63
0100
0001
1000
0010
0001
0010
1000
0100
,  // measure 64
0010
0001
0100
0000
0100
0001
0010
0001
,  // measure 65
0100
0001
0010
0100
0010
0001
1000
0010
,  // measure 66
0001
0010
1000
0000
1000
0001
0010
1000
,  // measure 67
0010
0000
0001
0000
1000
0000
0010
0000
0200
0000
0000
0000
0301
0000
1000
0100
,  // measure 68
2000
0000
0000
0000
3001
0000
0000
0000
0020
0000
0000
0000
0031
0000
1000
0001
,  // measure 69
1000
0100
1000
0100
1000
0100
1000
0001
2000
0000
0000
0000
0000
0000
0000
0000
,  // measure 70
0000
0000
0000
0000
,  // measure 71
0000
0000
0000
0000
,  // measure 72
0000
0000
3000
0000
;

//---------------dance-single - ----------------
#NOTES:
     dance-single:
     :
     Beginner:
     3:
     0.108,0.142,0.017,0.000,0.000:
1001
0000
0000
0000
,
0000
0000
0000
0000
,
0000
0000
0001
0000
,
0000
0000
0010
0000
,
0000
0000
0001
0000
,
0000
0000
0010
0000
,
0000
0000
0001
0000
,
0000
0000
1000
0000
,
0000
0000
0001
0000
,
0000
0000
1000
0000
,
0000
0000
0100
0000
,
0000
0000
0010
0000
,
0000
0000
0100
0000
,
0000
0000
1000
0000
,
0000
0000
0010
0000
,
0000
0000
0100
0000
,
0000
0000
0001
0000
,
0000
0000
0100
0000
,
0000
0000
1001
0000
,
0000
0000
0001
0000
,
0000
0000
1000
0000
,
0000
0000
0001
0000
,
0000
0000
1000
0000
,
0000
0000
0100
0000
,
0000
0000
0010
0000
,
0000
0000
0100
0000
,
0000
0000
0010
0000
,
0000
0000
0001
0000
,
0000
0000
0010
0000
,
0000
0000
0001
0000
,
1000
0000
0001
0000
,
1000
0000
0000
0000
,
0001
0000
1000
0000
,
0001
0000
0000
0000
,
0000
0000
1000
0000
,
0000
0000
0010
0000
,
0000
0000
0100
0000
,
0000
0000
0001
0000
,
0000
0000
1000
0000
,
1000
0000
0001
0000
,
0001
0000
1000
0000
,
1000
0000
0001
0000
,
0001
0000
1000
0000
,
0000
0000
0010
0000
,
0000
0000
0100
0000
,
0000
0000
0001
0000
,
0000
0000
1000
0000
,
1000
0000
0001
0000
,
0001
0000
1000
0000
,
1000
0000
0001
0000
,
0001
0000
0000
0000
,
0000
0000
0010
0000
,
0100
0000
0010
0000
,
0000
0000
0100
0000
,
1000
0000
0100
0000
,
0000
0000
0010
0000
,
0001
0000
0010
0000
,
0000
0000
0001
0000
,
1000
0000
0001
0000
,
0000
0000
1000
0000
,
0001
0000
1000
0000
,
0001
0000
0100
0000
,
0010
0000
0100
0000
,
0010
0000
1000
0000
,
0001
0000
1000
0000
,
0001
0000
0010
0000
,
0100
0000
1000
0000
,
0000
0000
0001
0000
,
0010
0000
0100
0000
;
