#TITLE:Survival Games;
#SUBTITLE:;
#ARTIST:VENUS;
#TITLETRANSLIT:;
#SUBTITLETRANSLIT:;
#ARTISTTRANSLIT:;
#GENRE:;
#CREDIT:DigiMindAxel;
#BANNER:Survival Games.png;
#BACKGROUND:Survival Games-bg.png;
#LYRICSPATH:Survival Games.lrc;
#CDTITLE:REFLEC BEAT.png;
#METERTYPE:DDR X;
#MUSIC:Survival Games.mp3;
#OFFSET:-6.730;
#SAMPLESTART:63.554;
#SAMPLELENGTH:12.000;
#SELECTABLE:YES;
#BPMS:0.000=152.000
;
#STOPS:
;
#BGCHANGES:;
#KEYSOUNDS:;
#ATTACKS:;

//---------------dance-single - ----------------
#NOTES:
     dance-single:
     :
     Hard:
     11:
     0.574,0.550,0.184,0.304,0.304,384.000,20.000,33.000,0.000,0.000,0.000,0.574,0.550,0.184,0.304,0.304,384.000,20.000,33.000,0.000,0.000,0.000: // measure 0
1002
0000
0000
0000
,  // measure 1
0203
0000
0000
0000
0000
0000
0000
0010
,  // measure 2
0320
0000
0000
0000
,  // measure 3
2030
0000
3000
1001
,  // measure 4
0100
1000
0010
0000
1000
0100
0010
0000
,  // measure 5
0100
0010
0001
0000
0010
0001
0100
0000
,  // measure 6
0010
0100
0001
0000
0010
0100
1000
0000
,  // measure 7
0010
0100
0001
0000
0010
0100
1000
0000
,  // measure 8
0100
0010
0001
0010
0100
0000
1000
0000
,  // measure 9
0010
0100
0001
0100
0010
0000
0110
0000
,  // measure 10
0001
1000
0010
1000
0001
0000
0010
0000
,  // measure 11
0100
0010
0001
0010
0100
0100
0100
0000
,  // measure 12
1000
0000
0001
0100
0000
0001
0000
0000
1000
0000
0000
0010
0000
0000
0210
0000
,  // measure 13
0000
0301
0010
0100
0010
0001
1000
0010
,  // measure 14
2000
0000
0000
3001
0000
0000
1000
0000
0100
0000
0010
0000
0100
0000
1000
0000
,  // measure 15
0002
0000
0000
0103
0000
0000
0010
0000
0200
0000
0000
0310
0000
0000
1000
0000
,  // measure 16
0000
0000
0010
0000
0020
0000
0000
0000
0130
0000
0000
0001
0000
0000
2000
0000
,  // measure 17
0000
3001
1000
0100
1000
0001
0010
0100
,  // measure 18
1000
0010
0000
0200
0000
0000
0301
0000
1000
0000
0100
0000
0010
0000
0001
0000
,  // measure 19
0101
0000
0000
0101
0000
0000
0000
0000
0110
0000
0000
0110
0000
0000
0000
0000
,  // measure 20
0200
1000
1300
0000
2000
0001
3001
0200
,  // measure 21
0000
0301
0010
0001
1000
0010
1000
0001
,  // measure 22
0200
0000
0000
0310
0000
0000
1000
0000
0100
0000
0010
0000
0100
0000
1000
0000
,  // measure 23
0020
0000
0000
0130
0000
0000
0001
0000
2000
0000
0000
3001
0000
0000
1000
0000
,  // measure 24
0010
0100
0100
0000
0001
1000
0100
1000
,  // measure 25
0001
0100
0001
1000
0100
0010
0001
0010
,  // measure 26
0200
0000
0000
0310
0000
0000
0001
0000
0100
0000
0001
0000
1000
0000
0100
0000
,  // measure 27
1000
0001
0000
0200
0000
0000
0000
0000
0310
1000
0000
0002
0000
0000
0000
0000
,  // measure 28
1003
0000
0000
0100
0000
0000
0010
0000
0000
0000
0001
0000
0100
0000
1000
0000
,  // measure 29
0100
0001
0010
0100
0010
0001
1000
0000
,  // measure 30
0001
0000
0000
0100
0000
0000
0020
0000
0000
0000
0000
0000
0130
0000
0000
0000
,  // measure 31
0002
0010
0013
0000
0200
0010
0310
0001
,  // measure 32
1000
0000
0010
0100
0001
0100
0010
1000
,  // measure 33
0001
0000
0000
0010
0000
0000
0100
0000
0000
0000
1000
0000
0010
0000
0001
0000
,  // measure 34
0010
1000
0100
0010
0000
0001
1000
0001
,  // measure 35
1001
0000
0000
0110
0000
0000
1001
0000
0000
0000
0000
0000
1001
0000
0000
0000
,  // measure 36
0001
0000
2000
0000
0000
0010
0000
0000
0100
0000
0000
3010
0000
0000
1000
0001
,  // measure 37
1000
0100
0001
0100
1000
0010
0100
0000
,  // measure 38
0001
1000
0100
0000
0010
0100
1000
0010
,  // measure 39
0100
0000
0000
0100
0001
0000
0000
0001
0100
0000
0000
0100
0001
0000
0000
0000
,  // measure 40
1000
0000
0002
0000
0000
0010
0000
0000
0100
0000
0000
0013
0000
0000
0001
1000
,  // measure 41
0001
0100
1000
0100
0001
0010
0100
0000
,  // measure 42
1000
0001
0001
0000
0010
0100
0010
0001
,  // measure 43
1000
0000
0000
1000
0010
0000
0000
0010
1000
0000
0000
1000
0010
0000
0000
0000
,  // measure 44
1000
0000
0002
0000
0000
0100
0000
0000
0010
0000
0000
0103
0000
0000
0001
1000
,  // measure 45
0001
0010
1000
0010
0001
1000
0100
0000
,  // measure 46
1000
0001
0001
0000
0010
0100
1000
0100
,  // measure 47
0010
0000
0000
0010
0001
0000
0000
0001
0010
0000
0000
0010
0001
0000
0000
0000
,  // measure 48
1000
0000
0002
0000
0000
0100
0000
0000
0010
0000
0000
0103
0000
0000
0001
1000
,  // measure 49
0001
0100
1000
0100
0001
1000
0010
0000
,  // measure 50
0100
0010
0010
0000
1000
0001
0100
0001
,  // measure 51
0101
0110
0101
0110
,  // measure 52
1000
0000
0001
0100
0000
0001
0100
0000
0001
0000
1000
0000
1001
0000
0000
0000
,  // measure 53
0001
0000
1000
0100
0000
1000
0100
0000
0010
0000
0100
0000
0110
0000
0000
0000
,  // measure 54
1000
0000
0001
0010
0000
0001
0010
0000
0001
1000
0001
0000
0010
0000
0100
0000
,  // measure 55
1000
0000
0001
0100
0000
0001
0100
0000
0001
1000
0001
0000
0100
0000
0010
0000
,  // measure 56
1000
0000
0100
0010
0000
0100
0010
0000
0001
0200
0000
0010
0000
0000
0310
0000
,  // measure 57
1000
0002
0000
0010
0000
0000
0013
0000
0001
0200
0000
0010
0000
0000
0310
0000
,  // measure 58
1000
0000
0010
0100
0000
0010
0100
0000
0001
2000
0000
0100
0000
0000
3100
0000
,  // measure 59
2002
0000
0000
3003
0100
0100
0110
0000
;

//---------------dance-single - ----------------
#NOTES:
     dance-single:
     :
     Easy:
     3:
     0.164,0.165,0.037,0.046,0.000,116.000,4.000,5.000,0.000,0.000,0.000,0.164,0.165,0.037,0.046,0.000,116.000,4.000,5.000,0.000,0.000,0.000: // measure 0
0001
0000
0000
0000
,  // measure 1
0001
0000
0000
0000
,  // measure 2
1000
0000
0000
0000
,  // measure 3
1000
0000
0000
0000
,  // measure 4
0001
0000
1000
0000
,  // measure 5
0001
0000
1000
0000
,  // measure 6
0001
0000
0100
0000
,  // measure 7
0001
0000
0100
0000
,  // measure 8
0010
0000
1000
0000
,  // measure 9
0010
0000
1000
0000
,  // measure 10
0001
0000
1000
0000
,  // measure 11
0001
0000
1001
0000
,  // measure 12
1000
0000
0100
0000
,  // measure 13
0010
0000
0010
0000
,  // measure 14
0100
0000
1000
0000
,  // measure 15
0001
0000
0001
0000
,  // measure 16
0100
0000
0001
0000
,  // measure 17
0010
0000
0010
0000
,  // measure 18
0001
0000
0010
0000
,  // measure 19
0100
0000
0000
0000
,  // measure 20
1001
0000
0000
0000
,  // measure 21
1000
0000
0001
0000
,  // measure 22
1000
0000
1000
0000
,  // measure 23
0010
0000
0100
0000
,  // measure 24
0001
0000
0000
0000
,  // measure 25
1000
0000
0001
0000
,  // measure 26
1000
0000
1000
0000
,  // measure 27
0010
0000
0010
0000
,  // measure 28
0100
0000
0001
0000
,  // measure 29
1000
0000
0100
0000
,  // measure 30
0020
0000
0031
0000
,  // measure 31
2000
0000
3001
0000
,  // measure 32
1000
0000
0001
0000
,  // measure 33
0200
0000
0310
0000
,  // measure 34
2000
0000
3001
0000
,  // measure 35
0020
0000
0030
0000
,  // measure 36
1001
0000
0010
0000
,  // measure 37
0100
0000
0010
0000
,  // measure 38
0001
0000
1000
0000
,  // measure 39
0001
1000
0001
0000
,  // measure 40
1000
0000
0001
0000
,  // measure 41
0100
0000
0010
0000
,  // measure 42
1000
0000
0001
0000
,  // measure 43
1000
0001
1000
0000
,  // measure 44
0010
0000
0100
0000
,  // measure 45
0001
0000
1000
0000
,  // measure 46
0001
0000
0010
0000
,  // measure 47
0100
0010
0100
0000
,  // measure 48
1000
0000
0001
0000
,  // measure 49
1000
0000
0010
0000
,  // measure 50
1000
0000
0100
0000
,  // measure 51
0010
0100
0010
0000
,  // measure 52
0001
0000
1000
0000
,  // measure 53
0001
0000
0001
0000
,  // measure 54
1000
0000
0001
0000
,  // measure 55
1000
0000
1000
0000
,  // measure 56
0010
0000
0100
0000
,  // measure 57
0010
0000
0100
0000
,  // measure 58
0001
0000
1000
0000
,  // measure 59
0001
0000
0000
1001
;

//---------------dance-single - ----------------
#NOTES:
     dance-single:
     :
     Medium:
     7:
     0.386,0.357,0.129,0.083,0.000,271.000,14.000,9.000,0.000,0.000,0.000,0.386,0.357,0.129,0.083,0.000,271.000,14.000,9.000,0.000,0.000,0.000: // measure 0
0002
0000
0000
0000
,  // measure 1
2003
0000
0000
0000
,  // measure 2
3002
0000
0000
0000
,  // measure 3
2003
0000
0000
0000
,  // measure 4
3001
1000
0001
1000
,  // measure 5
0100
0010
0100
0010
,  // measure 6
0001
1000
0001
1000
,  // measure 7
0010
0100
0010
0100
,  // measure 8
0001
0010
0100
1000
,  // measure 9
0010
0100
0010
0100
,  // measure 10
0001
0010
0100
1000
,  // measure 11
0001
0000
1000
0000
0001
0001
0001
0000
,  // measure 12
0100
0000
0001
0000
0010
0000
0000
0100
,  // measure 13
0000
0000
1000
0010
1000
0000
0010
0100
,  // measure 14
0001
0001
1000
0001
,  // measure 15
0100
0100
0010
1000
,  // measure 16
0000
0010
0010
0000
0100
0000
0000
0100
,  // measure 17
0000
0000
0010
0100
0010
0000
1000
0100
,  // measure 18
0010
0010
0001
1000
,  // measure 19
0110
0000
0010
0000
,  // measure 20
1000
0001
1000
0000
0001
1000
0000
0001
,  // measure 21
0000
0000
0100
0010
0100
0000
0001
0010
,  // measure 22
0100
1000
0010
0100
,  // measure 23
0001
0010
0100
0000
1000
0001
1000
0000
,  // measure 24
0010
0100
0010
0000
1000
0000
0000
0010
,  // measure 25
0000
0000
0100
0010
0100
0000
0001
0100
,  // measure 26
0010
1000
0100
1000
,  // measure 27
0001
0100
0010
0000
1000
0001
1000
0000
,  // measure 28
0010
0000
0010
0000
0010
0000
1000
0001
,  // measure 29
1000
0000
0010
0100
0010
0000
0010
0000
,  // measure 30
2000
0001
3001
1000
,  // measure 31
0020
0130
0002
1003
,  // measure 32
0010
0000
0010
0000
0010
0000
1000
0001
,  // measure 33
1000
0010
0100
0110
,  // measure 34
0002
1003
0020
0130
,  // measure 35
1001
0000
0000
0110
0000
0000
0000
0000
,  // measure 36
1001
0000
1000
0100
0010
0000
0100
0000
,  // measure 37
1000
0001
1000
0001
1000
0001
1000
0000
,  // measure 38
0001
0000
0010
0000
0100
0010
0001
0000
,  // measure 39
0100
0110
0100
0110
,  // measure 40
0001
0000
1000
0010
0100
0000
0010
0000
,  // measure 41
1000
0001
1000
0001
1000
0001
1000
0000
,  // measure 42
0001
0000
0100
0000
0010
0100
0001
0000
,  // measure 43
1000
1001
0001
1001
,  // measure 44
1000
0000
0001
0000
0010
0100
1000
0000
,  // measure 45
0010
0100
0010
0100
0010
0100
0010
0000
,  // measure 46
1000
0100
1000
0000
0001
0010
0001
0000
,  // measure 47
1000
1010
0010
0110
,  // measure 48
0001
0000
1000
0000
0010
0100
0001
0000
,  // measure 49
0010
0100
0010
0100
0010
0100
0010
0000
,  // measure 50
0001
0100
0001
0000
1000
0010
1000
0000
,  // measure 51
0001
0011
0010
0110
,  // measure 52
1000
0010
1000
0000
0010
0000
0100
0000
,  // measure 53
0001
0100
0001
0000
0010
0000
0100
0000
,  // measure 54
1000
0100
1000
0000
0010
0000
0100
0000
,  // measure 55
0001
0010
0001
0000
0010
0000
0100
0000
,  // measure 56
1000
0001
1000
0000
0001
1000
0001
0000
,  // measure 57
0010
0001
0010
0000
0100
1000
0100
0000
,  // measure 58
1000
0001
1000
0000
0010
0100
0010
0000
,  // measure 59
1000
0000
0000
0000
0001
0001
1001
0000
;

//---------------dance-single - ----------------
#NOTES:
     dance-single:
     :
     Beginner:
     1:
     0.087,0.110,0.055,0.000,0.000,60.000,6.000,0.000,0.000,0.000,0.000,0.087,0.110,0.055,0.000,0.000,60.000,6.000,0.000,0.000,0.000,0.000: // measure 0
0000
0000
0000
0000
,  // measure 1
0000
0000
0000
0000
,  // measure 2
0000
0000
0000
0000
,  // measure 3
0000
0000
0000
0000
,  // measure 4
1000
0000
0000
0000
,  // measure 5
0001
0000
0000
0000
,  // measure 6
1000
0000
0000
0000
,  // measure 7
0001
0000
0000
0000
,  // measure 8
0100
0000
0000
0000
,  // measure 9
0100
0000
0000
0000
,  // measure 10
0010
0000
0000
0000
,  // measure 11
0010
0000
0000
0000
,  // measure 12
1001
0000
0000
0000
,  // measure 13
0000
0000
0000
0000
,  // measure 14
0010
0000
0000
0000
,  // measure 15
0100
0000
0000
0000
,  // measure 16
0010
0000
0000
0000
,  // measure 17
0000
0000
0000
0000
,  // measure 18
1000
0000
0000
0000
,  // measure 19
0001
0000
1000
0000
,  // measure 20
1001
0000
0000
0000
,  // measure 21
0001
0000
0000
0000
,  // measure 22
0010
0000
0000
0000
,  // measure 23
0001
0000
0000
0000
,  // measure 24
1000
0000
0000
0000
,  // measure 25
0100
0000
0000
0000
,  // measure 26
1000
0000
0000
0000
,  // measure 27
0010
0000
0000
0000
,  // measure 28
0110
0000
0000
0000
,  // measure 29
0000
0000
0000
0000
,  // measure 30
0001
0000
0000
0000
,  // measure 31
1000
0000
0001
0000
,  // measure 32
1000
0000
0000
0000
,  // measure 33
0001
0000
0000
0000
,  // measure 34
1000
0000
0000
0000
,  // measure 35
1001
0000
0000
0000
,  // measure 36
0100
0000
0000
0000
,  // measure 37
0010
0000
0000
0000
,  // measure 38
0100
0000
0000
0000
,  // measure 39
1000
0000
0001
0000
,  // measure 40
1000
0000
0000
0000
,  // measure 41
0010
0000
0000
0000
,  // measure 42
0100
0000
0000
0000
,  // measure 43
0001
0000
1000
0000
,  // measure 44
0001
0000
0000
0000
,  // measure 45
0010
0000
0000
0000
,  // measure 46
0100
0000
0000
0000
,  // measure 47
1000
0000
0001
0000
,  // measure 48
1000
0000
0000
0000
,  // measure 49
0010
0000
0000
0000
,  // measure 50
0100
0000
0000
0000
,  // measure 51
0001
0000
0001
0000
,  // measure 52
1001
0000
0000
0000
,  // measure 53
1000
0000
0000
0000
,  // measure 54
0001
0000
0000
0000
,  // measure 55
1000
0000
0000
0000
,  // measure 56
0100
0000
0000
0000
,  // measure 57
0010
0000
0000
0000
,  // measure 58
0001
0000
0000
0000
,  // measure 59
1000
0000
0000
1001
;
