#TITLE:Sunny Day Sunday;
#SUBTITLE:;
#ARTIST:センチメンタル・バス;
#TITLETRANSLIT:;
#SUBTITLETRANSLIT:;
#ARTISTTRANSLIT:SENTIMENTAL BUS;
#GENRE:;
#CREDIT:DigiMindAxel;
#BANNER:Sunny Day Sunday.png;
#BACKGROUND:Sunny Day Sunday-bg.png;
#LYRICSPATH:Sunny Day Sunday.lrc;
#CDTITLE:DigiMindAxel original simfile.png;
#MUSIC:Sunny Day Sunday.mp3;
#METERTYPE:DDR X;
#OFFSET:-8.925;
#SAMPLESTART:8.823;
#SAMPLELENGTH:12.000;
#SELECTABLE:YES;
#BPMS:0.000=170.000
;
#STOPS:50.000=0.353
;
#BGCHANGES:-23.000=Sunny Day Sunday.avi=1.000=1=0=0,
203.000=Sunny Day Sunday-bg.png=1.000=1=0=1,
99999=-nosongbg-=1.000=0=0=0 // don't automatically add -songbackground-
;
#KEYSOUNDS:;
#ATTACKS:;

//---------------dance-single - ----------------
#NOTES:
     dance-single:
     :
     Easy:
     4:
     0.218,0.267,0.106,0.211,0.000,103.000,9.000,18.000,0.000,0.000,0.000,0.218,0.267,0.106,0.211,0.000,103.000,9.000,18.000,0.000,0.000,0.000:
2002
0000
3003
0000
,
0220
0000
0330
0000
,
2002
0000
3003
0000
,
1000
0001
1000
0001
,
1000
0000
0010
0000
,
0100
0000
0010
0000
,
1000
0000
0001
0000
,
1000
0000
0001
0000
,
0010
0000
0100
0000
,
0010
0000
0001
0000
,
1000
0000
0001
0000
,
1000
0000
1000
0000
,
1000
0001
1000
0010
,
0000
0100
0000
0010
,
0000
0010
0000
1000
,
0000
0001
0000
1000
,
0000
1000
0000
0001
,
0000
0010
0000
0001
,
0000
0001
0000
2000
,
0000
3002
0000
1003
,
0000
0000
0000
0010
,
0000
0100
0000
0001
,
0000
0010
0000
0100
,
0000
0010
0000
0001
,
0000
0001
0000
1000
,
0000
0100
0000
0010
,
0000
0100
0000
2000
,
0000
3002
0000
1003
,
0000
0001
0000
2002
,
0000
3003
0000
0220
,
0000
0330
0000
2002
,
0000
3003
0000
0010
,
0100
0010
0100
0001
,
0000
0010
0000
0100
,
0000
0010
0000
0001
,
0000
1000
0000
0001
,
0000
1000
0000
0100
,
0000
0010
0000
0100
,
0000
1000
0000
0001
,
0000
0001
0000
1000
,
0000
0001
0000
0200
,
0000
0000
0300
0110
,
0000
0010
0000
0100
,
0001
0100
0000
0010
,
0000
1000
0000
0001
,
0000
0000
0000
0110
,
0000
0010
0000
1000
,
0010
1000
0000
0100
,
0000
0010
0000
0001
,
1000
0001
1000
0020
,
0000
0130
0110
0000
;

//---------------dance-single - ----------------
#NOTES:
     dance-single:
     :
     Medium:
     8:
     0.409,0.385,0.446,0.199,0.035,189.000,38.000,17.000,0.000,0.000,0.000,0.409,0.385,0.446,0.199,0.035,189.000,38.000,17.000,0.000,0.000,0.000: // measure 0
1001
0001
1001
0000
,  // measure 1
0110
0100
0110
0000
,  // measure 2
1001
1000
1001
1000
,  // measure 3
0110
0010
0110
0100
,  // measure 4
0001
0010
0100
1000
,  // measure 5
0020
0000
0130
0001
,  // measure 6
1000
0100
0010
0001
,  // measure 7
0200
0000
0310
1000
,  // measure 8
0100
0010
0001
1000
,  // measure 9
0200
0000
0310
0100
,  // measure 10
1000
0010
0100
0010
,  // measure 11
0100
0100
0100
0100
,  // measure 12
1001
1001
1001
0010
,  // measure 13
0100
0010
0000
1000
,  // measure 14
0001
1000
0000
0100
,  // measure 15
1000
0100
1000
0001
,  // measure 16
0010
0001
0010
0100
,  // measure 17
0010
0100
0000
1000
,  // measure 18
0001
1000
0000
0010
,  // measure 19
0100
0010
0100
0001
,  // measure 20
0010
0100
1000
0001
,  // measure 21
0200
0001
0301
1000
,  // measure 22
0200
1000
1300
0002
,  // measure 23
0100
0103
0010
0200
,  // measure 24
0010
0310
1000
0100
,  // measure 25
0020
0001
0031
0100
,  // measure 26
0020
1000
1030
0110
,  // measure 27
0000
0110
0000
0100
,  // measure 28
0100
0100
0100
1001
,  // measure 29
0110
1001
0000
0110
,  // measure 30
1001
0110
0000
1001
,  // measure 31
0110
1001
1000
0001
,  // measure 32
0110
0100
0110
0100
,  // measure 33
0010
0000
0000
1000
0000
1000
0001
0000
0000
0200
0000
0000
,  // measure 34
0000
0300
0001
1000
,  // measure 35
0010
0000
0000
1000
0000
1000
0001
0000
0000
0200
0000
0000
,  // measure 36
0000
0300
0010
0100
,  // measure 37
0010
0000
0000
1000
0000
1000
0001
0000
0000
0200
0000
0000
,  // measure 38
0000
0000
0000
0310
0000
0000
1000
0000
0001
0100
0000
0000
,  // measure 39
0010
0100
0010
1000
,  // measure 40
1000
1000
1000
0210
,  // measure 41
0320
0230
0310
0110
,  // measure 42
0101
0110
0101
1000
,  // measure 43
0100
1000
0001
0100
,  // measure 44
0110
0010
0110
1000
,  // measure 45
1001
0010
0100
0110
,  // measure 46
1010
0110
1010
0110
,  // measure 47
0001
0010
0001
2000
,  // measure 48
0000
3200
0000
0310
,  // measure 49
0100
0000
0000
1000
0000
0000
0001
0000
0000
0100
0000
0010
,  // measure 50
0100
0000
0010
0100
0000
0000
1001
0000
0000
0000
0000
0000
;

//---------------dance-single - ----------------
#NOTES:
     dance-single:
     :
     Hard:
     11:
     0.597,0.563,0.364,0.305,0.616,299.000,31.000,26.000,0.000,0.000,0.000,0.597,0.563,0.364,0.305,0.616,299.000,31.000,26.000,0.000,0.000,0.000: // measure 0
1000
0001
1000
0001
1000
0001
1000
0000
0000
1001
0000
0000
,  // measure 1
0010
0100
0010
0100
0010
0100
0010
0000
0000
0110
0000
0000
,  // measure 2
0001
1000
0001
1000
0001
1000
0001
1000
0001
1000
0001
1000
,  // measure 3
0001
0011
0100
1100
,  // measure 4
1001
0000
0000
0001
0000
0000
0100
0000
0001
0100
0000
0001
,  // measure 5
2000
0100
0000
3100
,  // measure 6
1000
0000
0000
1000
0000
0000
0010
0000
1000
0010
0000
1000
,  // measure 7
0002
0000
0000
0010
0000
0000
0000
0000
0000
0013
0000
0001
,  // measure 8
1000
0000
0000
1000
0000
0000
0010
0000
0100
0010
0000
1000
,  // measure 9
0200
0000
0000
0000
0000
0000
0310
0000
0000
0001
0000
1000
,  // measure 10
0002
0013
0200
1300
,  // measure 11
0010
0010
0010
0010
,  // measure 12
1000
0000
0000
0000
0001
0000
0000
0000
1000
0000
0000
0000
0001
0000
0000
0000
1000
0000
0000
0000
0001
0000
0000
0000
2000
3000
0000
0000
0000
0000
0000
0000
0000
0000
0000
0000
0001
0000
0000
0000
0000
0000
0000
0000
1000
0000
0000
0000
,  // measure 13
0010
0000
1000
0010
0000
1000
0010
0000
0000
1000
0000
0001
,  // measure 14
0010
0000
0001
0010
0000
0001
0010
0000
0000
0100
0000
1000
,  // measure 15
0001
0000
1000
0001
0000
1000
0001
0000
0010
0100
0000
0010
,  // measure 16
0100
0000
0010
0100
0000
0010
0100
0000
0000
1000
0000
0001
,  // measure 17
0100
0000
0001
0100
0000
0001
0100
0000
0000
0001
0000
1000
,  // measure 18
0100
0000
1000
0100
0000
1000
0100
0000
0000
0012
0000
0000
,  // measure 19
1003
2010
3001
0110
,  // measure 20
0100
0000
0000
0010
0100
0010
0100
0000
0000
0002
0000
0000
,  // measure 21
0103
0000
1000
0200
0000
0000
0301
0000
0000
1000
0000
0000
,  // measure 22
0100
0000
0001
0200
0000
0000
1300
0000
0000
0001
0000
0000
,  // measure 23
0010
0000
1000
0020
0000
0000
0031
0000
0000
1000
0000
0000
,  // measure 24
0010
0000
0001
0020
0000
0000
1030
0000
0000
0001
0000
0000
,  // measure 25
0100
0000
1000
0200
0000
0000
0310
0000
0000
1000
0000
0000
,  // measure 26
0100
0000
0001
0200
0000
0000
0310
0000
0000
2002
0000
0000
,  // measure 27
3003
0220
0330
0100
,  // measure 28
0100
0000
0000
0100
0000
0000
0100
0000
0000
0001
0100
0001
,  // measure 29
0100
0010
1000
0010
0000
0000
1010
0000
0000
1000
0100
1000
,  // measure 30
0100
0010
0001
0010
0000
0000
0011
0000
0000
0001
1000
0001
,  // measure 31
1000
0001
1000
0010
0100
0010
0100
0010
0100
0010
0000
0000
,  // measure 32
1010
0100
0101
1001
,  // measure 33
1000
0000
1000
0001
0000
0001
0100
0000
0100
0020
0000
0000
,  // measure 34
1000
0000
0000
0000
0000
0000
1030
0000
1000
0001
0000
0000
,  // measure 35
0010
0000
0010
0001
0000
0001
1000
0000
1000
0200
0000
0000
,  // measure 36
0010
0000
0000
0000
0000
0000
0310
0000
0100
1000
0000
0000
,  // measure 37
0001
0000
0001
0100
0000
0100
0010
0000
0010
2000
0000
0000
,  // measure 38
0001
0000
0000
3001
0000
0000
1000
0000
1000
0100
0000
0100
,  // measure 39
0010
0000
0010
0001
0000
0001
1000
0000
1000
0001
0000
0000
,  // measure 40
1001
0000
0000
1001
0000
0000
1001
0000
0000
0100
0010
0100
,  // measure 41
0010
1000
0100
1000
0100
0010
0001
0010
0001
1000
0000
0000
,  // measure 42
1100
0000
0000
0101
0000
0000
1100
0000
0000
0001
0000
0100
,  // measure 43
0010
0000
1000
0100
0000
0000
1001
0000
0000
0200
0000
0000
,  // measure 44
1300
0000
0000
0200
0000
0000
0301
1000
0100
1000
0000
0000
,  // measure 45
1001
0100
0110
1001
,  // measure 46
0101
0000
0000
1100
0000
0000
0101
0000
0000
1000
0000
0010
,  // measure 47
0100
0000
0001
0010
0000
0000
1001
0000
0000
0201
0000
0000
,  // measure 48
0000
0320
0000
1030
,  // measure 49
0010
0000
0000
0001
0000
0000
0010
0000
0000
1000
0001
1000
,  // measure 50
0001
0010
0100
1000
0000
0000
1001
0000
0000
0000
0000
0000
;

//---------------dance-single - ----------------
#NOTES:
     dance-single:
     :
     Beginner:
     2:
     0.111,0.119,0.082,0.000,0.000,59.000,7.000,0.000,0.000,0.000,0.000,0.111,0.119,0.082,0.000,0.000,59.000,7.000,0.000,0.000,0.000,0.000:
0000
0000
0000
0000
,
0000
0000
0000
0000
,
0000
0000
0000
0000
,
0000
0000
0000
0000
,
0001
0000
1000
0000
,
0001
0000
0000
0000
,
1000
0000
0001
0000
,
1000
0000
0000
0000
,
0001
0000
1000
0000
,
0001
0000
0000
0000
,
1000
0000
0001
0000
,
1000
0000
0000
0000
,
0000
0000
0000
0010
,
0000
0000
0000
0010
,
0000
0000
0000
0010
,
0000
0000
0000
0010
,
0000
0000
0000
0100
,
0000
0000
0000
0100
,
0000
0000
0000
1001
,
0000
0000
0000
0001
,
0000
0000
0000
1000
,
0000
0000
0000
0100
,
0000
0000
0000
0010
,
0000
0000
0000
0001
,
0000
0000
0000
0010
,
0000
0000
0000
0100
,
0000
0000
0000
1001
,
0000
0000
0000
0001
,
0000
0000
0000
1001
,
0000
0000
0000
1000
,
0000
0000
0000
1001
,
0000
0000
0000
0010
,
0000
0010
0000
0100
,
0000
0010
0000
0100
,
0000
0000
0000
0010
,
0000
0100
0000
0010
,
0000
0000
0000
0100
,
0000
0010
0000
0100
,
0000
0000
0000
0001
,
0000
1000
0000
0001
,
0000
0000
0000
0000
,
0000
0000
0000
1001
,
0000
1000
0000
0001
,
0000
0000
0000
1000
,
0000
0001
0000
1000
,
0000
0000
0000
0001
,
0000
1000
0000
0001
,
0000
0000
0000
1001
,
0000
0000
0000
0100
,
0000
0100
0000
0100
,
0000
0000
0110
0000
;
