#TITLE:Starlight Express;
#SUBTITLE:;
#ARTIST:ginkiha;
#TITLETRANSLIT:;
#SUBTITLETRANSLIT:;
#ARTISTTRANSLIT:;
#CREDIT:DigiMindAxel;
#BANNER:Starlight Express.png;
#BACKGROUND:Starlight Express-bg.png;
#LYRICSPATH:;
#CDTITLE:SOUND VOLTEX.png;
#MUSIC:Starlight Express.mp3;
#METERTYPE:DDR X;
#OFFSET:-9.715;
#SAMPLESTART:66.340;
#SAMPLELENGTH:12.000;
#SELECTABLE:YES;
#BPMS:0.000=200.000,172.000=230.000,176.000=275.000,180.000=320.000,184.000=399.998,192.000=200.000;
#STOPS:;
#BGCHANGES:;

//---------------dance-single - ----------------
#NOTES:
     dance-single:
     :
     Easy:
     7:
     0.327,0.327,0.049,0.118,0.000:
1000
1000
1000
0000
,
0001
1000
0001
0010
,
0001
1000
0000
0000
,
0100
1000
0001
1000
,
0100
0010
0000
0000
,
0001
1000
0100
1000
,
0001
0100
0001
0100
,
0001
1000
0100
1000
,
0100
0010
0001
0000
,
1000
1000
1001
0000
,
0001
1000
0001
1000
,
0100
1000
0100
1000
,
0001
1000
0001
1000
,
0010
1000
0010
1000
,
0100
0010
0100
0010
,
0001
1000
0001
1000
,
0001
0100
0001
0100
,
0010
0100
0010
0100
,
0001
0010
0100
1000
,
0100
0010
0001
0000
,
1000
0100
0010
0001
,
0010
0100
1000
0000
,
0010
0100
0010
0100
,
0001
1000
0001
1000
,
0001
0010
0100
0010
,
0100
1000
0100
1000
,
0001
0000
1000
0001
,
2000
0000
0000
0000
,
3200
0000
0000
0000
,
0320
0000
0000
0000
,
0032
0000
0000
0000
,
0023
0000
0000
0000
,
0230
0000
0000
0000
,
2300
0000
0000
0000
,
3002
0000
0000
0000
,
1003
0001
1000
0000
,
0100
1000
0100
0000
,
0010
0001
0010
0000
,
0001
1000
0001
0000
,
0100
0010
0100
0000
,
0001
1000
0001
0000
,
1000
0100
0010
0001
,
1000
0001
1000
0000
,
0100
0000
1000
0000
,
0100
0000
0010
0000
,
0100
0000
0010
0000
,
0002
0000
0000
0000
,
0000
0000
0000
0000
,
1003
0000
0000
0000
,
0001
1000
0001
0000
,
0010
0001
0010
0001
,
1000
0100
1000
0000
,
0010
0100
0010
0100
,
0001
1000
0001
0000
,
0010
0001
0010
0001
,
0100
0010
0100
0000
,
0010
1000
0010
1000
,
0001
0010
0001
0010
,
0001
1000
0001
1000
,
0100
1000
0100
1000
,
0001
1000
0001
1000
,
0100
0010
0100
0010
,
0001
0100
0001
1000
,
0100
0010
0001
0010
,
0100
0100
0100
0000
,
1001
0000
0100
0110
,
0020
0000
0000
0000
,
0130
0001
0000
0000
,
2000
0000
0000
0000
,
3100
1000
0000
0000
,
0020
0000
0000
0000
,
0130
0001
0000
0000
,
1001
0000
1000
0000
,
0001
1000
0001
0000
,
1001
0000
0000
0000
;

//---------------dance-single - ----------------
#NOTES:
     dance-single:
     :
     Medium:
     10:
     0.491,0.508,0.206,0.098,0.000:
0001
1000
1001
0000
,
1000
0000
0001
0100
0000
0010
0000
0010
,
0000
1000
0000
1000
0001
0000
0010
0000
,
0100
0000
1000
0001
0000
0001
0000
0010
,
0000
0010
0100
0000
1000
0000
0001
0000
,
1000
0001
0000
0001
0000
0010
0000
0010
,
0000
0100
0000
0100
0000
1000
0000
1000
,
0000
0001
0000
1001
0000
1001
0000
1001
,
0000
0100
0000
0100
0010
0100
0000
0000
,
1001
0000
0001
0000
0001
1000
0100
0000
,
1000
0100
0001
0100
,
1000
0000
0001
0000
1000
0001
1000
0000
,
0001
0010
1000
0010
,
0001
0000
1000
0000
0001
1000
0001
0000
,
0100
0001
0100
0000
0010
1000
0010
0000
,
1000
0000
0100
0000
0010
0001
0010
0000
,
0001
0000
0010
0000
0100
1000
0100
0000
,
1000
0001
1000
0001
1000
0001
1000
0000
,
0100
1000
0100
1000
0100
0000
0100
0000
,
0010
0001
0010
0001
0010
0000
0010
0000
,
0001
1000
0001
1000
0001
0000
0001
0000
,
1000
0001
1000
0001
1000
0000
1000
0000
,
0010
1000
0010
0000
0100
0001
0100
0000
,
0001
1000
0001
0000
1000
0001
1000
0001
,
1000
0100
1000
0000
0001
0010
0001
0000
,
0100
0010
0100
0010
0100
0010
0100
0000
,
0000
0001
0000
0001
0000
1000
0001
1000
,
0200
0000
0000
0000
,
0320
0000
0032
0000
,
0203
0000
0000
0000
,
0320
0000
2030
0000
,
3100
0000
0010
0000
,
0100
0000
0010
0000
,
0001
0000
1000
0000
,
0001
0000
1000
0000
,
0100
1000
0001
1000
,
0100
0010
0001
0100
,
0001
1000
0100
1000
,
0001
0010
0100
1000
,
0010
0100
0010
1000
,
0100
0010
0001
0010
,
0100
0010
0100
0010
,
0100
1000
0100
0010
,
0001
1000
0001
1000
,
0010
0100
0010
0100
,
0010
0000
0110
0000
,
2002
0000
0000
0000
,
0000
0000
0000
3003
,
2002
0000
0000
3003
,
1000
0000
0001
0010
0000
0001
0000
0001
,
0000
1000
0000
1000
0100
0000
1000
0000
,
0001
0000
1000
0010
0000
1000
0000
1000
,
0000
0001
0000
0001
0100
0000
0010
0000
,
1000
0001
0000
0001
0000
1000
0100
1000
,
0000
1000
0000
0001
1000
0001
1000
0001
,
0000
1000
0000
1001
0000
1001
0000
1001
,
0000
0010
0000
0010
0000
0000
0110
0000
,
1000
0001
1000
0100
0000
1000
0000
1000
,
0000
0001
0000
0001
0100
0010
0100
0000
,
0001
1000
0001
0100
0000
0001
0000
0001
,
0000
1000
0000
1000
0010
0100
0010
0000
,
1000
0100
1000
0100
1000
0000
0100
0000
,
0010
0001
0010
0001
0010
0000
0100
0000
,
1000
0001
1000
0100
0000
1000
0000
1000
,
0000
0001
0000
0001
0010
0000
0000
0000
,
1001
0000
0000
0000
0001
1000
0010
0000
,
0100
0100
0100
0100
,
0100
0010
0100
0010
1000
0000
1000
0000
,
1001
0001
0001
0001
,
0001
0100
0001
0100
0010
0000
0010
0000
,
1001
1000
1000
1000
,
1000
0100
1000
0100
0010
0000
0010
0000
,
1001
0001
1001
1000
,
1001
0110
1001
0000
,
1001
0000
0000
0000
;

//---------------dance-single - ----------------
#NOTES:
     dance-single:
     :
     Hard:
     16:
     0.828,0.944,0.314,0.177,0.334: // measure 1
1001
1001
1001
0001
,  // measure 2
1000
0100
1000
0001
0000
0100
0000
1000
,  // measure 3
0000
0100
0000
0010
1000
0001
0010
0100
,  // measure 4
1000
0010
1000
0001
0000
0100
0000
1000
,  // measure 5
0000
0100
0010
1000
0100
0010
0001
1000
,  // measure 6
0001
0100
0001
1000
0000
0010
0000
0001
,  // measure 7
0000
0010
0000
0100
0001
0010
0100
1000
,  // measure 8
0001
0100
0001
1001
0000
0110
0000
1001
,  // measure 9
0000
0110
0000
0010
0200
0000
0310
0000
,  // measure 10
1000
0100
1000
0100
1000
0001
1001
0000
,  // measure 11
0001
0010
0100
0010
0001
0010
0100
0000
,  // measure 12
1000
0001
0100
0001
1000
0100
0010
0000
,  // measure 13
0100
1000
0010
1000
0100
1000
0010
0000
,  // measure 14
0100
0001
0010
0001
0100
0001
0010
0000
,  // measure 15
1001
0000
1000
0000
0100
0010
0001
0010
,  // measure 16
0100
0000
0110
0000
0010
1000
0100
1000
,  // measure 17
0010
0000
0110
0000
0100
0001
0010
0100
,  // measure 18
1000
0100
0001
0100
1000
0010
0001
0010
,  // measure 19
1000
0001
1000
0001
1000
0001
1000
0001
1000
0000
0010
0000
0100
0000
0010
0000
,  // measure 20
1000
0001
1000
0001
1000
0001
1000
0001
1000
0001
1000
0000
0001
0000
0000
0000
,  // measure 21
1000
0010
1000
0010
1000
0000
0100
0000
0010
0000
0001
0000
1000
0000
0000
0000
,  // measure 22
0100
0000
0010
0000
0001
1000
0001
1000
0001
0000
0100
0000
0010
0000
0000
0000
,  // measure 23
1001
0000
0000
0000
1001
0000
0000
0000
0001
0100
0001
0100
0001
1000
0010
1000
,  // measure 24
0010
0000
1001
0000
1000
1000
0100
0100
,  // measure 25
1000
0001
0100
0001
1000
0100
0010
0100
,  // measure 26
1000
0001
1000
0001
1000
0001
1000
0000
0010
0000
0100
0000
0101
0000
0000
0000
,  // measure 27
2000
0001
0000
0001
0000
3001
1000
0100
,  // measure 28
1200
1000
1000
1300
,  // measure 29
0020
0100
0230
0001
,  // measure 30
0302
1000
1000
1003
,  // measure 31
0200
1000
0320
0001
,  // measure 32
0032
1000
2003
0001
,  // measure 33
0001
3001
2000
3020
,  // measure 34
0230
0001
0001
0301
,  // measure 35
1000
0100
1000
0100
1000
0001
1001
0000
,  // measure 36
0001
1000
0100
1000
0001
1000
0100
0000
,  // measure 37
0010
0001
1000
0010
1000
0001
0100
0001
,  // measure 38
0010
0100
1000
0001
0010
0100
1000
0001
,  // measure 39
0000
0001
1000
0010
0100
0001
1000
0010
,  // measure 40
0100
0001
0010
0100
0010
0001
1000
0000
,  // measure 41
0001
1000
0010
0100
0010
1000
0001
0000
,  // measure 42
1000
0001
0010
0000
0010
0001
1000
0010
,  // measure 43
0000
0010
1000
0100
0010
0001
0010
0100
,  // measure 44
1000
0001
0100
0010
1000
0010
0100
0001
,  // measure 45
0000
0001
0100
0010
1000
0010
0100
0001
,  // measure 46
0000
1000
0001
1000
0000
0001
1000
0001
,  // measure 47
0000
0010
0100
0010
0100
0010
0100
0010
,  // measure 48
0100
0010
0100
0010
0100
0010
0100
0010
,  // measure 49
0100
0100
0100
0110
,  // measure 50
0001
0000
1000
0000
0100
0000
1000
0001
0000
0000
0100
0001
0000
0000
1000
0010
,  // measure 51
0000
2000
0000
3100
0010
0001
0010
0100
,  // measure 52
1000
0001
0010
0011
0000
1100
0000
1001
,  // measure 53
0000
0001
1000
0100
0010
0001
0010
0100
,  // measure 54
1000
0000
0001
0000
0100
0000
0001
1000
0000
0000
0100
1000
0000
0000
0001
0010
,  // measure 55
0000
0002
0000
0103
0010
1000
0010
0100
,  // measure 56
0001
1000
0100
1100
0000
0011
0000
1001
,  // measure 57
0000
0110
0000
0010
0200
0000
0310
0000
,  // measure 58
0001
0000
0100
0000
0001
0000
1000
0001
1000
0000
0100
1000
0100
0000
1000
0001
,  // measure 59
1000
0002
0000
1003
0010
0001
0010
1000
,  // measure 60
0001
1000
0001
1000
0001
0010
0000
0001
0010
0000
0100
1000
0000
0100
1000
0001
,  // measure 61
1000
0001
1000
0001
0100
0010
0001
0010
0100
1000
0010
1000
0000
0001
0100
0000
,  // measure 62
0001
1000
0001
0000
1000
0010
0000
1000
0010
0000
0100
0001
0000
0100
0001
0000
,  // measure 63
1000
0100
0010
0001
0010
0100
1000
0001
0100
0001
1000
0100
,  // measure 64
1000
1000
0001
0101
0000
1010
0000
1001
,  // measure 65
0010
0100
0010
0100
0010
0100
0010
0100
0020
0000
0000
0000
0130
0000
0000
0000
,  // measure 66
0001
0100
0001
0100
0001
1000
1001
0000
,  // measure 67
1000
1000
0100
0100
1000
1000
0100
0010
,  // measure 68
0001
0100
1000
0100
0001
0001
1000
1000
,  // measure 69
0001
0001
0100
0100
0001
0001
0010
0100
,  // measure 70
1000
0010
0001
0010
1000
1000
0001
0001
,  // measure 71
1000
1000
0010
0010
1000
1000
0010
0100
,  // measure 72
0001
0100
1000
0100
0001
0001
1000
1000
,  // measure 73
0010
0100
0010
0100
0010
0100
0010
0100
0010
0100
0010
0100
0010
0100
0010
0100
,  // measure 74
0010
0000
1100
0000
0011
0000
0001
1000
,  // measure 75
1001
0000
0000
0000
;

//---------------dance-single - ----------------
#NOTES:
     dance-single:
     :
     Beginner:
     5:
     0.158,0.290,0.069,0.000,0.000:
1001
0000
0000
0000
,
1000
0000
0001
0000
,
1000
0000
0100
0000
,
1000
0000
0001
0000
,
0100
0000
0000
0000
,
0001
0000
1000
0000
,
0100
0000
1000
0000
,
0001
0000
0010
0000
,
0001
0000
0000
0000
,
1001
0000
0000
0000
,
0100
0000
0100
0000
,
0010
0000
0010
0000
,
0100
0000
0100
0000
,
0010
0000
0010
0000
,
0001
0000
0001
0000
,
1000
0000
1000
0000
,
0001
0000
0001
0000
,
1000
0000
0001
0000
,
1000
0000
0000
0000
,
0100
0000
0000
0000
,
0010
0000
0000
0000
,
0001
0000
0000
0000
,
0010
0000
0000
0000
,
0100
0000
0000
0000
,
1000
0000
0001
0000
,
1000
0000
0000
0000
,
1001
0000
0000
0000
,
0001
0000
0000
0000
,
0000
0000
0000
0000
,
0010
0000
0000
0000
,
0000
0000
0000
0000
,
0100
0000
0000
0000
,
0000
0000
0000
0000
,
1000
0000
0000
0000
,
0000
0000
0000
0000
,
0100
0000
0010
0000
,
0100
0000
0000
0000
,
1000
0000
0001
0000
,
1000
0000
0000
0000
,
0001
0000
1000
0000
,
0001
0000
0000
0000
,
0100
0000
0001
0000
,
0100
0000
0000
0000
,
0010
0000
0000
0000
,
0010
0000
0000
0000
,
0010
0000
0000
0000
,
0010
0000
0000
0000
,
0000
0000
0000
0000
,
0000
0000
0000
0000
,
0110
0000
0000
0000
,
0010
0000
0100
0000
,
0010
0000
0000
0000
,
1000
0000
0100
0000
,
1000
0000
1000
0000
,
0001
0000
0001
0000
,
0100
0000
0001
0000
,
0100
0000
0000
0000
,
0010
0000
1000
0000
,
0001
0000
0001
0000
,
0010
0000
0001
0000
,
0100
0000
0010
0000
,
1000
0000
1000
0000
,
0100
0000
0010
0000
,
0001
0000
1000
0000
,
0001
0000
0000
0000
,
1001
0000
0000
0000
,
1000
0000
1000
0000
,
1000
0000
0000
0000
,
0001
0000
0001
0000
,
0001
0000
0000
0000
,
1000
0000
1000
0000
,
1000
0000
0000
0000
,
1001
0000
0001
0000
,
1000
0001
1000
0000
,
1001
0000
0000
0000
;
