#TITLE:Spring Pain;
#SUBTITLE:;
#ARTIST:seiya-murai feat. ALT;
#TITLETRANSLIT:;
#SUBTITLETRANSLIT:;
#ARTISTTRANSLIT:;
#GENRE:;
#CREDIT:DigiMindAxel;
#BANNER:Spring Pain.png;
#BACKGROUND:Spring Pain-bg.png;
#LYRICSPATH:Spring Pain.lrc;
#CDTITLE:GuitarFreaksXG & DrumManiaXG.png;
#MUSIC:Spring Pain.mp3;
#OFFSET:-12.070;
#SAMPLESTART:22.308;
#SAMPLELENGTH:12.000;
#SELECTABLE:YES;
#METERTYPE:DDR X;
#BPMS:0.000=167.000
;
#STOPS:
;
#BGCHANGES:;
#KEYSOUNDS:;
#ATTACKS:;

//---------------dance-single - ----------------
#NOTES:
     dance-single:
     :
     Easy:
     5:
     0.235,0.261,0.114,0.044,0.000,169.000,13.000,5.000,0.000,0.000,0.000,0.235,0.261,0.114,0.044,0.000,169.000,13.000,5.000,0.000,0.000,0.000: // measure 0
0001
1000
0000
0001
,  // measure 1
0000
1000
0000
0001
,  // measure 2
1000
0001
0000
0010
,  // measure 3
0000
0100
0000
1000
,  // measure 4
0001
1000
0000
0100
,  // measure 5
0000
0010
0000
0001
,  // measure 6
1001
0000
0000
0000
,  // measure 7
0000
0000
0000
1001
,  // measure 8
0000
0010
0100
0010
,  // measure 9
0000
1000
0001
1000
,  // measure 10
0000
0100
1000
0100
,  // measure 11
0000
0000
1000
0000
0001
0000
0000
1001
,  // measure 12
0000
0001
1000
0001
,  // measure 13
0000
0100
0001
0100
,  // measure 14
0000
0010
1000
0010
,  // measure 15
0000
0100
0010
0110
,  // measure 16
0000
0001
1000
0100
,  // measure 17
0000
1000
0001
1000
,  // measure 18
0000
0100
1000
0001
,  // measure 19
0000
0000
1000
0000
0001
0000
0000
1001
,  // measure 20
0000
0010
0100
0010
,  // measure 21
0000
0100
0001
0010
,  // measure 22
0110
0000
0000
0100
0000
0000
0100
0000
,  // measure 23
0000
0100
0000
0000
0100
0000
0000
0000
,  // measure 24
0010
0000
0010
0000
,  // measure 25
1000
0000
1000
0000
,  // measure 26
0001
0000
0001
0000
,  // measure 27
1000
0000
1000
0000
,  // measure 28
0100
0000
0100
0000
,  // measure 29
0010
0000
0010
0000
,  // measure 30
0001
0000
0001
0000
,  // measure 31
0100
0000
0100
0000
,  // measure 32
0110
0000
0010
0000
,  // measure 33
1000
0000
1000
0000
,  // measure 34
0001
0000
0001
0000
,  // measure 35
0100
0000
0100
0000
,  // measure 36
0010
0000
0010
0000
,  // measure 37
1000
0000
1000
0000
,  // measure 38
0001
1000
0001
1000
,  // measure 39
0001
1000
0001
1001
,  // measure 40
0000
0100
0010
0100
,  // measure 41
0000
1000
0100
1000
,  // measure 42
0000
0010
0100
0010
,  // measure 43
0000
0000
1000
0000
0001
0000
0000
1001
,  // measure 44
0000
1000
0100
1000
,  // measure 45
0000
0001
0100
0001
,  // measure 46
0000
0010
0001
0010
,  // measure 47
0001
1000
0001
1001
,  // measure 48
0000
0100
0001
0100
,  // measure 49
0000
0010
0100
0010
,  // measure 50
0000
1000
0010
1000
,  // measure 51
0000
0000
0001
0000
1000
0000
0000
1001
,  // measure 52
0000
0010
0001
0010
,  // measure 53
0000
0001
1000
0001
,  // measure 54
1001
0000
0000
1000
0000
0000
1000
0000
,  // measure 55
0000
1000
0000
0000
1000
0000
0002
0000
,  // measure 56
0000
0100
0000
0100
,  // measure 57
0000
0100
0000
0103
,  // measure 58
0020
1000
0000
1000
,  // measure 59
0000
1000
0000
1030
,  // measure 60
0002
1000
0000
1000
,  // measure 61
0000
1000
0000
1003
,  // measure 62
0010
0000
0000
0010
0000
0000
0010
0000
,  // measure 63
0000
0010
0000
0000
0010
0000
0220
0000
,  // measure 64
0000
0000
0000
0000
,  // measure 65
0000
0000
0000
0000
,  // measure 66
0330
0000
0000
0000
;

//---------------dance-single - ----------------
#NOTES:
     dance-single:
     :
     Medium:
     7:
     0.393,0.435,0.211,0.088,0.000,279.000,24.000,10.000,0.000,0.000,0.000,0.393,0.435,0.211,0.088,0.000,279.000,24.000,10.000,0.000,0.000,0.000: // measure 0
1000
0100
1000
0100
,  // measure 1
0010
0001
0010
0001
,  // measure 2
1000
0010
1000
0010
,  // measure 3
0100
0001
0100
0001
,  // measure 4
1000
0001
1000
0100
,  // measure 5
0010
0001
1000
0001
,  // measure 6
1001
0000
0000
0000
,  // measure 7
0000
0000
0000
2001
,  // measure 8
0100
0001
0100
0001
,  // measure 9
0100
0001
3100
1000
,  // measure 10
0100
0000
0010
0000
0001
1000
0001
0000
,  // measure 11
1000
0000
0001
0000
0100
0000
0000
1002
,  // measure 12
0000
0100
1000
0100
,  // measure 13
1000
0103
0001
0100
,  // measure 14
0010
0000
1000
0001
0000
1000
0001
0000
,  // measure 15
1000
0001
0000
1000
0001
0000
2001
0000
,  // measure 16
0010
0001
0010
0001
,  // measure 17
0010
0000
3001
0000
1000
0100
1000
0000
,  // measure 18
0010
0000
0100
0000
0001
0100
0001
0000
,  // measure 19
1000
0000
0001
0000
0100
0000
0000
1002
,  // measure 20
0000
0010
1000
0010
,  // measure 21
1000
0000
0013
0000
0001
0000
1000
0010
,  // measure 22
0100
0000
0000
0110
0000
0000
0100
0000
,  // measure 23
0000
0110
0000
0000
0110
0000
0010
0000
,  // measure 24
1000
0000
0100
0000
0010
0001
0010
0001
,  // measure 25
0100
0010
0100
0000
,  // measure 26
0001
0000
0100
0000
0010
1000
0010
1000
,  // measure 27
0001
1000
0100
0000
,  // measure 28
0010
0000
0001
0000
0100
0010
0100
0010
,  // measure 29
1000
0100
0010
0000
,  // measure 30
0001
0010
1000
0010
,  // measure 31
0001
0000
1000
0001
0000
1000
0001
0000
,  // measure 32
1001
0000
1000
0000
0100
0000
1000
0001
,  // measure 33
0100
0001
0100
0000
0000
0000
0001
0000
,  // measure 34
0010
0000
0100
0000
0010
0000
0001
1000
,  // measure 35
0010
1000
0001
0000
0000
0000
1000
0001
,  // measure 36
1000
0000
0010
0000
0100
0000
0001
0010
,  // measure 37
0100
0010
0001
0000
1000
0001
1000
0000
,  // measure 38
0001
1001
1001
1001
,  // measure 39
1000
0010
0100
0000
0110
0000
2001
0000
,  // measure 40
0100
0001
0100
0001
,  // measure 41
0100
0000
3001
0000
1000
0000
0001
0100
,  // measure 42
0001
0000
1000
0000
0100
0000
1000
0100
,  // measure 43
1000
0000
0001
0000
1000
0000
0000
1002
,  // measure 44
0000
0010
1000
0010
,  // measure 45
1000
0000
0013
0000
0001
0000
1000
0100
,  // measure 46
1000
0000
0010
0100
0000
0010
0100
0000
,  // measure 47
0001
1000
0100
0010
0001
0000
2001
0000
,  // measure 48
0010
0001
0010
0001
,  // measure 49
0010
0000
3001
0000
1000
0000
0001
1000
,  // measure 50
0100
0000
1000
0001
1000
0000
0100
0010
,  // measure 51
0001
0000
1000
0010
0100
0000
0000
1002
,  // measure 52
0000
0100
1000
0100
,  // measure 53
1000
0000
0103
0000
0001
0010
0100
1000
,  // measure 54
0001
0000
0000
1001
0000
0000
1000
0000
,  // measure 55
0000
1001
0000
0000
0001
0000
1000
0000
,  // measure 56
0100
0001
0100
1000
,  // measure 57
0001
0100
0001
0100
0010
1000
0010
0000
,  // measure 58
1000
0010
0001
0010
,  // measure 59
1000
0000
0001
0010
0001
0010
0100
1000
,  // measure 60
0000
0000
0010
0100
0001
0100
0010
0100
,  // measure 61
0000
0001
0010
0100
1000
0100
0010
0000
,  // measure 62
1001
0000
0000
1001
0000
0000
1001
0000
,  // measure 63
0000
1001
0000
0000
0100
0000
0220
0000
,  // measure 64
0000
0000
0000
0000
,  // measure 65
0000
0000
0000
0000
,  // measure 66
0330
0000
0000
0000
;

//---------------dance-single - ----------------
#NOTES:
     dance-single:
     :
     Hard:
     9:
     0.470,0.435,0.264,0.237,0.004,317.000,30.000,27.000,0.000,0.000,0.000,0.470,0.435,0.264,0.237,0.004,317.000,30.000,27.000,0.000,0.000,0.000: // measure 0
0002
0000
0100
0103
0000
0001
1000
0100
,  // measure 1
0000
0100
1000
0100
0000
0000
1000
0020
,  // measure 2
0000
0000
0100
0130
0000
0001
1000
0010
,  // measure 3
0000
0010
1000
0010
0000
1000
0001
0200
,  // measure 4
0000
0000
0301
1000
0100
1000
0020
0100
,  // measure 5
0000
0100
0000
0130
0000
0000
0001
0000
,  // measure 6
1001
0000
0000
0000
,  // measure 7
0000
0000
0000
0000
0000
1000
0001
0000
,  // measure 8
0100
1000
0100
0001
,  // measure 9
0010
0000
1000
0000
0010
0000
0001
1000
,  // measure 10
0100
0000
1000
0100
0010
0100
1000
0002
,  // measure 11
0000
0000
0100
0103
0000
0010
1000
1001
,  // measure 12
0000
1000
0100
0001
,  // measure 13
0100
0000
1000
0000
0001
1000
0100
1000
,  // measure 14
0001
0000
0001
0100
0000
1000
0100
0000
,  // measure 15
0001
1000
0100
0010
0001
0000
1001
0000
,  // measure 16
0001
0010
1000
0010
,  // measure 17
0001
0000
1000
0000
0001
0000
1000
0010
,  // measure 18
0100
0000
0001
0100
0000
1000
0100
0002
,  // measure 19
0000
0000
1000
1003
0000
0100
1000
1001
,  // measure 20
0000
0001
0010
1000
,  // measure 21
0010
0000
0001
0000
1000
0100
1000
0001
,  // measure 22
0101
0000
0000
1100
0000
0000
0101
0000
,  // measure 23
0000
0000
1100
0000
0000
0000
0001
1000
0001
0000
0000
0000
1001
0000
0000
0000
,  // measure 24
0001
0100
0001
1000
0000
1000
0100
0010
,  // measure 25
0000
0010
0001
0010
0000
0000
1000
0020
,  // measure 26
0000
0000
0130
0001
0000
0001
0010
0100
,  // measure 27
0000
0100
1000
0100
0000
0000
0001
0200
,  // measure 28
0000
0000
0010
0310
0000
1000
0000
0200
,  // measure 29
0000
0001
0000
0301
0000
1000
0100
0010
,  // measure 30
0002
0000
1003
0002
0000
0203
0000
2300
,  // measure 31
0000
3200
0000
0302
0000
0003
1000
0000
,  // measure 32
1001
0000
0001
1000
0000
1000
0010
1000
,  // measure 33
0001
1000
0100
0010
0000
0001
1000
0200
,  // measure 34
0000
0000
0010
0310
0000
0001
0100
0001
,  // measure 35
0010
0100
1000
0001
0000
0000
1000
0002
,  // measure 36
0000
0000
0100
0103
0000
0001
1000
0200
,  // measure 37
0000
0010
0000
0310
0000
0001
1000
0001
,  // measure 38
0100
0001
0100
0001
1000
0100
1000
0100
,  // measure 39
1000
0001
0100
0000
0101
0000
1001
0000
,  // measure 40
1000
0001
0100
1000
,  // measure 41
0100
0000
0001
0000
1000
0000
0001
1000
,  // measure 42
0020
0000
0100
0230
0000
0000
0010
0310
,  // measure 43
0000
0000
1000
0001
0100
0001
1000
1001
,  // measure 44
0000
0001
1000
0010
,  // measure 45
0001
0000
0010
0000
1000
0001
0100
0001
,  // measure 46
2000
0000
0100
3200
0000
0010
0310
0000
,  // measure 47
0001
1000
0010
0100
0101
0000
1001
0000
,  // measure 48
0001
1000
0100
0001
,  // measure 49
0100
0000
1000
0000
0001
0000
1000
0001
,  // measure 50
0200
0000
0001
0302
0000
0000
1000
1003
,  // measure 51
0000
0001
0010
0100
0000
0100
1000
1001
,  // measure 52
0000
1000
0100
0010
,  // measure 53
1000
0000
0010
0000
0001
1000
0100
0010
,  // measure 54
0011
0000
0000
1010
0000
0000
0011
0000
,  // measure 55
0000
1001
0000
0000
1001
0000
1001
0000
,  // measure 56
1000
0100
0010
0100
1000
0010
0100
0000
,  // measure 57
0001
1000
0100
1000
0001
0100
0010
0000
,  // measure 58
0100
0001
0010
0100
0010
0001
0100
0000
,  // measure 59
0102
0000
1000
0000
0100
0000
1003
1001
,  // measure 60
0000
0000
0001
0100
0010
0001
0010
0100
,  // measure 61
0000
0001
1000
0010
0100
1000
0100
0000
,  // measure 62
1100
0000
0000
0110
0000
0000
0011
0000
,  // measure 63
0000
1001
0000
0000
0110
0000
0220
0000
,  // measure 64
0000
0000
0000
0000
,  // measure 65
0000
0000
0000
0000
,  // measure 66
0330
0000
0000
0000
;

//---------------dance-single - ----------------
#NOTES:
     dance-single:
     :
     Beginner:
     2:
     0.094,0.112,0.070,0.000,0.000,67.000,8.000,0.000,0.000,0.000,0.000,0.094,0.112,0.070,0.000,0.000,67.000,8.000,0.000,0.000,0.000,0.000: // measure 0
0001
0000
0000
0000
,  // measure 1
0000
0000
0000
0000
,  // measure 2
0010
0000
0000
0000
,  // measure 3
0000
0000
0000
0000
,  // measure 4
0100
0000
0000
0000
,  // measure 5
0000
0000
0000
0000
,  // measure 6
1001
0000
0000
0000
,  // measure 7
0000
0000
0000
1000
,  // measure 8
0000
0001
0000
0000
,  // measure 9
0000
0001
0000
0000
,  // measure 10
0000
1000
0000
0000
,  // measure 11
0000
1000
0000
0000
,  // measure 12
0000
0001
0000
0000
,  // measure 13
0000
0000
0000
0000
,  // measure 14
1000
0000
0000
0000
,  // measure 15
0000
0000
0000
0001
,  // measure 16
0000
0000
0000
0001
,  // measure 17
0000
0000
0000
1000
,  // measure 18
0000
0000
0000
1000
,  // measure 19
0000
0000
0000
0000
,  // measure 20
0000
0100
0000
0000
,  // measure 21
0000
0000
0000
0000
,  // measure 22
0110
0000
0000
0000
,  // measure 23
0000
0000
0000
0000
,  // measure 24
0110
0000
0000
0010
,  // measure 25
0000
0000
0000
0100
,  // measure 26
0000
0000
0000
0010
,  // measure 27
0000
0000
0000
0100
,  // measure 28
0000
0000
0000
0001
,  // measure 29
0000
0000
0000
1000
,  // measure 30
0000
0000
0000
0001
,  // measure 31
0000
0000
0000
0000
,  // measure 32
1001
0000
0000
1000
,  // measure 33
0000
0000
0000
0001
,  // measure 34
0000
0000
0000
1000
,  // measure 35
0000
0000
0000
0001
,  // measure 36
0000
0000
0000
1000
,  // measure 37
0000
0000
0000
0000
,  // measure 38
0100
0000
0000
0000
,  // measure 39
0100
0000
0000
0110
,  // measure 40
0000
0010
0000
0100
,  // measure 41
0000
0010
0000
0000
,  // measure 42
0000
1000
0000
0001
,  // measure 43
0000
1000
0000
0000
,  // measure 44
0000
0001
0000
1000
,  // measure 45
0000
0001
0000
0000
,  // measure 46
0000
1000
0000
0001
,  // measure 47
0000
1000
0000
0000
,  // measure 48
0000
0010
0000
0100
,  // measure 49
0000
0010
0000
0000
,  // measure 50
0000
1000
0000
0001
,  // measure 51
0000
1000
0000
0000
,  // measure 52
0000
0100
0000
0010
,  // measure 53
0000
0100
0000
0000
,  // measure 54
1001
0000
0000
0000
,  // measure 55
0000
0000
0000
0000
,  // measure 56
0001
0000
1000
0000
,  // measure 57
0001
0000
0000
0000
,  // measure 58
0100
0000
0001
0000
,  // measure 59
0100
0000
0000
0000
,  // measure 60
0010
0000
1000
0000
,  // measure 61
0010
0000
0000
0000
,  // measure 62
1001
0000
0000
0000
,  // measure 63
0000
0000
0000
0110
;
