#TITLE:She is my wife;
#SUBTITLE:すーぱーアイドル☆ミツル子Remixちゃん;
#ARTIST:高井さんとuno(IOSYS);
#TITLETRANSLIT:;
#SUBTITLETRANSLIT:SUPER IDOL MITSURUKO Remix-CHAN;
#ARTISTTRANSLIT:TAKAI-SAN TO uno(IOSYS);
#CREDIT:DigiMindAxel;
#BANNER:She is my wife SUPER IDOL MITSURUKO Remix-CHAN.png;
#BACKGROUND:She is my wife SUPER IDOL MITSURUKO Remix-CHAN-bg.png;
#LYRICSPATH:She is my wife SUPER IDOL MITSURUKO Remix-CHAN.lrc;
#CDTITLE:SOUND VOLTEX.png;
#MUSIC:She is my wife SUPER IDOL MITSURUKO Remix-CHAN.mp3;
#METERTYPE:DDR X;
#OFFSET:-14.215;
#SAMPLESTART:73.028;
#SAMPLELENGTH:12.000;
#SELECTABLE:YES;
#BPMS:0.000=85.000,28.000=185.000,242.000=125.000,272.000=185.000;
#STOPS:28.000=1.297
;
#BGCHANGES:;

//---------------dance-single - ----------------
#NOTES:
     dance-single:
     :
     Easy:
     6:
     0.215,0.286,0.114,0.114,0.000:
0001
0000
0000
0000
,
1000
0000
0000
0000
,
0001
0000
0000
0000
,
0010
0000
0000
0000
,
0100
0000
0000
0000
,
0010
0000
0000
0000
,
0100
0000
0000
0000
,
2000
3000
0000
0000
0000
0000
0000
0000
0000
0000
0000
0000
0000
0000
0000
0000
0000
0000
0000
0000
0000
0000
0000
0000
0000
0000
0000
0000
0000
0000
0000
0000
,
0000
0000
0001
1000
,
0001
1000
0001
1000
,
1001
0000
0010
0100
,
0010
0000
1000
0100
,
0010
0000
0001
1000
,
0001
0000
0010
0100
,
1000
0000
0010
0100
,
0010
0000
1000
0001
,
0100
0000
0001
1000
,
0001
0000
1001
1001
,
1001
0000
0010
0000
,
0010
0000
0010
0000
,
0010
0000
0100
0000
,
0100
0000
0100
0000
,
0000
0000
0001
0000
,
1000
0000
0001
0000
,
0010
0000
0001
0000
,
1000
0000
0010
0100
,
0010
0000
2000
0000
,
0000
3000
0002
0000
,
0000
0003
2000
0000
,
0000
3000
0002
0000
,
0000
0003
1000
0100
,
1000
0000
0010
0100
,
0010
0000
1000
0001
,
1000
0000
0001
0010
,
0001
0000
0100
0010
,
0100
0000
0010
0100
,
0010
0000
1000
0100
,
1000
0100
1000
0001
,
1000
0000
0001
0100
,
0001
0100
0001
1000
,
0001
0000
0010
0001
,
0010
0001
0100
0010
,
0100
0010
0110
0000
,
0010
0100
0001
0001
,
1000
1000
0002
0000
,
2003
0000
3200
0000
,
1300
0010
0200
0000
,
0000
0000
0301
1000
,
0001
0000
0020
0000
,
0000
0030
1001
0000
,
0110
0000
1001
0000
,
0000
0000
0000
0000
,
0000
0000
0001
1000
,
0001
0000
0010
0001
,
0100
0000
0010
0100
,
0010
0000
1000
0100
,
0010
0000
0100
1000
,
0100
0000
1000
0001
,
0100
0000
0010
0100
,
0010
0000
0110
0110
,
0110
1001
0000
0000
,
0000
0000
1000
0000
,
0001
0000
1000
0000
,
0100
0010
0200
0000
,
0000
0000
2300
0000
,
0000
0000
3002
0000
,
0000
0000
0203
0000
,
0000
0000
0000
0300
,
0000
0000
0110
0000
,
0000
0000
0000
0000
0000
0010
0000
0010
,
0000
0110
0000
0000
;

//---------------dance-single - ----------------
#NOTES:
     dance-single:
     :
     Medium:
     8:
     0.392,0.428,0.196,0.212,0.016:
1001
0000
0000
0000
0000
1000
0100
1000
,
0001
0000
0000
0000
0000
0000
0000
0010
,
0100
0000
0000
1000
0001
0000
0010
0000
,
0100
1000
0100
0000
,
1001
0000
0001
0000
1000
0000
0001
0100
,
0010
0000
0100
0000
0001
0000
0010
0100
,
0010
0001
0010
0100
,
2000
3000
0000
0000
0000
0000
0000
0000
0000
0000
0000
0000
0000
0000
0000
0000
0001
0000
0000
0000
0000
0000
0000
0000
0010
0000
0000
0000
0000
0000
0000
0000
,
0100
0000
1000
0000
0001
1000
0001
1000
,
0001
1000
0001
1000
0001
0000
0001
0000
,
1001
0000
1000
0100
,
0010
0100
0010
0000
0001
0000
0010
0000
,
0001
0000
0010
0100
,
1000
0010
1000
0000
0001
1000
0001
1000
,
0000
0000
0001
0010
,
0100
0010
0100
0000
1000
0000
0001
0000
,
1000
0010
1000
0000
0000
0001
1000
0000
,
0001
1000
0000
0000
0001
1000
0001
0000
,
1001
0000
0100
0100
,
0100
0100
0100
0100
,
0100
0100
0010
0010
,
0010
0010
0100
0010
,
0000
0000
1000
0100
,
0010
0001
2000
0010
,
0100
0000
3010
0000
1000
0001
1000
0001
,
1000
0001
0000
1000
0000
0010
0010
0000
,
0010
0000
0110
0000
0002
0000
0000
1000
,
1000
0000
1003
0000
0200
0000
0000
1000
,
1000
0000
1300
0000
0020
0000
0000
0001
,
0001
0000
0031
0000
2000
0000
0000
0001
,
0001
3001
1000
0100
,
0010
0001
0100
0010
,
0100
0001
0010
0100
,
1000
0000
0010
0100
0010
0100
0010
0100
,
0000
0000
1001
0000
,
1001
0000
0000
0000
0001
1000
0001
1000
,
0001
0000
0010
0001
,
0100
0010
0100
0000
0001
0010
0100
0000
,
1000
0000
0010
1000
0010
0000
0100
0000
,
0001
0010
0001
0000
1001
0000
1001
0000
,
1001
0000
0000
0000
0010
0000
0100
0010
,
1000
0000
0001
1000
0001
0000
1000
0000
,
0100
1000
0100
0000
1001
0000
0000
1000
,
0100
0010
0001
0010
0100
0000
1001
0000
,
1001
1001
0020
1030
,
0002
0103
0020
0130
,
0001
1000
0001
0000
0200
0000
0010
0000
,
0010
0000
0310
0000
1000
0001
1000
0000
,
0001
0100
0010
0100
0001
0000
1000
0000
,
0100
1000
0010
0000
2020
0000
3030
0000
,
0220
0330
0202
0000
,
0000
0000
0303
0000
,
0001
1001
1000
0010
,
0100
0010
0100
0000
0001
0000
0010
0000
,
0100
0010
0100
0000
0010
0000
0001
0000
,
1000
0010
1000
0000
0001
1000
0001
1000
,
0000
0001
0000
0000
0010
0000
0100
0000
,
1000
0010
1000
0000
0001
1000
0001
1000
,
0001
0000
0010
0000
0000
0001
1000
0000
,
0001
1000
0000
0000
1001
0000
1001
0000
,
1001
0220
0000
0000
,
0000
0330
0012
0000
,
0023
0000
0230
0000
,
1300
0000
0000
0010
0000
0000
0100
0000
0002
0000
0000
0000
1000
0000
0000
0000
,
1000
1000
2003
0001
,
0001
0001
3002
1000
,
1000
0000
0000
1000
0000
0000
1003
0000
0000
0000
0001
0000
,
0000
0000
2000
0000
0002
0000
0000
0000
0000
0000
0000
0000
,
0000
3003
0000
0000
,
0000
0000
0000
1000
1000
1000
1000
0000
,
1001
0000
0000
0000
;

//---------------dance-single - ----------------
#NOTES:
     dance-single:
     :
     Hard:
     11:
     0.517,0.514,0.351,0.179,0.090:
1001
0001
0000
1000
0000
0100
0010
0001
,
1000
0000
0000
1000
0000
0000
1000
0000
0000
0000
0000
0000
0000
0000
0010
0100
,
0010
0000
0000
0000
0000
0000
1000
0001
1000
0000
0000
0010
0000
0000
0100
0000
,
0001
0000
0010
0000
0100
0000
1000
0010
,
0001
0000
0010
0000
1000
0000
0001
1000
0001
0000
0000
0100
0000
0000
0010
0000
,
1000
0000
0000
0000
0001
0000
1000
0000
1000
0000
0000
0100
0000
0000
0010
0000
,
0001
1100
0110
0011
,
2002
3003
0000
0000
0000
0000
0000
0000
0000
0000
0000
0000
0000
0000
0000
0000
1000
0000
0000
0000
0001
0000
0000
0000
1000
0000
0000
0000
0001
0000
0000
0000
,
1000
0001
1000
0001
1000
0100
0010
0001
,
1000
0010
0100
0001
1000
1000
1000
0000
,
0001
0001
0001
0000
1000
0100
1000
0000
,
0001
0100
0001
0000
1000
0100
0010
0001
,
1000
0000
1000
0000
0001
0010
0001
0000
,
1000
0010
1000
0000
0001
0001
0100
0010
,
0000
0100
0110
0000
0100
1000
0100
0000
,
1000
0001
1000
0000
0001
0010
0100
1000
,
0001
0100
0001
0000
0000
1000
2000
0000
,
3001
0002
0000
1003
1000
0010
0100
0000
,
0110
0000
0001
0100
,
0001
0100
0001
0100
,
0001
0100
0010
1000
,
0100
0000
1000
0000
0001
0001
0010
0100
,
0000
1000
1000
0000
1001
0000
0011
0000
,
0010
0000
0110
0000
0100
1000
0010
0100
,
0010
0000
0110
0000
1000
0100
0001
0100
,
1000
0001
0000
1001
0000
0100
0100
0100
,
0100
0000
0110
0000
0002
0100
0000
1000
,
1000
0000
0103
0000
0020
1000
0000
0100
,
0100
0000
1030
0000
0002
0010
0000
1000
,
1000
0000
0013
0000
0200
1000
0000
0010
,
0010
0000
1300
0000
0001
0010
0001
0000
,
0010
0100
0010
0000
0100
0000
1000
0010
,
0000
0100
0000
0001
1000
0100
0010
0001
,
1000
0000
0001
0100
1000
0100
0001
1000
,
0000
1001
0000
0000
1000
0001
1000
0000
,
0001
1000
0001
0000
1000
0010
0001
0010
,
1000
0000
0001
0000
1001
0000
1000
0100
,
0010
0000
0000
0000
0100
0000
1000
0000
0001
0000
0000
0100
0000
0000
0010
0000
,
1000
0000
0100
0010
0100
0000
0110
0000
,
1000
0000
0000
0010
0000
0000
0100
0000
0101
0000
0000
0000
1001
0000
0000
0000
,
0101
0000
0000
0000
1001
0000
0001
0100
,
0010
0000
0000
1000
0000
0000
0100
0000
0010
0000
0000
0000
0100
0000
1000
0000
,
0001
0010
0100
0000
0110
0000
0000
0001
,
1000
0100
0010
0001
1000
0000
1001
0000
,
1001
0000
1001
0000
0101
0000
0001
1000
,
1100
0000
1000
0010
0110
0000
0010
0100
,
0001
0010
0100
1000
0002
0000
1000
0000
,
0100
0000
1003
0000
0001
1000
0001
0000
,
1000
0100
0010
0001
2000
0000
0100
0000
,
0001
0000
0000
3100
0000
0000
1000
0000
0010
0000
0100
0000
,
0001
0000
0010
0000
0100
0000
2002
0000
0000
0000
0000
0000
,
0000
3003
0001
0001
,
1000
1000
1000
0000
1001
0000
0001
0100
,
0010
0100
0001
0000
0010
0100
0010
0001
,
0010
0000
1100
0000
1001
0000
1000
0010
,
0100
0010
1000
0000
0100
0010
0100
2000
,
0000
0001
3001
0000
1001
0000
1000
0010
,
0100
0010
1000
0000
0100
0010
0100
1000
,
0100
0000
0011
0000
0000
0001
0002
0000
,
1003
2000
0000
3001
0001
0100
0010
0000
,
0110
0220
0000
0000
,
0000
0000
0000
0000
0330
0000
0000
0000
2100
0000
0000
0100
0000
0000
3100
0000
,
0020
0000
0000
0001
0000
0000
0031
0000
2000
0000
0000
0001
0000
0000
3001
0000
,
1000
0000
0000
1100
0000
0000
0101
0000
0001
0000
0010
0000
0100
0000
1000
0000
,
0100
0010
0001
1000
0001
0100
1000
0100
,
0001
0010
1000
0010
0001
1000
0100
0010
,
0001
0000
0000
0010
0000
0000
0100
0000
0000
1000
0000
0000
0001
0000
0000
0000
0101
0000
0000
0000
1100
0000
0000
0000
,
1000
0000
1010
0000
0022
0000
0000
0000
0000
0000
0000
0000
,
0000
0033
0000
0000
,
0000
0000
0000
0100
0100
0100
0100
0000
,
1001
0000
0000
0000
;

//---------------dance-single - ----------------
#NOTES:
     dance-single:
     :
     Challenge:
     13:
     0.671,0.770,0.587,0.204,0.277: // measure 1
1001
1000
0000
1100
0000
0100
1000
0001
,  // measure 2
0200
0000
0000
0010
0000
0000
0310
0000
1000
0000
0100
0000
0010
0000
0100
1000
,  // measure 3
0100
0000
1000
0000
0001
0000
0100
0001
0200
0000
0000
0010
0000
0000
0310
0000
,  // measure 4
1001
0000
0000
0000
1100
0000
0000
0000
0011
0000
0000
0000
0001
1000
0100
0010
,  // measure 5
0001
0000
0100
0000
0001
0000
1000
0100
2000
0000
0000
0100
0000
0000
3100
0000
,  // measure 6
1000
0000
0001
0000
1000
0000
0010
0000
0200
0000
0000
0010
0000
0000
0310
0000
,  // measure 7
1000
0000
0000
0001
0000
0000
1000
0000
0000
0010
1000
0010
1000
0010
0100
0001
0100
0001
1000
0100
1000
0100
0010
0001
,  // measure 8
2000
3000
0000
0000
0000
0000
0000
0000
0000
0000
0000
0000
0000
0000
0000
0000
0000
0000
0000
0000
0000
0000
0000
0000
0001
0000
0000
0000
0000
0000
0010
0000
0000
0000
0000
0000
0100
0000
0000
0000
0000
0000
1000
0000
0000
0000
0000
0000
,  // measure 9
0100
0010
0001
1000
0010
0010
0100
0100
,  // measure 10
0010
0010
1000
1000
0001
0100
0101
0000
,  // measure 11
1000
0100
1100
0000
0100
0010
0001
0100
,  // measure 12
1000
0100
0001
0010
0100
0010
0001
1000
,  // measure 13
0100
1000
1100
0000
0100
0010
0001
0100
,  // measure 14
1000
0100
0001
1000
1001
0001
0100
0101
,  // measure 15
0000
0110
0110
0000
0010
0100
1000
0010
,  // measure 16
0001
0010
1000
0100
0010
0100
1000
0001
,  // measure 17
0100
0001
0101
0000
0000
1100
0100
0000
,  // measure 18
0110
0010
0000
0011
0001
0100
0110
0000
,  // measure 19
0110
0000
0020
0000
1030
0001
0000
0000
,  // measure 20
0000
1000
0100
1000
0000
0001
0010
0001
,  // measure 21
0010
0001
0010
0001
1000
0010
1000
0010
,  // measure 22
0100
0001
0100
0001
1000
1000
1000
1001
,  // measure 23
0000
0000
0001
0000
1000
0001
1000
0000
1100
0000
0000
0000
0100
0000
1000
0000
,  // measure 24
0010
0000
0010
1000
0001
0010
0100
1000
,  // measure 25
0001
0000
1001
0000
0101
0100
0010
1000
,  // measure 26
1100
0100
0000
1100
0000
0001
0001
0001
,  // measure 27
0011
0000
1001
0000
2000
0100
0000
0100
,  // measure 28
3100
0000
1100
0000
0200
0010
0000
0010
,  // measure 29
0310
0000
0110
0000
0020
0001
0000
0001
,  // measure 30
0031
0000
0011
0000
0002
1000
0000
1000
,  // measure 31
1003
0000
1001
0000
0002
0100
0000
0100
,  // measure 32
0103
0000
0101
0000
0020
0100
0000
0100
,  // measure 33
0130
0000
0110
0000
0020
1000
0000
1000
,  // measure 34
1030
0000
0001
1000
1000
0010
0100
0110
,  // measure 35
0000
0110
0000
0000
1000
0100
0010
0001
,  // measure 36
1000
0100
0010
0001
1000
1000
1000
0001
,  // measure 37
0100
0000
0110
0000
1000
0100
0010
0100
,  // measure 38
1000
0000
0001
0000
0100
0000
0001
0000
2000
0000
0000
0001
0000
0000
3001
0000
,  // measure 39
1000
0000
0100
0000
1000
0000
0010
0100
0010
0000
0000
0000
1000
0000
0001
0000
,  // measure 40
0020
0000
0000
0100
0000
0000
0130
0000
0110
0000
0000
0000
0101
0000
0000
0000
,  // measure 41
1010
0000
0000
0000
1000
0001
1000
0001
1000
0000
0010
0000
0100
0000
0010
0000
,  // measure 42
2000
0000
0000
0001
0000
0000
3001
0000
1000
0000
0010
0000
1000
0000
0001
0000
,  // measure 43
0010
0000
0100
0000
1000
0000
0000
0000
1100
0000
0000
0000
1000
0000
0001
0100
,  // measure 44
0001
0010
0100
1000
0001
0000
1001
0000
,  // measure 45
1001
0000
0000
0000
1001
0000
0000
0000
2100
0000
0000
0000
3001
0000
0100
0001
,  // measure 46
0200
0000
0000
0000
0310
0000
1000
0100
2000
0000
0000
0000
3001
0000
0000
0000
,  // measure 47
1000
0000
0000
0010
0000
0000
0100
0000
0001
0000
0100
0000
0001
0000
0100
0000
,  // measure 48
0010
1000
0010
1000
0001
1000
0001
1000
,  // measure 49
0100
0010
0100
0010
0100
0010
0100
0010
0100
0000
1000
0000
0100
0000
1000
0000
,  // measure 50
0001
0000
0000
0010
0000
0000
0001
0000
0000
0010
0000
0000
0001
0000
0000
0010
0000
0000
0001
0000
0000
0010
0000
0000
0001
0000
0000
0000
0000
0000
0000
0000
0011
0000
0000
0000
0000
0000
0000
0000
0010
0000
0000
0000
0000
0000
0000
0000
,  // measure 51
0110
0000
0100
0000
1100
0000
2002
0000
0000
0000
0000
0000
,  // measure 52
0000
0000
3003
0000
1000
0100
0010
0001
,  // measure 53
0100
0100
0110
0000
0010
0100
1000
0010
,  // measure 54
0001
0010
1000
0100
0010
0100
1000
0001
,  // measure 55
0010
0001
0011
0000
0010
0100
1000
0010
,  // measure 56
0001
0010
1000
0001
0101
0100
0001
1001
,  // measure 57
0000
0110
0110
0000
0100
0010
0001
0100
,  // measure 58
1000
0100
0001
0010
0100
0010
0001
1000
,  // measure 59
0100
1000
1100
0000
0000
1001
0001
0000
,  // measure 60
0101
0100
0000
0010
0010
0010
0110
0000
,  // measure 61
0110
2002
0000
0000
,  // measure 62
0000
0000
0000
0000
3003
0000
0000
0000
0001
0000
0000
0001
0000
0000
0001
0010
,  // measure 63
0100
0000
0000
0100
0000
0000
0100
1000
0010
0000
0000
0010
0000
0000
0010
0000
,  // measure 64
0110
0000
0000
0011
0000
0000
1010
0000
1000
0100
0010
0000
0001
0010
0100
0000
,  // measure 65
1000
0010
0100
0000
0001
0100
0010
0000
1000
0100
0010
0000
0001
0100
0010
0000
,  // measure 66
1000
0010
0100
0000
0001
0010
0100
0000
1000
0100
0010
0001
0010
0100
1000
0100
,  // measure 67
0010
0000
0000
0001
0000
0000
0010
0000
0000
0100
0000
0000
1000
0000
0000
0010
0000
0000
0100
0000
0000
0001
0000
0000
1000
0000
0000
0000
0000
0000
0000
0000
1100
0000
0000
0000
0000
0000
0000
0000
0011
0000
0000
0000
0000
0000
0000
0000
,  // measure 68
1100
0000
0011
0000
2002
0000
0000
0000
0000
0000
0000
0000
,  // measure 69
0000
3003
0000
0000
,  // measure 70
0000
0000
0000
0110
0110
0110
0110
0000
,  // measure 71
0101
0000
0000
0000
;

//---------------dance-single - ----------------
#NOTES:
     dance-single:
     :
     Beginner:
     3:
     0.099,0.114,0.114,0.000,0.000:
0001
0000
0000
0000
,
0010
0000
0000
0000
,
0001
0000
0000
0000
,
0010
0000
0000
0000
,
0001
0000
0000
0000
,
1000
0000
0000
0000
,
0010
0000
0000
0000
,
1000
0000
0000
0000
,
0000
0000
0001
0000
,
0000
0000
0001
0000
,
0000
0000
1001
0000
,
0000
0000
1000
0000
,
0000
0000
0001
0000
,
0000
0000
1001
0000
,
0000
0000
0100
0000
,
0000
0000
0010
0000
,
0000
0000
0100
0000
,
0000
0000
0110
0000
,
0000
0000
0010
0000
,
0000
0000
0000
0000
,
0000
0000
0110
0000
,
0000
0000
0100
0000
,
0000
0000
0001
0000
,
1000
0000
0001
0000
,
0000
0000
1000
0000
,
0001
0000
1000
0000
,
0000
0000
1001
0000
,
0000
0000
0010
0000
,
0000
0000
0110
0000
,
0000
0000
0100
0000
,
0000
0000
0110
0000
,
0000
0000
0010
0000
,
0000
0000
0110
0000
,
0000
0000
0100
0000
,
0000
0000
0001
0000
,
0000
0000
0001
0000
,
0000
0000
1001
0000
,
0000
0000
1000
0000
,
0000
0000
0001
0000
,
0000
0000
1000
0000
,
0000
0000
0100
0000
,
0000
0000
0010
0000
,
0000
0000
0001
0000
,
0000
0000
0010
0000
,
0000
0000
0100
0000
,
0000
0000
1000
0000
,
0000
0000
0001
0000
,
0000
0000
0001
0000
,
0000
0000
1001
0000
,
0000
0000
1000
0000
,
0000
0000
1000
0000
,
0000
0000
0000
0000
,
0000
0000
1001
0000
,
0000
0000
0001
0000
,
0000
0000
1000
0000
,
0000
0000
0001
0000
,
0000
0000
0100
0000
,
0000
0000
0010
0000
,
0000
0000
1000
0000
,
0000
0000
1001
0000
,
0000
1001
0000
0000
,
0000
0000
1000
0000
,
0100
0000
0010
0000
,
0000
0000
0001
0000
,
1000
0000
0001
0000
,
0000
0000
0010
0000
,
0100
0000
1000
0000
,
0000
0000
0000
0000
,
0000
0000
0000
0000
,
0000
0000
0000
0000
,
1001
0000
0000
0000
;
