#TITLE:すわひでおのゴロゴロ年号覚え唄決定版;
#SUBTITLE:;
#ARTIST:すわひでお;
#TITLETRANSLIT:SUWA HIDEO NO GOROGORO NENGO OBOEUTA KETTEIBAN;
#SUBTITLETRANSLIT:;
#ARTISTTRANSLIT:HIDEO SUWA;
#CREDIT:DigiMindAxel;
#BANNER:SUWA HIDEO NO GOROGORO NENGO OBOEUTA KETTEIBAN.png;
#BACKGROUND:SUWA HIDEO NO GOROGORO NENGO OBOEUTA KETTEIBAN-bg.png;
#LYRICSPATH:SUWA HIDEO NO GOROGORO NENGO OBOEUTA KETTEIBAN.lrc;
#CDTITLE:pop'n music.png;
#MUSIC:SUWA HIDEO NO GOROGORO NENGO OBOEUTA KETTEIBAN.mp3;
#METERTYPE:DDR X;
#OFFSET:-6.170;
#SAMPLESTART:67.102;
#SAMPLELENGTH:12.000;
#SELECTABLE:YES;
#BPMS:0.000=156.000;
#STOPS:;
#BGCHANGES:;

//---------------dance-single - ----------------
#NOTES:
     dance-single:
     :
     Easy:
     5:
     0.254,0.290,0.068,0.085,0.000:
0100
0010
0100
0010
,
1000
0001
1000
0001
,
0020
0000
0001
0000
,
0031
0010
0100
1000
,
0002
0000
0000
0000
,
0103
0010
0100
0010
,
1001
0000
0000
0000
,
0000
0000
0000
0000
,
1000
0000
0000
0000
,
0000
0000
0000
0000
,
1000
0000
0001
0000
,
1000
0000
0001
0000
,
0100
0000
0010
0000
,
0100
0000
0010
0000
,
0100
0100
0100
0000
,
0010
0010
0010
0000
,
1000
1000
1000
0000
,
0001
0001
0001
0000
,
0100
0100
0100
0000
,
0001
0001
0001
0000
,
1000
1000
1000
0000
,
0010
0010
0010
0000
,
1000
0001
1000
0001
,
1000
0001
1000
1000
,
0010
0100
0010
0100
,
0010
0100
0001
0001
,
0100
0010
0100
0010
,
0100
0010
1000
1000
,
0001
1000
0001
1000
,
0100
0000
0000
0000
,
1001
0000
0000
0000
,
1000
0000
1000
0000
,
1000
0010
0100
0001
,
1000
0010
0100
0001
,
1001
0000
0000
0000
,
0001
0000
0001
0000
,
0001
0000
0100
0000
,
0010
0000
1000
0000
,
0010
0010
0100
0100
,
0020
0000
0000
0000
,
0130
0010
0100
0001
,
0100
0010
0100
0001
,
1000
0010
0100
0010
,
1000
0010
0100
0010
,
2000
0000
0001
0000
,
3001
0010
0100
1000
,
0001
0001
1000
1000
,
0220
0000
0000
0330
,
0000
1001
0001
1000
,
0010
0100
0001
1000
,
0010
0110
1000
0100
,
0010
0001
1000
0010
,
0200
0000
0310
0000
,
0001
0010
0100
1000
,
0002
0000
1000
0000
,
1000
0000
1000
0000
,
1003
0000
0100
0000
,
0010
0000
0001
0000
,
2000
0000
0001
0000
,
3001
0000
0000
0000
,
1001
0010
0100
1000
,
0010
0100
0010
1000
,
0010
0100
0001
0010
,
0100
0010
0001
1000
,
0020
0000
0000
0000
,
0130
0100
0001
0001
,
1000
1000
0010
0100
,
0001
0000
0000
0000
,
1001
0000
0000
0000
;

//---------------dance-single - ----------------
#NOTES:
     dance-single:
     :
     Medium:
     8:
     0.462,0.463,0.451,0.187,0.000:
1000
0100
0002
0103
,
0001
0100
2000
3100
,
1002
0000
1000
0000
,
1003
0010
1000
0000
0001
0100
0001
0000
,
2002
0000
0000
3003
,
0101
0101
1010
1010
,
1002
0000
0000
0000
,
1000
0000
0000
0000
0000
0000
0000
1003
,
0010
0200
0000
0000
0000
0000
0000
0000
,
0010
0000
0000
0000
0000
0000
0000
0310
,
0100
0001
1000
0000
1000
0000
0001
0000
,
0001
0100
0010
1000
,
0010
0100
0010
0000
0100
0010
0100
0000
,
0001
0010
0100
0000
1000
0001
1000
0000
,
0010
1010
0010
1010
,
0001
1001
0110
0110
,
0100
0101
0100
0101
,
1000
1001
0110
0110
,
0100
1100
0100
1100
,
0001
1001
0110
0110
,
0010
0011
0010
0011
,
1000
1001
0110
0110
,
0001
0100
0001
0000
1000
0010
1000
0000
,
0010
0100
0010
0000
1000
0100
0001
0100
,
1000
0100
1000
0000
0001
0010
0001
0000
,
0100
0010
0100
0000
0001
0100
1000
0100
,
0001
0100
0001
0000
1000
0010
1000
0000
,
0010
0100
0010
0000
1000
0100
0001
0100
,
1000
0100
1000
0000
0001
0010
0001
1000
,
0000
1000
1000
1000
,
0110
0002
0000
1000
,
1003
0000
0010
0000
0100
0001
1000
0000
,
0001
0010
0001
0010
0001
1000
0010
0000
,
1000
0010
1000
0010
1000
0001
0010
0000
,
0110
2000
0000
0001
,
3001
0000
0100
0000
0010
1000
0001
0000
,
0001
0010
0000
0100
0010
0100
0000
1000
,
0001
1000
0000
0010
0100
0010
0000
0000
,
1100
1100
0011
0011
,
2002
0000
3003
1001
,
0101
0000
0101
0000
0010
1000
0100
1000
,
0010
1000
0100
1000
0010
0000
1000
0000
,
1010
0000
1010
0000
0100
0001
0010
0001
,
0100
0001
0010
0001
0100
0000
0001
0000
,
2001
0000
0000
0001
0001
0000
0000
0000
,
3001
0010
0100
0000
1000
0100
0010
0000
,
0001
0100
0001
0000
1000
0010
1000
0001
,
2002
0000
0000
3003
,
1100
0000
1100
0000
0010
0001
0100
0001
,
0010
0001
0100
0001
0010
0000
0001
0000
,
0011
0000
0011
0000
0100
1000
0010
1000
,
0100
1000
0010
1000
0100
0000
1000
0100
,
0002
0100
1003
0001
,
1000
0100
0010
0001
1000
0000
1100
0000
,
1002
0000
0100
0000
,
1000
0000
0100
0000
,
2003
0000
0100
0000
,
0001
0000
0100
0000
,
3002
0000
1000
0000
,
2000
0000
0000
3003
,
1000
0010
0100
0010
1000
0001
0010
0000
,
0100
1100
0010
0011
,
0001
0100
0010
0100
0001
1000
0100
0000
,
0010
0011
0100
1100
,
2002
0000
0000
3003
,
0001
0100
0010
1000
0001
0010
0100
1000
,
0001
0100
0001
1000
0100
1000
0001
0100
,
2000
0000
0000
3000
,
1001
0000
0000
0000
;

//---------------dance-single - ----------------
#NOTES:
     dance-single:
     :
     Hard:
     12:
     0.577,0.666,0.204,0.094,0.192:
0001
0010
0100
0010
0002
0000
1000
0000
,
1003
0100
0010
0100
2000
0000
0001
0000
,
3001
0000
0000
0001
0000
0000
0001
0000
1000
0000
0000
1000
0000
0000
1000
0000
,
0001
0010
0100
1000
0001
0010
0100
1000
,
0001
0000
0000
0001
0000
0000
0001
0000
1000
0000
0000
1000
0000
0000
1000
0000
,
0010
0000
0000
0010
0100
0000
0000
0100
0001
0000
0000
0001
1000
0000
0000
1000
,
0020
1000
1000
1030
,
1000
0001
0010
0000
0001
0010
0001
0000
,
1000
0010
0200
0000
0001
0000
0301
0000
,
0001
1000
0100
0000
1000
0100
1000
0000
,
0001
0010
0200
0000
1000
0000
1300
0000
,
1000
0001
0100
0000
0001
0100
0001
0000
,
1000
0100
0020
0000
0001
0000
0031
0000
,
0001
1000
0010
0000
1000
0000
1001
0000
,
1000
0100
1000
0001
0100
0000
0101
0000
,
0001
0100
0001
1000
0100
0000
1100
0000
,
0010
0001
1000
0100
0010
0000
0110
0000
,
0100
1000
0001
0010
0100
0000
0110
0000
,
1000
0010
0100
0001
1000
0000
1001
0000
,
0001
0100
0010
1000
0001
0000
1001
0000
,
0100
1000
0001
0100
0010
0000
0101
0000
,
0010
0001
1000
0010
0100
0000
1010
0000
,
0100
0001
0010
0100
1000
0010
0100
0001
,
0000
0001
0100
0010
1000
0100
1000
0100
,
1000
0001
0010
0100
1000
0010
0100
0001
,
0000
0001
0100
0010
1000
0000
1001
0000
,
0100
1000
0010
0100
0001
0010
0100
1000
,
0000
1000
0100
0010
0001
0000
1001
0000
,
0010
0001
0100
0010
1000
0100
1000
0001
,
0000
0001
1000
0100
0010
0001
1000
0100
,
1000
0201
0000
0001
,
0301
0010
0100
0000
1000
0000
1010
0000
,
0100
0001
0100
0001
1000
0100
0010
0100
,
0000
1000
0100
0001
0100
1000
0010
0100
,
0010
1020
0000
1000
,
1030
0100
0010
0000
0001
0000
0101
0000
,
0010
1000
0010
1000
0100
0001
0100
0001
,
0100
1000
0100
0010
0001
1000
0000
0000
,
0010
0100
0000
0000
0010
0100
0000
0000
0001
0000
0100
0000
0010
0000
1000
0000
,
0001
0000
0000
0010
0000
0000
0100
0000
0000
1000
0000
0000
0001
0000
0000
0000
,
1001
0000
1001
0000
0010
1000
0001
0010
,
0001
1000
0100
0010
1000
0010
0001
1000
,
0001
0000
1001
0000
0100
0001
1000
0100
,
1000
0001
0010
0100
0001
0100
1000
0001
,
0100
0000
0000
0100
0000
0000
0100
0000
0010
0000
0000
0010
0000
0000
0010
0000
,
1000
0100
0010
0001
1000
0100
0010
0001
,
0100
1000
0100
0001
1000
0010
0001
0010
,
1000
0000
0000
0010
0000
0000
0100
0000
0000
0001
0000
0000
1000
0000
0100
0000
,
0001
0000
1001
0000
1000
0100
1000
0001
,
0100
0010
0001
0010
1000
0010
0100
0001
,
1000
0000
1001
0000
0001
0010
0001
1000
,
0010
0100
1000
0100
0001
0100
0010
1000
,
0010
0000
0000
0010
0000
0000
0010
0000
0100
0000
0000
0100
0000
0000
0100
0000
,
0001
1000
0000
0001
1000
0000
0000
1000
0010
0000
0000
0010
0100
0000
0000
0100
,
0001
1000
1100
0010
,
0002
0000
1003
0000
,
1000
0001
0011
0100
,
2000
0000
3001
0000
,
0001
1000
0110
0001
,
1000
0000
0000
0010
0000
0000
0100
0000
0001
0000
0100
0000
1000
0000
0100
0000
,
0001
0100
0010
1000
0100
0010
0100
1000
,
0001
0000
0100
0001
0100
0000
0001
0000
1000
0000
0010
1000
0010
0000
1000
0000
,
0100
0010
0001
1000
0100
0010
0100
1000
,
0001
0000
0010
0001
0010
0000
0001
0000
1000
0000
0100
1000
0100
0000
1000
0000
,
0001
0000
0100
0000
0010
0100
0010
0100
0010
0000
1000
0000
0001
0010
0001
0010
,
0001
0000
0100
0010
0000
1000
0000
0001
1000
0000
0010
0100
0000
0001
0000
1000
,
0001
0000
0100
0010
0000
1000
0000
0001
1000
0100
1000
0100
1000
0001
0100
0001
,
0200
0000
0000
0300
,
1001
0000
0000
0000
;

//---------------dance-single - ----------------
#NOTES:
     dance-single:
     :
     Beginner:
     3:
     0.108,0.174,0.060,0.000,0.000:
1000
0000
0000
0000
,
0001
0000
0000
0000
,
1000
0000
0000
0000
,
0001
0000
0000
0000
,
1000
0000
0000
0000
,
1001
0000
0000
0000
,
0001
0000
0000
0000
,
0000
0000
0000
0000
,
0001
0000
0000
0000
,
0000
0000
0000
0000
,
0001
0000
0000
0000
,
0000
0000
0000
0000
,
1000
0000
0000
0000
,
0000
0000
0000
0000
,
1001
0000
0000
0000
,
0001
0000
0000
0000
,
1000
0000
0000
0000
,
0001
0000
0000
0000
,
1000
0000
0000
0000
,
0001
0000
0000
0000
,
0100
0000
0000
0000
,
0010
0000
0000
0000
,
1000
0000
1000
0000
,
1000
0000
0000
0000
,
0001
0000
0001
0000
,
0001
0000
0000
0000
,
1000
0000
1000
0000
,
1000
0000
0000
0000
,
0001
0000
0001
0000
,
0001
0000
0000
0000
,
1000
0000
0000
0000
,
0000
0000
0000
0000
,
0010
0000
0100
0000
,
0010
0000
0000
0000
,
0010
0000
0000
0000
,
0010
0000
0000
0000
,
1000
0000
0001
0000
,
1000
0000
0001
0000
,
0100
0000
0100
0000
,
0110
0000
0000
0000
,
1000
0000
0001
0000
,
1000
0000
0001
0000
,
0100
0000
0010
0000
,
0100
0000
0010
0000
,
0100
0000
0000
0000
,
0100
0000
0000
0000
,
0110
0000
0100
0000
,
1001
0000
0000
0000
,
0001
0000
1000
0000
,
0001
0000
1000
0000
,
0010
0000
0100
0000
,
0010
0000
0100
0000
,
0010
0000
0000
0000
,
0010
0000
0000
0000
,
0110
0000
0000
0000
,
0000
0000
0000
0000
,
1000
0000
0000
0000
,
0000
0000
0000
0000
,
0001
0000
0000
0000
,
0000
0000
0000
0000
,
1000
0000
0001
0000
,
1000
0000
0000
0000
,
0010
0000
0100
0000
,
0010
0000
0000
0000
,
0100
0000
0000
0000
,
0010
0000
0010
0000
,
0010
0000
0010
0000
,
0110
0000
0000
0000
,
1000
0000
0000
0000
;

//---------------dance-single - ----------------
#NOTES:
     dance-single:
     :
     Challenge:
     14:
     0.713,0.782,0.187,0.111,0.575: // measure 1
1000
0000
0000
1000
0010
0000
0100
0000
0001
0000
1000
0000
0001
0000
0000
0000
,  // measure 2
0001
0000
0000
0001
0100
0000
0010
0000
1000
0000
0001
0000
1000
0000
0001
0000
,  // measure 3
2000
0000
0000
0100
0000
0000
3100
0000
0020
0000
0000
0001
0000
0000
0031
0000
,  // measure 4
1000
0100
0001
0100
1000
0100
0001
0100
,  // measure 5
2000
0000
0000
0010
0000
0000
3010
0000
0200
0000
0000
0001
0000
0000
0301
0000
,  // measure 6
1000
0001
0000
1000
0100
1000
0000
0001
0010
0001
0000
1000
0001
1000
0000
0010
,  // measure 7
0100
0000
0000
0000
0100
0000
0000
0000
0001
1000
0000
0000
1000
0000
0000
0000
,  // measure 8
0010
0000
0000
0000
0100
0000
0000
0000
0001
1000
0000
0000
1000
0000
0001
0000
,  // measure 9
0001
0000
1000
0000
0100
0000
0000
0000
0010
0001
0000
0000
0001
0000
0000
0000
,  // measure 10
1000
0000
0000
0000
0010
0000
0100
0000
0000
0100
0000
0000
0100
0000
0001
0000
,  // measure 11
0001
0000
0010
0000
0100
0000
0000
0000
1000
0010
0000
0000
0010
0000
0000
0000
,  // measure 12
0100
0000
0000
0000
0001
0000
0000
0000
1000
0001
1000
0000
0001
0000
0001
0000
,  // measure 13
1000
0000
0010
0000
0100
0000
0000
0000
0001
1000
0000
0000
1000
0000
0000
0000
,  // measure 14
0100
0000
0010
0000
0001
0000
1000
0000
0000
1000
0000
0000
1000
0000
0000
0000
,  // measure 15
0001
0100
0001
0000
0010
0000
0100
0000
1000
0001
1000
0001
1000
0000
0000
0000
,  // measure 16
0100
0000
0010
0000
0001
1000
0001
0000
0010
0000
0000
0000
0011
0000
0000
0000
,  // measure 17
0001
1000
0001
0000
0010
0000
0100
0000
1000
0001
1000
0001
1000
0000
0000
0000
,  // measure 18
0010
0000
0100
0000
0001
1000
0001
0000
0100
0000
0000
0000
0101
0000
0000
0000
,  // measure 19
1000
0001
1000
0000
0010
0000
0100
0000
0001
0100
0001
0100
0001
0000
0000
0000
,  // measure 20
0010
0000
0100
0000
1000
0001
1000
0000
0001
0000
0000
0000
0101
0000
0000
0000
,  // measure 21
1000
0001
1000
0000
0010
0000
0100
0000
0001
0100
0001
0100
0001
0000
0000
0000
,  // measure 22
0010
0000
0100
0000
1000
0001
1000
0000
0010
0000
0000
0000
0101
0000
0000
0000
,  // measure 23
0001
0100
1000
0100
0001
0010
0100
1000
,  // measure 24
0000
0000
1000
0000
0001
0000
0010
0000
0100
0000
1000
0001
1000
0001
1000
0001
,  // measure 25
1000
0100
0001
0100
1000
0010
0100
0001
,  // measure 26
0000
0000
0001
0000
1000
0000
0010
0000
0100
0001
0100
0000
0001
0000
0000
0000
,  // measure 27
1000
0100
0001
0100
1000
0001
0100
0010
,  // measure 28
0000
0000
0010
0000
0100
0000
0001
0000
1000
0000
0100
1000
0100
1000
0100
1000
,  // measure 29
0001
0010
1000
0010
0001
1000
0010
1010
,  // measure 30
0000
0000
0100
0000
0010
0000
0100
0000
1000
0001
1000
0001
1000
0001
1000
0001
,  // measure 31
1000
1200
0000
1300
,  // measure 32
0100
0000
1000
0000
0001
0000
0000
0000
1000
0001
1000
0001
1000
0000
0000
0000
,  // measure 33
0001
0000
1000
0010
1000
0000
0010
0000
0100
0000
1000
0000
0100
0000
0010
0000
,  // measure 34
0000
0000
1000
0000
0100
0000
0001
0000
0100
0000
1000
0000
1000
0000
0001
0100
,  // measure 35
0001
1002
0000
1000
,  // measure 36
1003
0000
0001
0000
0100
0001
0100
0000
0001
0000
1000
0001
1000
0000
0000
0000
,  // measure 37
0001
0000
0001
0000
0100
0000
0001
0010
0100
0000
0100
0000
0010
0000
0001
0100
,  // measure 38
0010
0000
0010
0000
1000
0000
0100
0010
0100
0010
0001
0000
0000
0000
0000
0000
,  // measure 39
1000
0100
1000
0000
0001
0010
0001
0000
1000
0001
1000
0001
1000
0000
0010
0000
,  // measure 40
0200
0000
0000
0001
0000
0000
0001
0000
0000
0001
0000
0000
0301
0000
0000
0000
,  // measure 41
0101
0000
0000
0000
1001
0000
0000
0000
1000
0100
1000
0000
0001
0000
0100
0000
,  // measure 42
0010
0000
1000
0000
0010
0000
0100
0000
0001
1000
0001
0000
0010
0000
0100
0000
,  // measure 43
1000
0000
0000
0000
1100
0000
0000
0000
0001
0100
0001
0000
0010
0000
0100
0000
,  // measure 44
1000
0000
0100
0000
0010
0000
0001
0000
1000
0001
1000
0000
0100
0000
0010
0000
,  // measure 45
0200
0000
0000
1000
0000
0000
1300
0000
0020
0000
0000
0001
0000
0000
0031
0000
,  // measure 46
1000
0100
1000
0000
0100
0010
0100
0000
0010
0001
0010
0000
0001
1000
0001
0000
,  // measure 47
1000
0010
1000
0000
0100
0000
0010
0000
0001
0100
0001
0000
0010
0000
0100
0000
,  // measure 48
1100
0000
0000
1100
0000
0000
0011
0000
0000
0011
0000
0000
0001
0000
0100
0000
,  // measure 49
0010
0000
0000
0000
0110
0000
0000
0000
0100
0001
0100
0000
0001
0000
0010
0000
,  // measure 50
0100
0000
1000
0000
0100
0000
0010
0000
0001
1000
0001
0000
1000
0000
0010
0000
,  // measure 51
0100
0000
0000
0000
0110
0000
0000
0000
0100
1000
0100
0000
1000
0000
0010
0000
,  // measure 52
0100
0000
0001
0000
1000
0100
1000
0000
0001
0010
0001
0000
1000
0000
0001
0000
,  // measure 53
0020
0000
0000
0100
0000
0000
0130
0000
2000
0000
0000
0010
0000
0000
3010
0000
,  // measure 54
1000
0001
0000
0010
0001
0010
0000
0100
1000
0100
0000
1000
0001
1000
0000
0010
,  // measure 55
0100
0000
0000
0000
0010
0000
0000
1000
0010
0000
0000
0000
0100
0000
0000
0000
,  // measure 56
0001
1001
0000
0001
0001
0010
0100
1000
,  // measure 57
0001
0000
0000
0000
1000
0000
0000
0000
1001
0000
1001
0000
0000
0000
0000
1000
,  // measure 58
0010
0110
0000
0100
0100
0001
0010
0100
,  // measure 59
1000
0000
0000
0000
0001
0000
0000
0100
0010
0000
0110
0000
0000
0000
1000
0000
,  // measure 60
0002
0000
0000
0010
0000
0000
0013
0000
0001
0000
1000
0000
0100
0000
0010
0000
,  // measure 61
0001
0100
0001
0100
0001
0000
0010
0000
0100
1000
0100
1000
0100
0000
1000
0000
,  // measure 62
0001
0100
0010
0100
0001
0000
1000
0000
0100
0010
0001
0010
0100
0000
1000
0000
,  // measure 63
0010
1000
0010
1000
0010
0000
1000
0000
0001
0010
0001
0010
0001
0000
1000
0000
,  // measure 64
0001
0100
0010
0100
0001
0000
1000
0000
0100
0010
0001
0010
0100
0000
1000
0000
,  // measure 65
0001
1000
0001
1000
0001
1000
0001
1000
0100
1000
0100
1000
0001
0100
0001
0100
,  // measure 66
0001
0000
1000
0100
0000
0100
0000
0100
0010
0000
0001
0100
0000
0100
0000
0100
,  // measure 67
0010
0000
1000
0100
0000
0100
0000
0100
0010
0001
0010
0001
1000
0100
0010
0001
,  // measure 68
0200
0000
0000
0300
,  // measure 69
1001
0000
0000
0000
;
