#TITLE:すきすきソング;
#SUBTITLE:;
#ARTIST:くまのきよみ;
#TITLETRANSLIT:SUKI SUKI SONG;
#SUBTITLETRANSLIT:;
#ARTISTTRANSLIT:KIYOMI KUMANO;
#CREDIT:DigiMindAxel;
#BANNER:SUKI SUKI SONG.png;
#BACKGROUND:SUKI SUKI SONG-bg.png;
#LYRICSPATH:SUKI SUKI SONG.lrc;
#CDTITLE:pop'n music.png;
#MUSIC:SUKI SUKI SONG.mp3;
#METERTYPE:DDR X;
#OFFSET:-4.250;
#SAMPLESTART:4.175;
#SAMPLELENGTH:12.000;
#SELECTABLE:YES;
#BPMS:0.000=160.030;
#STOPS:;
#BGCHANGES:;

//---------------dance-single - ----------------
#NOTES:
     dance-single:
     :
     Challenge:
     12:
     0.613,0.519,0.203,0.129,0.041: // measure 1
0010
0001
0010
0000
0010
0001
0010
0000
,  // measure 2
0010
0001
1000
0100
0001
0100
1000
0000
,  // measure 3
0010
1000
0010
0000
0010
1000
0010
0000
,  // measure 4
0010
1000
0001
0100
1000
0100
0001
0000
,  // measure 5
0010
0001
0010
0000
0010
0001
0010
0000
,  // measure 6
0010
0001
1000
0100
0001
0100
1000
0000
,  // measure 7
0010
1000
0010
0000
0010
1000
0010
0000
,  // measure 8
0010
1000
0001
0100
1000
0100
0001
0000
,  // measure 9
2000
0000
3001
0200
0000
0001
0301
0000
,  // measure 10
0002
0000
1003
0020
0000
1000
1030
0000
,  // measure 11
0010
1000
0010
1000
0001
0010
0001
0001
,  // measure 12
0000
1000
1000
0000
1100
0000
1001
0000
,  // measure 13
0100
0000
0000
0100
0001
0000
1000
0000
0100
0000
0000
0000
0100
0000
1000
0000
,  // measure 14
0001
0010
0100
0010
0001
1000
0010
1000
,  // measure 15
0010
0100
0010
0100
0020
0000
1000
0000
,  // measure 16
1030
0001
0010
0100
1000
0010
0110
0000
,  // measure 17
0100
0000
0000
0100
1000
0000
0001
0000
0100
0000
0001
0000
1000
0000
1000
0000
,  // measure 18
0000
0001
0010
0100
1000
0001
1000
0000
,  // measure 19
0020
0000
1000
0000
1030
0001
0001
0100
,  // measure 20
0001
1000
0100
0010
0001
1000
0010
0000
,  // measure 21
0100
0001
0100
0001
0100
0001
0100
0001
,  // measure 22
1000
0100
1000
0100
1000
0100
1000
0001
,  // measure 23
0100
0000
0010
0000
0100
0000
0000
0001
1000
0000
0100
0000
1000
0000
0100
0000
,  // measure 24
2000
0000
0000
0000
0001
0000
0000
0000
3001
0000
0100
0010
0100
0000
0000
0000
,  // measure 25
0010
1000
1010
0000
1010
0000
1000
0001
,  // measure 26
0100
0010
0100
0010
1000
0100
1100
0000
,  // measure 27
0001
0100
0101
0000
0001
0100
0001
1000
,  // measure 28
0010
0100
0010
0100
0001
0010
0011
0000
,  // measure 29
1000
0010
1010
0000
1010
0000
1000
0001
,  // measure 30
0100
0010
0100
0010
1000
0100
1100
0000
,  // measure 31
0001
0100
0101
0000
0100
0001
0100
0000
,  // measure 32
0100
0001
1000
0100
1000
0001
0100
0000
,  // measure 33
0002
0000
1003
0020
0000
1000
1030
0000
,  // measure 34
2000
0000
3001
0200
0000
0001
0301
0000
,  // measure 35
0100
0001
0100
0001
1000
0100
0100
1000
,  // measure 36
0001
0011
1001
0101
,  // measure 37
0001
0000
0001
0000
0001
0000
0001
1000
,  // measure 38
0000
1000
0000
1000
1000
1000
1000
0000
,  // measure 39
0010
0000
0000
0010
1000
0000
0001
0000
0001
0000
1000
0000
0010
0000
1000
0000
,  // measure 40
0010
0000
0010
1000
0001
0010
0100
1000
,  // measure 41
0001
0100
0001
0100
0002
0000
0000
0000
,  // measure 42
1003
0100
0010
0001
1000
0010
0110
0000
,  // measure 43
0010
0000
0000
0010
0001
0000
1000
0000
1000
0000
0001
0000
0100
0000
0001
0000
,  // measure 44
0000
0001
0100
0001
1000
0100
0010
0001
,  // measure 45
1000
0000
1001
0000
0001
0100
0001
0100
,  // measure 46
0001
0010
0100
1000
0001
0100
0110
0000
,  // measure 47
0010
1000
0010
1000
0010
1000
0010
1000
,  // measure 48
0001
0010
0001
0010
0001
0010
0001
1000
,  // measure 49
0010
0000
0100
0000
0010
0000
0000
1000
0001
0000
0010
0000
0001
0000
0010
0000
,  // measure 50
0000
0001
0100
0010
1000
0001
0001
0000
,  // measure 51
0100
0001
0100
0001
0100
0001
0100
0001
,  // measure 52
1000
0100
1000
0100
1000
0100
1000
0001
,  // measure 53
0100
0000
0010
0000
0100
0000
0000
0001
1000
0000
0100
0000
1000
0000
0100
0000
,  // measure 54
1000
0001
0010
0100
1000
0010
0110
0000
,  // measure 55
0100
1000
0100
0000
0100
1000
0100
0000
,  // measure 56
0100
1000
0001
0010
1000
0010
0001
0000
,  // measure 57
0100
0001
0100
0000
0100
0001
0100
0000
,  // measure 58
0100
0001
1000
0010
0001
0010
1000
0000
,  // measure 59
0010
1000
0010
0000
0010
1000
0010
0000
,  // measure 60
0010
1000
0001
0100
1000
0100
0001
0000
,  // measure 61
0010
0001
0010
0000
0010
0001
0010
0000
,  // measure 62
0010
0001
1000
0100
0001
0100
1000
0000
,  // measure 63
1010
0000
0000
0000
0100
0001
1000
0000
,  // measure 64
1000
0000
0000
0000
0100
0010
0001
0000
,  // measure 65
0010
0000
0100
0000
1000
0000
0000
1000
0001
0000
0100
0000
0100
0000
0010
0000
,  // measure 66
0220
0000
0000
0000
,  // measure 67
0330
1001
0000
0000
;

//---------------dance-single - ----------------
#NOTES:
     dance-single:
     :
     Hard:
     9:
     0.517,0.488,0.387,0.230,0.000: // measure 1
0010
1000
0000
0000
0010
1000
0000
0000
,  // measure 2
0010
1000
0001
0020
0000
0000
0031
0000
,  // measure 3
0100
0001
0000
0000
0100
0001
0000
0000
,  // measure 4
0100
0001
1000
0200
0000
0000
1300
0000
,  // measure 5
0010
1000
0000
0000
0010
1000
0000
0000
,  // measure 6
0010
1000
0001
0020
0000
0000
0031
0000
,  // measure 7
0100
0001
0000
0000
0100
0001
0000
0000
,  // measure 8
0100
0001
1000
0200
0000
0000
1300
0000
,  // measure 9
1100
0000
0020
0002
0000
0000
0033
0000
,  // measure 10
0011
0000
0200
2000
0000
0000
3300
0000
,  // measure 11
0010
0001
0010
0001
0000
1000
0010
1000
,  // measure 12
0000
0110
0110
1001
,  // measure 13
1000
0000
1000
0001
0010
0000
0100
0000
,  // measure 14
1000
0000
1000
0001
0010
0000
0100
0000
,  // measure 15
1000
0001
0100
0001
1000
0000
1001
0000
,  // measure 16
0000
0001
0010
1000
0010
0001
1001
0000
,  // measure 17
0001
0000
0001
1000
0010
0000
0100
0000
,  // measure 18
0001
0000
0001
1000
0010
0000
0100
0000
,  // measure 19
0001
0000
1001
0000
1000
0001
1000
0000
,  // measure 20
0001
1000
0100
0001
0100
1000
1001
0000
,  // measure 21
2100
0100
0100
0100
,  // measure 22
0001
0000
0001
0000
0001
0000
3001
0010
,  // measure 23
0100
0110
1001
1001
,  // measure 24
0201
0000
0001
0000
0301
1000
1010
0000
,  // measure 25
0100
0001
1000
0000
1000
0001
0100
0000
,  // measure 26
0010
1000
0010
2000
0000
0001
3001
0000
,  // measure 27
1000
0001
0010
0000
0001
0010
0000
0000
,  // measure 28
0001
0010
0001
0020
0000
0100
0130
0000
,  // measure 29
1000
0001
0100
0000
0100
0001
1000
0000
,  // measure 30
0010
1000
0010
2000
0000
0001
3001
0000
,  // measure 31
1000
0001
0010
0000
0001
0010
0000
0000
,  // measure 32
0001
1000
0100
1000
0001
0010
0001
0000
,  // measure 33
0011
0000
0200
2000
0000
0000
3300
0000
,  // measure 34
1100
0000
0020
0002
0000
0000
0033
0000
,  // measure 35
0100
1000
0100
2000
0000
0001
3001
0000
,  // measure 36
0110
0110
1001
1001
,  // measure 37
0200
0000
0000
0000
,  // measure 38
0000
0000
0020
0330
,  // measure 39
1001
0000
1000
0001
0010
0000
0100
1000
,  // measure 40
0010
0000
0100
0010
0100
0010
0100
0001
,  // measure 41
0010
0100
1000
0001
2000
0000
0000
0000
,  // measure 42
0000
3001
0100
1000
0100
0001
1001
0000
,  // measure 43
1001
0000
0010
1000
0100
0010
0001
0100
,  // measure 44
0000
0010
0100
0010
0100
0010
1000
0100
,  // measure 45
0010
0011
0100
1100
,  // measure 46
1000
0001
0010
1000
0010
0001
1001
0000
,  // measure 47
0012
0010
0010
0010
,  // measure 48
1000
0000
1000
0000
1000
0000
1003
0100
,  // measure 49
0010
0110
1001
1001
,  // measure 50
0000
0110
0110
1001
,  // measure 51
2100
0100
0100
0100
,  // measure 52
0001
0000
0001
0000
0001
0000
3001
0010
,  // measure 53
0100
0110
1001
1001
,  // measure 54
0001
1000
0100
0001
0100
1000
1001
0000
,  // measure 55
0010
0001
0000
0000
0010
0001
0000
0000
,  // measure 56
0010
0001
1000
0010
1000
0010
1000
0000
,  // measure 57
0100
1000
0000
0000
0100
1000
0000
0000
,  // measure 58
0100
1000
0001
0100
0001
0100
0001
0000
,  // measure 59
0100
0001
0000
0000
0100
0001
0000
0000
,  // measure 60
0100
0001
1000
0100
1000
0100
1000
0000
,  // measure 61
0010
1000
0000
0000
0010
1000
0000
0000
,  // measure 62
0010
1000
0001
0010
0001
0010
0001
0000
,  // measure 63
1002
0000
0000
0000
1000
1000
1003
0000
,  // measure 64
2000
0000
0000
0000
0001
0001
3001
0000
,  // measure 65
1000
0010
1000
0010
1000
0100
0010
0001
,  // measure 66
1001
0000
0000
0000
,  // measure 67
0000
1001
0000
0000
;

//---------------dance-single - ----------------
#NOTES:
     dance-single:
     :
     Medium:
     8:
     0.475,0.488,0.728,0.212,0.000: // measure 1
1100
0001
1100
0001
,  // measure 2
1100
0000
0001
0010
0001
0000
1001
0000
,  // measure 3
0101
1000
0101
1000
,  // measure 4
0101
0000
1000
0100
1000
0000
1001
0000
,  // measure 5
1100
0001
1100
0001
,  // measure 6
1100
0000
0001
0010
0001
0000
1001
0000
,  // measure 7
0101
1000
0101
1000
,  // measure 8
0101
0000
1000
0100
1000
0000
1001
0000
,  // measure 9
0002
0000
0100
0200
0000
0000
0303
0000
,  // measure 10
0020
0000
1000
2000
0000
0000
3030
0000
,  // measure 11
0110
0000
0110
0000
0100
0001
1000
0000
,  // measure 12
1000
0010
0010
0110
,  // measure 13
0001
0101
1000
1100
,  // measure 14
0001
0101
1000
1100
,  // measure 15
1000
0001
1000
0001
2000
0000
0000
0000
,  // measure 16
0000
3001
0100
0000
0010
0010
0010
0000
,  // measure 17
1000
1010
0001
0011
,  // measure 18
1000
1010
0001
0011
,  // measure 19
1000
0001
1000
0000
0001
1000
0002
0000
,  // measure 20
0000
1003
0010
0000
0100
0100
0100
0000
,  // measure 21
0220
0000
0000
0300
,  // measure 22
2000
0000
0000
3030
,  // measure 23
0001
0000
0001
1000
0010
0000
0010
0000
,  // measure 24
1000
0000
0001
0000
0100
0100
0100
0000
,  // measure 25
1010
0001
1010
0001
,  // measure 26
1010
0000
0001
1000
0000
0000
0000
0000
,  // measure 27
0011
1000
0011
1000
,  // measure 28
0011
0000
1000
0001
0000
0000
0000
0000
,  // measure 29
1010
0001
1010
0001
,  // measure 30
1010
0000
0001
1000
0000
0000
0000
0000
,  // measure 31
0011
1000
0011
1000
,  // measure 32
0011
0000
1000
0001
1000
0001
1000
0000
,  // measure 33
1100
0000
0020
0002
0000
0000
0033
0000
,  // measure 34
0011
0000
0200
2000
0000
0000
3300
0000
,  // measure 35
0010
0001
0010
0002
0000
1000
1003
0000
,  // measure 36
0110
0110
1001
1001
,  // measure 37
0020
0000
0000
0000
,  // measure 38
0000
0000
0000
0030
,  // measure 39
0011
0001
1010
1000
,  // measure 40
0011
0001
1010
1000
,  // measure 41
0010
0100
0010
0100
0020
0000
0000
0000
,  // measure 42
0000
1030
0001
0000
0100
0100
0100
0000
,  // measure 43
1100
1000
0101
0001
,  // measure 44
1100
1000
0101
0001
,  // measure 45
0100
0010
0100
0000
0010
0100
0002
0000
,  // measure 46
0000
0103
0001
0000
1000
1000
1000
0000
,  // measure 47
0220
0000
0000
0030
,  // measure 48
0002
0000
0000
0303
,  // measure 49
1010
0100
0001
1001
,  // measure 50
0000
0100
0100
1001
,  // measure 51
0220
0000
0000
0300
,  // measure 52
2000
0000
0000
3030
,  // measure 53
0101
0010
1000
1001
,  // measure 54
0010
0000
0010
0000
0010
0001
1001
0000
,  // measure 55
1100
0001
1100
0001
,  // measure 56
1100
0000
0001
0100
0010
0100
0001
0000
,  // measure 57
0011
1000
0011
1000
,  // measure 58
0011
0000
1000
0010
0100
0010
1000
0000
,  // measure 59
1010
0001
1010
0001
,  // measure 60
1010
0000
0001
0010
0100
0010
0001
0000
,  // measure 61
0101
1000
0101
1000
,  // measure 62
0101
0000
1000
0100
0010
0100
1000
0000
,  // measure 63
1001
0000
0000
0000
0100
0100
0100
0000
,  // measure 64
0000
0000
0000
0000
0010
0010
0010
0000
,  // measure 65
0110
0000
0110
0000
1000
0001
0100
0000
,  // measure 66
0110
0000
0000
0000
,  // measure 67
0000
1001
0000
0000
;

//---------------dance-single - ----------------
#NOTES:
     dance-single:
     :
     Easy:
     5:
     0.238,0.275,0.267,0.157,0.000: // measure 1
0001
0000
0001
0000
,  // measure 2
0010
0000
0010
0000
,  // measure 3
0100
0000
0100
0000
,  // measure 4
1000
0000
1000
0000
,  // measure 5
0001
0000
0001
0000
,  // measure 6
0100
0000
0100
0000
,  // measure 7
0010
0000
0010
0000
,  // measure 8
1000
0000
1000
0000
,  // measure 9
2002
0000
0000
3003
,  // measure 10
2002
0000
0000
3003
,  // measure 11
0001
0100
0001
0000
,  // measure 12
0000
1001
0000
0000
,  // measure 13
1000
0000
0001
0000
,  // measure 14
0010
0000
0001
0000
,  // measure 15
1000
0000
0100
0000
,  // measure 16
1000
0100
0010
0001
,  // measure 17
1000
0000
0100
0000
,  // measure 18
1000
0000
0010
0000
,  // measure 19
0100
0000
0001
0000
,  // measure 20
1000
0100
0010
0001
,  // measure 21
0200
0000
0000
0000
,  // measure 22
0302
0000
0000
0000
,  // measure 23
1003
0100
1000
0000
,  // measure 24
2002
0000
0000
3003
,  // measure 25
1001
0000
0001
0000
,  // measure 26
0110
0000
1000
0000
,  // measure 27
1001
0000
1000
0000
,  // measure 28
0110
0000
0001
0000
,  // measure 29
1001
0000
0001
0000
,  // measure 30
0110
0000
1000
0000
,  // measure 31
1001
0000
1000
0000
,  // measure 32
0110
0000
0001
0000
,  // measure 33
2002
0000
0000
3003
,  // measure 34
2002
0000
0000
3003
,  // measure 35
0001
0010
0001
0000
,  // measure 36
0000
1000
0001
1000
,  // measure 37
1001
0000
0000
0000
,  // measure 38
0000
0000
0000
0000
,  // measure 39
0001
0000
0100
0000
,  // measure 40
0010
0000
0100
0000
,  // measure 41
0001
0001
1001
0000
,  // measure 42
1000
0100
0010
0001
,  // measure 43
1000
0000
0010
0000
,  // measure 44
0100
0000
0010
0000
,  // measure 45
1000
0001
1000
0001
,  // measure 46
1000
0100
0010
0001
,  // measure 47
0200
0000
0000
0000
,  // measure 48
0320
0000
0000
0000
,  // measure 49
1030
0000
0001
0000
,  // measure 50
1000
0001
0010
0001
,  // measure 51
0200
0000
0000
0000
,  // measure 52
0320
0000
0000
0000
,  // measure 53
1030
0000
0001
0000
,  // measure 54
0200
0000
0310
1001
,  // measure 55
1001
0000
0001
0000
,  // measure 56
0110
0000
1000
0000
,  // measure 57
1001
0000
1000
0000
,  // measure 58
0110
0000
0001
0000
,  // measure 59
1001
0000
0001
0000
,  // measure 60
0110
0000
1000
0000
,  // measure 61
1001
0000
1000
0000
,  // measure 62
0110
0000
0001
0000
,  // measure 63
1001
0000
0000
0000
,  // measure 64
0001
0000
0000
0000
,  // measure 65
1001
1001
1000
0001
,  // measure 66
0100
0000
0000
0000
,  // measure 67
0000
1001
0000
0000
;

//---------------dance-single - ----------------
#NOTES:
     dance-single:
     :
     Beginner:
     1:
     0.067,0.153,0.018,0.000,0.000: // measure 1
1000
0000
0000
0000
,  // measure 2
0000
0000
0000
0000
,  // measure 3
0001
0000
0000
0000
,  // measure 4
0000
0000
0000
0000
,  // measure 5
1000
0000
0000
0000
,  // measure 6
0000
0000
0000
0000
,  // measure 7
0001
0000
0000
0000
,  // measure 8
0000
0000
0000
0000
,  // measure 9
1000
0000
0000
0000
,  // measure 10
1000
0000
0000
0000
,  // measure 11
1000
0000
0000
0000
,  // measure 12
0000
0000
0000
0000
,  // measure 13
0010
0000
0000
0000
,  // measure 14
0000
0000
0000
0000
,  // measure 15
0000
0000
0000
0000
,  // measure 16
0000
0000
0000
0000
,  // measure 17
0010
0000
0000
0000
,  // measure 18
0000
0000
0000
0000
,  // measure 19
0000
0000
0000
0000
,  // measure 20
0000
0000
0000
0000
,  // measure 21
0010
0000
0000
0000
,  // measure 22
0000
0000
0000
0000
,  // measure 23
0010
0000
0000
0000
,  // measure 24
0000
0000
0000
0000
,  // measure 25
1000
0000
0000
0000
,  // measure 26
0000
0000
0000
0000
,  // measure 27
0001
0000
0000
0000
,  // measure 28
0000
0000
0000
0000
,  // measure 29
1000
0000
0000
0000
,  // measure 30
0000
0000
0000
0000
,  // measure 31
0001
0000
0000
0000
,  // measure 32
0000
0000
0000
0000
,  // measure 33
0100
0000
0000
0000
,  // measure 34
0100
0000
0000
0000
,  // measure 35
0100
0000
0000
0000
,  // measure 36
0000
0000
0000
0000
,  // measure 37
0001
0000
0000
0000
,  // measure 38
0000
0000
0000
0000
,  // measure 39
1000
0000
0000
0000
,  // measure 40
0001
0000
0000
0000
,  // measure 41
1000
0000
0000
0000
,  // measure 42
0000
0000
0000
0000
,  // measure 43
0010
0000
0000
0000
,  // measure 44
0100
0000
0000
0000
,  // measure 45
0010
0000
0000
0000
,  // measure 46
0000
0000
0000
0000
,  // measure 47
1000
0000
0000
0000
,  // measure 48
1000
0000
0000
0000
,  // measure 49
1000
0000
0000
0000
,  // measure 50
0000
0000
0000
0000
,  // measure 51
0001
0000
0000
0000
,  // measure 52
0001
0000
0000
0000
,  // measure 53
0001
0000
0000
0000
,  // measure 54
0000
0000
0000
0000
,  // measure 55
1000
0000
0001
0000
,  // measure 56
1000
0000
0000
0000
,  // measure 57
0001
0000
1000
0000
,  // measure 58
0001
0000
0000
0000
,  // measure 59
1000
0000
0001
0000
,  // measure 60
1000
0000
0000
0000
,  // measure 61
0001
0000
1000
0000
,  // measure 62
0001
0000
0000
0000
,  // measure 63
1001
0000
0000
0000
,  // measure 64
0010
0000
0000
0000
,  // measure 65
0010
0000
0100
0000
,  // measure 66
0010
0000
0000
0000
,  // measure 67
0000
1001
0000
0000
;
