#TITLE:SP-TRIP MACHINE;
#SUBTITLE:(for beatmania II);
#ARTIST:dj TAKA feat. DE-SIRE;
#TITLETRANSLIT:;
#SUBTITLETRANSLIT:;
#ARTISTTRANSLIT:;
#CREDIT:DigiMindAxel;
#BANNER:SP-TRIP MACHINE (for beatmania II).png;
#BACKGROUND:SP-TRIP MACHINE (for beatmania II)-bg.png;
#LYRICSPATH:;
#CDTITLE:beatmania IIDX.png;
#MUSIC:SP-TRIP MACHINE (for beatmania II).mp3;
#METERTYPE:DDR X;
#OFFSET:-7.920;
#SAMPLESTART:36.393;
#SAMPLELENGTH:12.000;
#SELECTABLE:YES;
#BPMS:0.000=168.100;
#STOPS:207.500=0.178
;
#BGCHANGES:;

//---------------dance-single - ----------------
#NOTES:
     dance-single:
     :
     Easy:
     8:
     0.304,0.344,0.154,0.000,0.000: // measure 1
0000
0000
0000
0000
,  // measure 2
0000
0000
0000
0000
,  // measure 3
0000
0000
0000
0000
,  // measure 4
0000
0000
0000
0000
,  // measure 5
0010
0000
0010
0000
,  // measure 6
1000
0000
0100
0000
0001
0000
0010
1000
,  // measure 7
0100
0001
1000
0001
,  // measure 8
0100
0001
0101
0000
,  // measure 9
0010
0000
0010
0000
,  // measure 10
0001
0000
0100
0000
1000
0000
0010
0001
,  // measure 11
0100
1000
0001
1000
,  // measure 12
0100
1000
1100
1001
,  // measure 13
0100
0000
0100
0000
,  // measure 14
0001
0000
0010
0000
1000
0000
0100
0001
,  // measure 15
0010
1000
0001
1000
,  // measure 16
0010
0010
0100
0100
,  // measure 17
0010
0000
0010
0000
,  // measure 18
1000
0000
0010
0000
0001
0000
0100
1000
,  // measure 19
0010
0001
1000
0001
,  // measure 20
0010
0001
0001
0001
,  // measure 21
0001
0010
0000
0000
0000
0000
0001
0100
,  // measure 22
0000
0010
0001
0100
0000
0000
0000
0000
,  // measure 23
0000
0100
0000
0000
,  // measure 24
0010
0001
1000
0010
,  // measure 25
0100
0001
1000
0100
,  // measure 26
0000
0000
0000
0100
1000
0010
1000
0100
,  // measure 27
0000
0000
0100
0000
,  // measure 28
0000
0000
0000
0010
,  // measure 29
0010
0000
0100
0000
0001
1000
0000
0000
,  // measure 30
0000
0010
0000
1000
0100
0000
0101
0000
,  // measure 31
0010
0000
0100
0000
1000
0001
0000
0010
,  // measure 32
0000
1000
0000
0100
1000
0100
0001
0000
,  // measure 33
0010
0000
0100
0000
1000
0001
0000
0000
,  // measure 34
0000
0010
0000
0001
0100
0000
1100
0000
,  // measure 35
0010
0000
0100
0000
0001
1000
0000
0010
,  // measure 36
0000
0001
0000
0100
0001
0100
1000
0000
,  // measure 37
1001
1000
0001
0000
,  // measure 38
0001
1000
0110
1001
,  // measure 39
0010
0001
0100
0001
0000
0100
0010
0000
,  // measure 40
0110
0000
0000
0000
,  // measure 41
1001
1000
0001
1000
,  // measure 42
0110
0001
1000
0100
,  // measure 43
1000
0000
0001
0000
,  // measure 44
1000
0001
0100
0010
,  // measure 45
0100
1000
0000
0010
0001
0000
0000
0000
,  // measure 46
1000
0100
0001
0100
1000
0000
0101
0000
,  // measure 47
0010
0001
0000
0100
1000
0000
0000
0000
,  // measure 48
0110
0000
0000
0000
0100
0000
0000
0001
,  // measure 49
1000
0010
0001
1000
,  // measure 50
0110
0000
0000
0000
0100
0000
0000
0001
,  // measure 51
1000
0010
1000
0001
,  // measure 52
0100
0010
1000
0001
,  // measure 53
0100
0000
0000
0000
;

//---------------dance-single - ----------------
#NOTES:
     dance-single:
     :
     Medium:
     9:
     0.350,0.401,0.165,0.000,0.000: // measure 1
0000
0000
0000
0000
,  // measure 2
0000
0000
0000
0000
,  // measure 3
0000
0000
0000
0000
,  // measure 4
0000
0000
0000
0000
,  // measure 5
0100
0000
0100
0000
0000
0001
0010
1000
,  // measure 6
0000
0001
0100
1000
,  // measure 7
0001
0100
1000
0000
0001
0000
0010
0000
,  // measure 8
1001
0010
0100
1001
,  // measure 9
0100
0000
0100
0000
0000
1000
0010
0001
,  // measure 10
0000
1000
0100
0001
,  // measure 11
1000
0100
0001
0000
1000
0000
0010
0000
,  // measure 12
1001
0010
0100
1001
,  // measure 13
0010
0000
0010
0000
0000
1000
0100
0001
,  // measure 14
0000
1000
0010
0001
,  // measure 15
1000
0010
0001
0000
1000
0000
0001
0000
,  // measure 16
0100
0100
0010
0000
0100
0100
0010
0000
,  // measure 17
0100
0000
0100
0000
0000
0001
0100
1000
,  // measure 18
0000
0001
0010
1000
,  // measure 19
0001
0010
1000
0000
0001
0000
0100
0000
,  // measure 20
1001
0100
0010
1001
,  // measure 21
1000
0100
0001
0000
0000
0000
1000
0010
,  // measure 22
0000
0001
1000
0010
0000
0000
0000
0000
,  // measure 23
0100
0010
0100
0100
,  // measure 24
0001
0010
0100
0001
,  // measure 25
1000
0010
0100
1000
,  // measure 26
0100
0010
0001
1000
,  // measure 27
0010
0100
0010
0100
,  // measure 28
0001
0000
0000
0000
,  // measure 29
0100
0001
0010
0100
1000
0010
0000
0000
,  // measure 30
0000
1000
0000
0001
0100
0000
1010
0000
,  // measure 31
0100
1000
0010
0100
0001
0010
0000
1000
,  // measure 32
0000
0001
0000
0010
0100
1000
0010
0000
,  // measure 33
0100
1000
0010
0100
0001
0010
0000
0000
,  // measure 34
0000
0001
0000
1000
0100
0000
0011
0000
,  // measure 35
0100
0001
0010
0100
1000
0010
0000
0001
,  // measure 36
0000
1000
0000
0010
0100
0001
0010
0000
,  // measure 37
1010
0010
0001
1000
,  // measure 38
0101
0010
0100
1010
,  // measure 39
0001
0010
0100
1000
0000
0010
0001
0000
,  // measure 40
0110
0000
0000
0000
,  // measure 41
0010
0100
1000
0010
,  // measure 42
0100
0001
0010
0110
,  // measure 43
0001
1000
0000
1000
,  // measure 44
0001
1000
0010
0100
,  // measure 45
0001
0010
0000
1000
0010
0000
0000
0000
,  // measure 46
0100
1000
0100
0010
0001
0000
0011
0000
,  // measure 47
1000
0010
0000
0001
0010
0000
0000
0000
,  // measure 48
0110
0000
0010
0000
,  // measure 49
0010
0100
1000
0010
,  // measure 50
0100
0001
0000
0010
0000
1000
0000
0100
,  // measure 51
0010
0100
0001
1000
,  // measure 52
0010
0100
0001
1000
,  // measure 53
0010
0000
0000
0000
;

//---------------dance-single - ----------------
#NOTES:
     dance-single:
     :
     Hard:
     10:
     0.435,0.401,0.110,0.000,0.000: // measure 1
0000
0000
0000
0000
,  // measure 2
0000
0000
0000
0000
,  // measure 3
0000
0000
0000
0000
,  // measure 4
0000
0000
0000
0000
,  // measure 5
0100
0010
0100
0000
0000
1000
0010
0001
,  // measure 6
0000
0000
1000
0001
1000
0001
0010
0000
,  // measure 7
1000
0100
0001
0000
1000
0000
0010
0000
,  // measure 8
1000
0001
0010
0100
0010
0001
1000
0000
,  // measure 9
0100
0010
0100
0000
0000
0001
0010
1000
,  // measure 10
0000
0000
0001
1000
0001
1000
0010
0000
,  // measure 11
0001
0100
1000
0000
0001
0000
0010
0000
,  // measure 12
0001
1000
0010
0100
0010
1000
0001
0000
,  // measure 13
0100
0010
0100
0000
0000
1000
0010
0001
,  // measure 14
0000
0000
1000
0001
1000
0001
0010
0000
,  // measure 15
1000
0100
0001
0000
1000
0000
0010
0000
,  // measure 16
1000
0100
0010
0010
0100
1000
0001
0001
,  // measure 17
0100
0010
0100
0000
0000
0001
0010
1000
,  // measure 18
0000
0000
0001
1000
0001
1000
0010
0000
,  // measure 19
0001
0100
1000
0000
0001
0000
0010
0000
,  // measure 20
0001
1000
0010
0100
0010
1000
0001
0010
,  // measure 21
1000
0010
0001
0000
0000
0000
1000
0001
,  // measure 22
0000
1000
0001
0010
0000
0000
0000
0000
,  // measure 23
0100
1000
1000
0010
0000
0000
0100
0000
,  // measure 24
0001
0010
0100
0100
0100
0010
0001
0000
,  // measure 25
1000
0000
0010
0000
1000
0100
0010
0010
,  // measure 26
0010
0100
1000
0000
0001
0010
0001
0000
,  // measure 27
1000
0100
0010
0100
,  // measure 28
0000
0000
1000
0001
,  // measure 29
1000
0100
0001
1000
0010
0001
0000
0000
,  // measure 30
0000
1010
0000
0101
0100
0000
1010
0000
,  // measure 31
0001
0100
1000
0001
0010
1000
0000
0001
,  // measure 32
0000
1001
0000
1000
0010
0001
0010
0000
,  // measure 33
0001
0100
1000
0001
0010
1000
0000
0000
,  // measure 34
0000
0011
0000
1100
0100
0000
0011
0000
,  // measure 35
1000
0100
0001
1000
0010
0001
0000
1000
,  // measure 36
0000
1001
0000
0001
0010
1000
0010
0000
,  // measure 37
1000
0010
0100
0001
1000
0000
0001
0000
,  // measure 38
1000
0000
0001
0100
0010
1000
0100
0010
,  // measure 39
1000
0000
0001
0010
0100
1000
0000
0001
,  // measure 40
0010
0000
0010
0000
0010
0001
1000
0100
,  // measure 41
0010
0000
0100
0000
1000
0010
0010
0000
,  // measure 42
0100
0000
0001
0010
0010
0000
0100
0000
,  // measure 43
0110
0000
0001
0000
0000
1000
0000
0000
,  // measure 44
0001
1000
0001
0100
0010
0100
0010
1000
,  // measure 45
0001
0100
0000
0100
1000
0000
0000
0000
,  // measure 46
0100
1000
0100
0001
0100
0000
1010
0000
,  // measure 47
1000
0100
0000
0010
0001
0000
0000
0000
,  // measure 48
0100
0001
0001
0000
1000
0010
0010
0100
,  // measure 49
0010
0100
0010
0010
,  // measure 50
0100
0001
1000
0100
0000
0010
0001
0100
,  // measure 51
0010
0100
0001
1000
,  // measure 52
0010
0100
0001
0010
0000
0100
1000
0010
,  // measure 53
0010
0000
0000
0000
;

//---------------dance-single - ----------------
#NOTES:
     dance-single:
     :
     Challenge:
     13:
     0.666,0.630,0.397,0.000,0.176: // measure 1
0001
1000
0100
0010
0000
0001
0001
1000
,  // measure 2
1000
0000
0000
0000
0100
0000
1000
0000
0010
0000
0100
0000
0001
1000
0001
1000
,  // measure 3
0001
1000
0100
0010
0000
0001
0001
1000
,  // measure 4
0010
0100
0010
0100
0001
0000
0001
0000
1000
0100
1000
0100
1000
0000
0001
0000
,  // measure 5
0101
0000
1001
0000
1000
0001
1000
0001
,  // measure 6
0010
0100
0010
0001
1000
0100
0001
0100
,  // measure 7
0000
1100
1100
0000
1000
0100
0010
1000
,  // measure 8
0010
0001
0100
0001
1000
0100
0010
0100
,  // measure 9
1100
0000
1001
0000
0001
1000
0100
0010
,  // measure 10
0100
1000
0001
1000
0001
0100
1000
0100
,  // measure 11
0000
0101
0101
0000
0001
0010
0100
0001
,  // measure 12
0100
1000
0001
0100
0010
0010
1000
1000
,  // measure 13
1001
0000
1001
0000
0001
1000
0100
0001
,  // measure 14
0100
1000
0001
0100
0001
1000
0100
0010
,  // measure 15
0000
0101
0101
0000
0001
1000
0100
0010
,  // measure 16
0001
0100
0001
0100
0010
0000
0010
0000
1000
0100
1000
0100
0010
0000
0010
0000
,  // measure 17
0011
0000
1001
0000
1000
0001
0010
1000
,  // measure 18
0010
0001
1000
0100
1000
0001
0100
0010
,  // measure 19
0000
1010
1010
0000
1000
0001
0010
0100
,  // measure 20
1000
0001
1000
0001
1000
1000
1000
1000
,  // measure 21
1001
0000
0000
1100
0000
1000
0001
0100
,  // measure 22
0000
0010
0010
0010
0000
1000
0001
0001
,  // measure 23
1000
0001
0010
0100
0000
1000
0001
1000
,  // measure 24
0010
0000
0100
0000
0001
1000
0000
1000
0001
0000
1000
0000
0100
1000
0100
0000
,  // measure 25
1100
0000
0000
0000
0000
0000
1001
0000
0000
0000
0001
0000
0100
0001
0000
0001
,  // measure 26
0100
0000
0010
0000
1000
0001
1000
0000
0010
0000
0100
0000
0001
1000
0001
0000
,  // measure 27
1000
0100
0010
0100
0000
1000
0001
0100
,  // measure 28
0000
0000
0001
0000
0001
0000
0001
0000
0100
0010
0100
0010
1000
0000
1000
0000
,  // measure 29
0001
0100
0110
0000
0101
0001
1000
0000
,  // measure 30
0100
0001
0100
1000
1100
0000
0011
0000
,  // measure 31
0001
0100
0110
0000
0101
0001
1000
0000
,  // measure 32
0100
1000
0100
1000
0010
0000
0010
0000
0100
0001
0100
0001
1000
0000
1000
0000
,  // measure 33
0100
0010
0110
0000
1010
1000
0001
0000
,  // measure 34
0010
0100
0010
0100
1000
0001
0001
0000
,  // measure 35
1000
0010
0110
0000
0101
0001
1000
0000
,  // measure 36
0010
0000
0100
0000
0010
0000
0100
0000
0001
1000
0001
1000
0001
1000
0001
1000
,  // measure 37
0001
0000
0000
0000
1001
0000
0000
0000
0001
1000
0001
0000
0100
0000
0000
0000
,  // measure 38
0010
1000
0001
0001
1000
0100
0001
0100
,  // measure 39
1000
0010
0100
0000
0010
1000
0100
0000
,  // measure 40
0010
0000
0010
0000
0010
0000
0000
0000
0001
1000
0001
0000
1000
0000
1000
0000
,  // measure 41
0001
0000
0010
0000
0100
0000
0010
0000
0001
1000
0001
0000
0100
0000
0000
0000
,  // measure 42
0001
1000
0001
0000
1000
0010
0001
0010
,  // measure 43
1000
0100
0010
0000
0100
1000
0001
0000
,  // measure 44
1000
0000
1000
0000
0001
0000
0001
0000
1000
0000
1000
0001
0100
0000
0100
0000
,  // measure 45
0110
0010
1000
0000
0100
0010
0010
0100
,  // measure 46
1000
0001
0100
1000
0000
0100
0001
1000
,  // measure 47
0001
0010
0100
0001
0100
1000
0001
0000
,  // measure 48
1001
0000
1000
0001
1001
0000
0001
1000
,  // measure 49
1001
0000
0001
0100
0100
0001
0010
0000
,  // measure 50
0001
1000
0100
0001
0000
0100
1000
0001
,  // measure 51
1000
0100
0010
1000
0010
0001
1000
0000
,  // measure 52
0001
0000
0100
0000
0010
0000
0001
0000
0010
0000
1000
0001
1000
0000
1000
0000
,  // measure 53
1001
0000
0000
0000
;

//---------------dance-single - ----------------
#NOTES:
     dance-single:
     :
     Beginner:
     3:
     0.137,0.172,0.055,0.000,0.000: // measure 1
0000
0000
0000
0000
,  // measure 2
0000
0000
0000
0000
,  // measure 3
0000
0000
0000
0000
,  // measure 4
0000
0000
0000
0000
,  // measure 5
1000
0000
1000
0000
,  // measure 6
0001
0000
0001
0000
,  // measure 7
0010
0000
0100
0000
,  // measure 8
0010
0000
0100
0000
,  // measure 9
1000
0000
1000
0000
,  // measure 10
0001
0000
0001
0000
,  // measure 11
0100
0000
0010
0000
,  // measure 12
0100
0000
0010
0000
,  // measure 13
1000
0000
1000
0000
,  // measure 14
0100
0000
0100
0000
,  // measure 15
1000
0000
1000
0000
,  // measure 16
0001
0000
0001
0000
,  // measure 17
0010
0000
0010
0000
,  // measure 18
0001
0000
0001
0000
,  // measure 19
0100
0000
0010
0000
,  // measure 20
0100
0000
0000
0000
,  // measure 21
0110
0000
0000
0000
,  // measure 22
0000
0000
0000
0000
,  // measure 23
0010
0000
0000
0000
,  // measure 24
0000
0000
0000
0000
,  // measure 25
0100
0000
0000
0000
,  // measure 26
0010
0000
0000
0000
,  // measure 27
0100
0000
0000
0000
,  // measure 28
0001
0000
0000
0000
,  // measure 29
1001
0000
1000
0000
,  // measure 30
0001
0000
1000
0000
,  // measure 31
0100
0000
0010
0000
,  // measure 32
0100
0000
0010
0000
,  // measure 33
0001
0000
1000
0000
,  // measure 34
0001
0000
1000
0000
,  // measure 35
0010
0000
0100
0000
,  // measure 36
0010
0000
0000
0000
,  // measure 37
0110
0000
0000
0000
,  // measure 38
0000
0000
0100
0000
,  // measure 39
0010
0000
0100
0000
,  // measure 40
0001
0000
1000
0000
,  // measure 41
0100
0000
0010
0000
,  // measure 42
0100
0000
0010
0000
,  // measure 43
0001
0000
0001
0000
,  // measure 44
1000
0000
0000
0000
,  // measure 45
1001
0000
0001
0000
,  // measure 46
1000
0000
0100
0000
,  // measure 47
1000
0000
0001
0000
,  // measure 48
1000
0000
0010
0000
,  // measure 49
0100
0000
0100
0000
,  // measure 50
0001
0000
0001
0000
,  // measure 51
0010
0000
0100
0000
,  // measure 52
1000
0000
0001
0000
,  // measure 53
1001
0000
0000
0000
;
