#TITLE:SILENT HILL;
#SUBTITLE:~Tell Me You Love Me For Christmas~;
#ARTIST:THOMAS HOWARD;
#TITLETRANSLIT:;
#SUBTITLETRANSLIT:;
#ARTISTTRANSLIT:;
#CREDIT:DigiMindAxel;
#BANNER:SILENT HILL ~Tell Me You Love Me For Christmas~.png;
#BACKGROUND:SILENT HILL ~Tell Me You Love Me For Christmas~-bg.png;
#LYRICSPATH:SILENT HILL ~Tell Me You Love Me For Christmas~.lrc;
#CDTITLE:Konami original REMIX.png;
#MUSIC:SILENT HILL ~Tell Me You Love Me For Christmas~.mp3;
#METERTYPE:DDR X;
#OFFSET:-8.985;
#SAMPLESTART:52.420;
#SAMPLELENGTH:12.000;
#SELECTABLE:YES;
#DISPLAYBPM:60.000:120.000;
#BPMS:0.000=120.000,12.000=30.000,14.000=60.000,16.000=120.000,112.000=60.000,124.000=120.000;
#STOPS:;
#BGCHANGES:;

//---------------dance-single - ----------------
#NOTES:
     dance-single:
     :
     Beginner:
     3:
     0.119,0.142,0.110,0.000,0.000: // measure 1
1000
0000
1000
0000
,  // measure 2
0001
0000
1000
0000
,  // measure 3
0010
0000
0010
0000
,  // measure 4
0100
0000
0000
0000
,  // measure 5
1001
0000
0010
0000
,  // measure 6
0100
0000
0010
0000
,  // measure 7
1000
0000
0001
0000
,  // measure 8
1000
0000
0001
0000
,  // measure 9
1001
0000
0010
0000
,  // measure 10
0100
0000
0010
0000
,  // measure 11
0100
0000
0001
0000
,  // measure 12
1000
0000
0001
0000
,  // measure 13
1001
0000
1000
0000
,  // measure 14
0100
0000
0010
0000
,  // measure 15
0001
0000
0010
0000
,  // measure 16
0100
0000
1000
0000
,  // measure 17
1001
0000
0001
0000
,  // measure 18
0010
0000
0100
0000
,  // measure 19
1000
0000
0001
0000
,  // measure 20
1000
0000
0001
0000
,  // measure 21
1001
0000
0010
0000
,  // measure 22
0100
0000
0001
0000
,  // measure 23
1000
0000
0001
0000
,  // measure 24
0100
0000
0100
0000
,  // measure 25
1001
0000
0100
0000
,  // measure 26
0010
0000
1001
0000
,  // measure 27
0001
0000
1000
0000
,  // measure 28
0001
0000
1000
0000
,  // measure 29
1001
0000
0000
0000
,  // measure 30
0010
0000
0000
0000
,  // measure 31
0000
0000
0000
0000
,  // measure 32
1000
0000
0000
0000
,  // measure 33
0001
0000
0000
0000
,  // measure 34
0100
0000
0000
0000
,  // measure 35
0000
0000
0000
0000
,  // measure 36
0001
0000
0000
0000
,  // measure 37
1000
0000
0000
0000
,  // measure 38
0000
0000
0001
0000
,  // measure 39
1000
0000
0001
0000
,  // measure 40
1001
0000
1000
0000
,  // measure 41
1000
0000
1000
0000
,  // measure 42
0001
0000
0001
0000
,  // measure 43
0001
0000
0000
1001
,  // measure 44
0000
0010
0000
0100
,  // measure 45
0000
0001
0000
1000
,  // measure 46
0000
0100
0000
1000
,  // measure 47
0000
0001
0000
0000
,  // measure 48
1001
0000
1000
0000
,  // measure 49
1001
0000
0001
0000
,  // measure 50
1001
0000
1000
0000
,  // measure 51
0001
0000
1000
0000
,  // measure 52
0110
0000
0010
0000
,  // measure 53
0100
0000
0010
0000
,  // measure 54
0100
0000
0001
0000
,  // measure 55
1000
0000
0001
0000
,  // measure 56
1001
0000
1000
0000
,  // measure 57
1000
0000
0001
0000
,  // measure 58
0001
0000
0010
0000
,  // measure 59
0010
0000
0100
0000
,  // measure 60
0110
0000
0000
0000
;

//---------------dance-single - ----------------
#NOTES:
     dance-single:
     :
     Medium:
     7:
     0.286,0.304,0.192,0.158,0.000: // measure 1
1001
0000
0110
0001
,  // measure 2
2000
0000
3020
0000
,  // measure 3
0130
0001
0010
0100
,  // measure 4
2000
0000
0000
3000
0000
0000
0000
0000
0000
0000
0000
0000
0100
0000
0100
0000
,  // measure 5
1001
0001
1000
0001
,  // measure 6
0010
0001
0010
0000
0001
0000
1000
0000
,  // measure 7
0100
1000
0100
0000
0010
0000
0001
0000
,  // measure 8
1000
0001
1000
0000
0010
0100
0100
0000
,  // measure 9
1001
0000
0001
0100
0001
0000
0100
0000
,  // measure 10
1001
0000
0010
1000
0010
0000
1001
0000
,  // measure 11
0100
0000
0010
0001
0010
0000
1001
0000
,  // measure 12
0010
0100
0100
0000
0010
0100
0010
0000
,  // measure 13
1000
0000
0100
0010
0002
0000
1003
0001
,  // measure 14
0000
0010
0100
1000
0000
0010
0100
0000
,  // measure 15
0002
0000
0000
1000
1003
0000
0001
0000
,  // measure 16
0000
0100
0010
1000
0000
0010
0100
0000
,  // measure 17
0010
0000
0100
0000
0001
0000
1000
0100
,  // measure 18
0000
0000
1000
0000
0001
1000
0100
0010
,  // measure 19
0000
0000
0000
0101
0000
0101
0000
1001
,  // measure 20
0000
1000
1000
0001
0010
0001
1000
0000
,  // measure 21
2001
0000
3002
0000
,  // measure 22
0203
0000
0320
0000
,  // measure 23
2030
0000
3002
0000
,  // measure 24
1003
0000
0110
0000
1001
1000
1000
0000
,  // measure 25
1001
0100
0010
0101
,  // measure 26
1100
0001
1000
0001
,  // measure 27
1000
0000
1100
0000
0101
0000
0010
0100
,  // measure 28
0010
1000
0000
0001
0010
0001
0010
0100
,  // measure 29
1000
1000
0001
0001
0000
0000
0000
0000
,  // measure 30
0010
0100
1000
0001
0000
0010
0100
1000
,  // measure 31
0000
0010
0100
0001
0100
0010
0000
0000
,  // measure 32
2001
0000
0000
0001
,  // measure 33
3002
0000
0000
0100
,  // measure 34
0203
0000
0000
0000
,  // measure 35
0000
0310
0100
0010
,  // measure 36
1001
0000
0000
0100
,  // measure 37
0020
0000
0000
0000
,  // measure 38
0000
1030
0100
0010
,  // measure 39
0002
0000
0000
1003
0100
0000
0000
0000
,  // measure 40
1001
1000
0100
1000
,  // measure 41
0100
1000
0001
0010
,  // measure 42
0001
0000
0010
0000
0001
0000
1000
0010
,  // measure 43
0100
0000
0010
0100
0000
0000
1001
0000
,  // measure 44
0001
0010
0001
0010
,  // measure 45
0001
0000
1000
0000
0010
0100
0001
0010
,  // measure 46
0001
0000
1000
0000
0010
0000
1000
0010
,  // measure 47
0100
0000
0010
0100
0000
0000
0001
0000
,  // measure 48
1001
0100
0010
0100
,  // measure 49
0001
0100
0010
0100
0010
0000
1000
0010
,  // measure 50
0100
0001
1001
1000
,  // measure 51
0001
0000
0010
0001
0100
0000
0010
0000
,  // measure 52
0210
0000
0320
0000
,  // measure 53
0230
0000
0302
0000
,  // measure 54
1003
0000
0001
0010
0001
0000
1000
0100
,  // measure 55
0010
0000
0000
0001
0010
0100
1000
0010
,  // measure 56
0200
0000
0320
0000
,  // measure 57
2030
0000
3001
0000
,  // measure 58
1001
0000
0000
0000
0010
1000
1000
0000
,  // measure 59
1001
0000
0000
0000
0100
0001
0001
0000
,  // measure 60
1001
0000
0000
0000
;

//---------------dance-single - ----------------
#NOTES:
     dance-single:
     :
     Hard:
     10:
     0.425,0.446,0.220,0.268,0.055: // measure 1
1000
1000
0000
0001
0001
0000
1000
0000
,  // measure 2
0010
0010
0000
0100
0100
0000
0010
0000
,  // measure 3
1000
1000
0000
0001
0001
0000
1000
0000
,  // measure 4
2002
0000
0000
3003
0000
0000
0000
0000
0000
0000
0000
0000
0100
0000
0100
0000
,  // measure 5
1001
0000
0001
0000
1000
0020
0000
1030
,  // measure 6
0001
0000
0010
0000
0001
2000
0000
3001
,  // measure 7
0010
0000
0001
0000
0100
0020
0000
0130
,  // measure 8
0001
0000
0000
0000
1000
0000
0000
0000
0001
0000
1000
0100
1000
0000
0000
0000
,  // measure 9
0010
0100
0010
0100
0001
0010
0100
0000
,  // measure 10
0010
0001
0010
0001
0100
0010
1000
0000
,  // measure 11
0100
1000
0100
1000
0001
0100
0010
0000
,  // measure 12
1000
0001
0001
0000
0100
0100
0001
0001
,  // measure 13
1000
0100
0010
0100
1000
0001
0100
0001
,  // measure 14
0000
0001
1000
0100
0000
1000
1000
0001
,  // measure 15
0200
0000
0000
0010
0310
0000
0110
0000
,  // measure 16
0000
1000
0001
0100
0000
0001
1000
0100
,  // measure 17
1000
0010
0100
0010
1000
0100
0010
0001
,  // measure 18
0100
0000
0010
0000
0100
0001
1000
1000
,  // measure 19
0100
0000
0000
2000
0000
3002
0000
0203
,  // measure 20
0000
0000
0301
0000
0001
0000
1000
0000
0100
0000
0010
0000
0001
1000
0001
0000
,  // measure 21
0201
0310
0210
0301
,  // measure 22
1020
0130
0120
1030
,  // measure 23
2001
3100
0012
0103
,  // measure 24
1020
0000
0130
0000
0001
1000
1100
0000
,  // measure 25
1002
0000
0013
0000
0200
1000
1300
0000
,  // measure 26
2001
0000
3010
0000
0200
0001
0301
0000
,  // measure 27
0210
0000
0301
0000
0020
1000
1030
0001
,  // measure 28
0010
0000
0001
1000
0001
0000
1000
0000
1000
0000
0100
0000
0100
0000
1000
0000
,  // measure 29
1000
0000
0001
0000
0100
0000
0010
0000
0000
0000
0000
1000
0000
1000
0010
1000
,  // measure 30
0002
0000
0023
0000
0032
0000
1000
1003
0000
0000
0020
0000
0230
0000
0010
0310
,  // measure 31
0000
0000
2000
0000
3002
0000
1003
0001
0100
1000
0100
0001
0000
0000
2000
0000
,  // measure 32
3001
0001
0000
0010
0010
0000
0011
0000
,  // measure 33
0001
0001
0000
0100
0100
0000
0110
0000
,  // measure 34
1000
1000
0000
0100
0100
0000
1100
0000
,  // measure 35
1000
0010
0001
0010
1000
0000
1001
0000
,  // measure 36
0001
0001
0000
0010
0010
0000
0011
0000
,  // measure 37
0001
0001
0000
1000
1000
0000
1010
0000
,  // measure 38
0010
0010
0000
0100
0100
0000
0110
0000
,  // measure 39
0001
0100
1000
0100
0001
0000
0000
0000
,  // measure 40
1001
1000
0100
1000
0001
1000
0100
1000
,  // measure 41
0001
0010
0100
0010
0001
0100
1000
0100
,  // measure 42
0010
1000
0010
1000
0001
1000
0010
1000
,  // measure 43
0001
0010
0100
2000
0000
0001
3001
0000
,  // measure 44
1000
0001
0010
0001
1000
0010
1010
0000
,  // measure 45
1000
0010
0100
0010
1000
0100
0001
1000
,  // measure 46
0100
0010
1000
0001
1000
0100
1000
0001
,  // measure 47
0010
1000
0010
0001
0001
1000
1000
0000
,  // measure 48
0001
1000
0001
0000
0100
0000
0001
0000
1000
0000
0100
0000
0010
0000
0000
0000
,  // measure 49
0001
1000
0001
0000
0100
0000
0001
0000
0010
0000
0100
0000
1000
0000
0000
0000
,  // measure 50
0010
0100
0010
0000
0100
0000
0001
0000
0010
0000
0100
0000
0010
0000
0000
0000
,  // measure 51
0001
1000
0001
0000
1000
0000
0100
0000
0010
0000
0001
0000
0001
0000
0000
0000
,  // measure 52
0201
0000
0310
1000
0200
0000
0301
0100
,  // measure 53
2000
0000
3001
0010
0200
0000
0310
0001
,  // measure 54
2000
0000
3001
0010
0200
0000
0310
0001
,  // measure 55
2000
0000
0001
0000
3001
0000
0000
0000
1000
0000
1000
0000
0100
1000
0100
0000
,  // measure 56
1001
0001
0110
1000
,  // measure 57
0011
0001
1100
0010
,  // measure 58
1001
0100
1010
0010
,  // measure 59
0101
0000
0010
0000
0200
0010
0310
0000
,  // measure 60
1001
0000
0000
0000
;

//---------------dance-single - ----------------
#NOTES:
     dance-single:
     :
     Easy:
     3:
     0.200,0.203,0.130,0.089,0.000: // measure 1
0001
0000
0100
0000
,  // measure 2
0001
0000
1000
0000
,  // measure 3
0010
0000
1000
0000
,  // measure 4
0002
0000
0000
0003
0000
0000
0000
0000
0000
0000
0000
0000
0000
0000
0000
0000
,  // measure 5
1001
0001
0001
0001
,  // measure 6
1000
1000
1000
1000
,  // measure 7
0001
0001
0001
0001
,  // measure 8
1000
1000
1000
1001
,  // measure 9
0001
0100
0001
0100
,  // measure 10
0010
0100
0010
0100
,  // measure 11
0010
1000
0010
1000
,  // measure 12
0001
1000
0001
1001
,  // measure 13
1000
0100
1000
0100
,  // measure 14
0010
0001
0010
0001
,  // measure 15
0010
0100
1000
0001
,  // measure 16
0100
0010
1000
0000
,  // measure 17
1001
1000
0010
0100
,  // measure 18
0010
0100
0001
0010
,  // measure 19
0100
0000
1000
0100
,  // measure 20
0010
0001
1000
0000
,  // measure 21
1001
0000
0010
0000
,  // measure 22
1001
0000
0100
0000
,  // measure 23
1001
0000
0010
0000
,  // measure 24
1001
0001
1000
0001
,  // measure 25
1001
0000
1000
0100
,  // measure 26
2000
0000
3002
0000
,  // measure 27
1003
0001
0010
0100
,  // measure 28
1000
0000
0001
1000
,  // measure 29
1001
0000
0000
0000
,  // measure 30
0100
0000
0000
0000
0000
0000
0000
0010
,  // measure 31
0000
0000
0000
0100
0000
0000
0000
0001
,  // measure 32
2000
0000
0000
0000
,  // measure 33
3002
0000
0000
0000
,  // measure 34
2003
0000
0000
0000
,  // measure 35
3000
0010
0100
0010
,  // measure 36
1001
0000
0000
0001
,  // measure 37
2000
0000
0000
0000
,  // measure 38
0000
3001
0010
0100
,  // measure 39
2000
0000
3002
0000
,  // measure 40
0013
0010
0001
0001
,  // measure 41
0100
0100
0001
0010
,  // measure 42
0100
1000
1000
0001
,  // measure 43
0001
1000
0000
1001
,  // measure 44
0001
1000
0001
1000
,  // measure 45
0100
0010
0100
0010
,  // measure 46
0001
0100
0001
0100
,  // measure 47
0010
1000
0010
0000
,  // measure 48
1001
0001
1001
0000
,  // measure 49
1001
1000
1001
0000
,  // measure 50
2000
0000
3010
0100
,  // measure 51
0001
1000
0001
0000
,  // measure 52
1001
0001
1000
0100
,  // measure 53
1000
0010
0100
0010
,  // measure 54
0100
0001
0010
0001
,  // measure 55
1000
0000
0001
1000
,  // measure 56
2001
0000
0000
0000
,  // measure 57
3002
0000
0000
0000
,  // measure 58
0203
0000
0000
0000
,  // measure 59
0301
0000
1000
0000
,  // measure 60
1001
0000
0000
0000
;
