#TITLE:Rainbow after snow;
#SUBTITLE:;
#ARTIST:猫叉Master feat. 林ももこ;
#TITLETRANSLIT:;
#SUBTITLETRANSLIT:;
#ARTISTTRANSLIT:Nekomata Master feat. MOMOKO HAYASHI;
#CREDIT:DigiMindAxel;
#BANNER:Rainbow after snow.png;
#BACKGROUND:Rainbow after snow-bg.png;
#LYRICSPATH:Rainbow after snow.lrc;
#CDTITLE:beatmania IIDX.png;
#MUSIC:Rainbow after snow.mp3;
#METERTYPE:DDR X;
#OFFSET:-11.310;
#SAMPLESTART:69.580;
#SAMPLELENGTH:12.000;
#SELECTABLE:YES;
#BPMS:0.000=89.500,19.000=179.000,249.000=89.500;
#STOPS:19.000=0.335
,49.000=0.670
,152.000=0.335
;
#BGCHANGES:;

//---------------dance-single - ----------------
#NOTES:
     dance-single:
     :
     Easy:
     4:
     0.147,0.192,0.047,0.070,0.000: // measure 1
2000
0000
3001
0000
,  // measure 2
2000
0000
3001
0000
,  // measure 3
0200
0000
0310
0000
,  // measure 4
0200
0000
0310
0000
,  // measure 5
0100
0100
0100
0000
,  // measure 6
0110
0100
0000
0100
,  // measure 7
0000
0100
0000
0100
,  // measure 8
0000
0010
0000
0010
,  // measure 9
0000
0010
0000
0010
,  // measure 10
0000
0100
0000
0100
,  // measure 11
0000
0100
0000
0100
,  // measure 12
0000
0001
0000
0001
,  // measure 13
0000
0001
1001
1000
,  // measure 14
0000
1000
0000
1000
,  // measure 15
0000
1000
0000
0001
,  // measure 16
0000
0001
0000
0001
,  // measure 17
0000
0001
0000
0010
,  // measure 18
0000
0010
0000
0010
,  // measure 19
0000
0010
0000
0100
,  // measure 20
0000
0100
0000
0100
,  // measure 21
0000
0100
0110
0000
,  // measure 22
0010
0000
0000
0000
,  // measure 23
0000
0000
0100
0000
,  // measure 24
0010
0000
0000
0000
,  // measure 25
0000
0000
0100
0000
,  // measure 26
0010
0000
0000
0000
,  // measure 27
0000
0000
0100
0000
,  // measure 28
0010
0000
0000
0000
,  // measure 29
0000
0000
2001
0000
,  // measure 30
0000
0000
3002
0000
,  // measure 31
0000
0000
2003
0000
,  // measure 32
0000
0000
3002
0000
,  // measure 33
0000
0000
1003
0000
,  // measure 34
0001
0000
1000
0000
,  // measure 35
0001
0000
1000
0000
,  // measure 36
1000
0000
1000
0000
,  // measure 37
1000
0000
0001
0000
,  // measure 38
0001
0000
0001
0000
,  // measure 39
0000
1001
0000
1000
,  // measure 40
0000
0001
0000
0100
,  // measure 41
0000
0001
0000
1000
,  // measure 42
0000
0001
0000
0000
,  // measure 43
0000
0010
0000
0100
,  // measure 44
0000
0010
0000
0100
,  // measure 45
0000
1000
0000
0000
,  // measure 46
0000
0001
0000
0000
,  // measure 47
0000
1000
0000
0001
,  // measure 48
0000
0010
0000
0001
,  // measure 49
0000
1000
0000
0001
,  // measure 50
0000
0010
0000
0000
,  // measure 51
0000
0001
0000
1000
,  // measure 52
0000
0001
0000
1000
,  // measure 53
0000
0100
0000
0000
,  // measure 54
0000
0000
0000
0000
,  // measure 55
0000
0010
0000
0001
,  // measure 56
0000
0010
0000
0000
,  // measure 57
0000
0100
0000
0010
,  // measure 58
0000
0100
0000
0000
,  // measure 59
0000
1000
0000
0100
,  // measure 60
0000
1000
0000
0000
,  // measure 61
0000
0001
0000
0100
,  // measure 62
0000
0001
0000
0000
,  // measure 63
0000
0100
0000
0100
,  // measure 64
0000
0010
0000
0010
,  // measure 65
0000
1000
0000
1000
,  // measure 66
0000
0001
0000
0001
,  // measure 67
0000
1001
0000
0000
,  // measure 68
0000
1000
0000
0000
,  // measure 69
0000
0100
0000
0000
,  // measure 70
0000
0010
0000
0002
,  // measure 71
0000
0003
0000
0000
;

//---------------dance-single - ----------------
#NOTES:
     dance-single:
     :
     Medium:
     8:
     0.326,0.412,0.094,0.383,0.000: // measure 1
1001
0000
0000
0000
1000
1000
0000
0000
,  // measure 2
0001
0001
0000
0000
1000
1000
0000
0000
,  // measure 3
0001
0000
0000
0000
1000
1000
0000
0000
,  // measure 4
0001
0001
0000
0000
1000
1000
0000
0000
,  // measure 5
0001
0000
1000
0000
0001
1000
0000
0000
,  // measure 6
0110
0100
0010
1000
,  // measure 7
0000
0100
0010
0100
,  // measure 8
0000
1000
0001
0100
,  // measure 9
0000
0010
1000
0100
,  // measure 10
0010
0001
0010
0001
,  // measure 11
0000
0100
0010
0100
,  // measure 12
0001
0010
0100
1000
,  // measure 13
0001
0001
1000
0100
,  // measure 14
1000
0010
0000
0000
,  // measure 15
0100
0001
0100
0000
,  // measure 16
0010
0100
0010
1000
,  // measure 17
0100
0010
0001
1000
,  // measure 18
0100
1000
0000
0100
,  // measure 19
1000
0010
0000
0100
,  // measure 20
0001
0010
0100
1000
,  // measure 21
0100
0010
1001
0000
,  // measure 22
2000
0000
3100
0000
,  // measure 23
2000
0000
3100
0000
,  // measure 24
0020
0000
0031
0000
,  // measure 25
0020
0000
0031
0000
,  // measure 26
0200
0000
0310
0000
,  // measure 27
0200
0000
0310
0000
,  // measure 28
0200
0000
0310
0000
,  // measure 29
1000
0001
1001
0000
,  // measure 30
2000
0000
3200
0000
,  // measure 31
2300
0000
3002
0000
,  // measure 32
0000
0000
2003
0000
,  // measure 33
0000
0000
3002
0000
,  // measure 34
0203
0000
0302
0000
,  // measure 35
0203
0000
0310
0100
,  // measure 36
0010
0100
0010
0100
,  // measure 37
0010
0100
0010
0010
,  // measure 38
0010
0010
0010
0110
,  // measure 39
0000
1001
2000
3200
,  // measure 40
0320
0032
2003
3001
,  // measure 41
1000
0020
0230
0302
,  // measure 42
1003
0000
0001
1000
0001
0000
1000
0000
,  // measure 43
0100
1000
0002
0203
,  // measure 44
0302
0000
2003
0000
3001
0000
1000
0001
,  // measure 45
1000
0010
0010
0100
,  // measure 46
0100
0010
0010
0100
,  // measure 47
0001
1001
0002
0023
,  // measure 48
0230
2300
3002
0103
,  // measure 49
0001
1000
0200
2300
,  // measure 50
3002
0000
1003
0001
1000
0000
0010
0000
,  // measure 51
0100
0001
2000
3200
,  // measure 52
0320
0000
0032
0000
1003
0000
0001
1000
,  // measure 53
0001
1000
1000
0100
,  // measure 54
0100
1000
1000
0001
,  // measure 55
0100
0020
0000
0130
,  // measure 56
0001
1000
0000
0100
,  // measure 57
1000
0010
0000
0100
,  // measure 58
0001
0010
0100
1000
,  // measure 59
0001
0010
0001
0100
,  // measure 60
0000
0010
1000
0100
,  // measure 61
0000
1000
0001
1000
,  // measure 62
0100
1000
0001
0010
,  // measure 63
0100
1001
1000
0100
,  // measure 64
1100
0100
0010
0001
,  // measure 65
0011
0001
0100
0010
,  // measure 66
0110
0010
1000
0100
,  // measure 67
1000
1002
0000
0203
,  // measure 68
0000
0320
0000
2030
,  // measure 69
0000
3020
0000
0230
,  // measure 70
0000
0302
0000
2003
,  // measure 71
0000
3000
0000
0000
;

//---------------dance-single - ----------------
#NOTES:
     dance-single:
     :
     Hard:
     10:
     0.549,0.714,0.500,0.321,0.066: // measure 1
1002
0000
0000
0000
1000
1003
0000
0000
,  // measure 2
0010
0000
0010
0000
0000
0000
0000
0000
0100
0100
0100
0000
0000
0000
0000
0000
,  // measure 3
0210
0000
0000
0000
0001
0301
0000
0000
,  // measure 4
0010
0000
0010
0000
0000
0000
0000
0000
0100
0100
0100
0000
0000
0000
0000
0000
,  // measure 5
1001
0000
0000
0000
1000
0000
1000
0000
1000
0010
0110
0000
0000
0000
0000
0000
,  // measure 6
1001
0000
1010
0000
0010
1000
0100
0000
,  // measure 7
0010
0000
1010
0000
0010
1000
0100
0000
,  // measure 8
0010
0000
0011
0000
0001
0010
0100
0000
,  // measure 9
0010
0000
0001
1000
0001
0010
0100
1000
,  // measure 10
0002
0100
0013
0110
,  // measure 11
0100
0000
0001
1000
0001
0010
0100
1000
,  // measure 12
0001
0100
0010
0000
0100
0001
0010
0100
,  // measure 13
1000
0001
1000
0000
1001
0000
0000
0000
0110
0000
0000
0000
0101
0000
0000
0000
,  // measure 14
0100
0001
0010
0000
0100
0000
0101
0000
,  // measure 15
0100
0001
0010
0000
0100
0000
1100
0000
,  // measure 16
1000
0100
0010
0000
0100
0000
1000
0001
,  // measure 17
1000
0010
0100
0001
0200
0000
0001
0000
,  // measure 18
0310
0000
0110
0000
0010
1000
0100
0010
,  // measure 19
0001
0100
0010
0000
0100
0001
0010
0000
,  // measure 20
0001
1000
0100
0010
0001
1000
0001
1001
,  // measure 21
0000
1000
1100
0000
1001
0000
0000
0000
,  // measure 22
0101
0000
0010
0010
,  // measure 23
0010
0100
0001
0010
0100
0000
0000
0000
,  // measure 24
1100
0000
1000
0001
,  // measure 25
0100
0000
0000
0100
0000
0000
0100
0000
0110
0000
0000
0000
0001
0000
0000
0000
,  // measure 26
1001
0000
0110
1000
,  // measure 27
1001
0000
0000
0010
0100
0000
0001
0000
,  // measure 28
1001
0000
1000
0100
0010
0000
0001
1000
,  // measure 29
0100
0010
0101
0000
,  // measure 30
0020
0000
0130
0000
,  // measure 31
2000
0000
3001
0000
,  // measure 32
1000
0010
0110
0100
,  // measure 33
0001
1000
1001
0000
,  // measure 34
0001
0100
0001
1000
,  // measure 35
0100
0000
1000
0000
0001
1000
0001
0000
,  // measure 36
1000
0001
1000
0000
0100
1000
0100
0000
,  // measure 37
0010
0001
0010
0000
0100
0000
0100
0000
,  // measure 38
0100
1000
0010
0100
0001
0010
0011
0000
,  // measure 39
0000
1001
1200
0310
,  // measure 40
0120
0031
0012
1003
,  // measure 41
2001
3010
0102
1003
,  // measure 42
0110
0000
0010
0100
0101
0000
0001
0010
,  // measure 43
0100
1000
1002
0000
0103
0000
2010
0000
,  // measure 44
3001
0000
1002
0000
0013
0000
0100
1000
,  // measure 45
1001
0000
0010
0100
0001
0010
0100
0010
,  // measure 46
0001
0000
1000
0010
0100
0110
0000
0010
,  // measure 47
0110
1002
0103
0201
,  // measure 48
0310
0120
1030
2010
,  // measure 49
3001
1002
0013
2100
,  // measure 50
3001
0000
1000
0100
1100
0000
1001
0000
,  // measure 51
1000
0001
0102
0000
1003
0000
2010
0000
,  // measure 52
3001
0000
0021
0000
0130
0000
1000
0001
,  // measure 53
0101
0000
0001
1000
0010
0010
0100
0010
,  // measure 54
1000
0000
0100
0010
0010
0100
0000
1000
,  // measure 55
1010
0000
1001
0000
0001
1000
0100
0010
,  // measure 56
0100
0000
1000
0010
0001
0010
0100
0001
,  // measure 57
1000
0000
0001
0010
0100
0001
0100
1000
,  // measure 58
0001
0000
1000
0100
0010
0001
0010
0100
,  // measure 59
1000
0001
1000
0010
0100
1000
0100
0001
,  // measure 60
1000
0000
0001
0010
1000
0001
0010
0100
,  // measure 61
0001
0000
1000
0010
0100
0001
0100
0010
,  // measure 62
1000
1001
0000
0001
0100
0101
0000
0010
,  // measure 63
0110
0000
1001
0000
0020
0000
1000
1030
,  // measure 64
0210
0000
0310
1000
0200
0000
0000
0000
0320
0000
0230
0000
1300
0001
0010
1000
,  // measure 65
0010
0001
1000
0000
0002
0000
0000
0000
1000
0000
1003
0000
0010
0000
0110
0000
,  // measure 66
0200
0000
0320
0000
1030
0001
0100
1000
0100
0001
1000
0000
0001
1000
0100
0001
,  // measure 67
0100
1000
0001
0000
0201
0000
0001
0000
0001
0000
0301
0000
2000
0000
0010
0000
,  // measure 68
3002
1000
2003
0100
0100
3100
0020
0100
,  // measure 69
0230
0001
0302
1000
1000
1003
0200
1000
,  // measure 70
1000
0000
1000
0300
1000
0100
0010
0001
2000
0000
0000
0000
3002
0000
0000
0000
,  // measure 71
0000
0003
0000
0000
;

//---------------dance-single - ----------------
#NOTES:
     dance-single:
     :
     Beginner:
     2:
     0.066,0.081,0.039,0.000,0.000: // measure 1
1000
0000
0000
0000
,  // measure 2
0000
0000
0000
0000
,  // measure 3
0001
0000
0000
0000
,  // measure 4
0000
0000
0000
0000
,  // measure 5
1000
0000
0000
0000
,  // measure 6
0100
0000
0000
0000
,  // measure 7
0000
0000
0000
0000
,  // measure 8
0010
0000
0000
0000
,  // measure 9
0000
0000
0000
0000
,  // measure 10
0001
0000
0000
0000
,  // measure 11
0000
0000
0000
0000
,  // measure 12
1000
0000
0000
0000
,  // measure 13
0001
0000
1000
0000
,  // measure 14
0000
0000
0100
0000
,  // measure 15
0000
0000
1000
0000
,  // measure 16
0000
0000
0100
0000
,  // measure 17
0000
0000
0010
0000
,  // measure 18
0000
0000
0000
0000
,  // measure 19
0000
0000
0001
0000
,  // measure 20
0000
0000
0000
0000
,  // measure 21
0000
0000
1001
0000
,  // measure 22
0000
0000
0000
0000
,  // measure 23
0000
0000
0001
0000
,  // measure 24
0000
0000
0000
0000
,  // measure 25
0000
0000
0001
0000
,  // measure 26
0000
0000
0000
0000
,  // measure 27
0000
0000
0001
0000
,  // measure 28
0000
0000
0000
0000
,  // measure 29
0000
0000
1001
0000
,  // measure 30
0000
0000
0000
0000
,  // measure 31
0000
0000
1000
0000
,  // measure 32
0000
0000
0000
0000
,  // measure 33
0000
0000
1000
0000
,  // measure 34
0000
0000
0000
0000
,  // measure 35
0000
0000
1000
0000
,  // measure 36
0000
0000
0000
0000
,  // measure 37
0000
0000
0010
0000
,  // measure 38
0000
0000
0100
0000
,  // measure 39
0000
0110
0000
0000
,  // measure 40
0000
0010
0000
0000
,  // measure 41
0000
0100
0000
0000
,  // measure 42
0000
0010
0000
0000
,  // measure 43
0000
1000
0000
0000
,  // measure 44
0000
0001
0000
0000
,  // measure 45
0000
1000
0000
0000
,  // measure 46
0000
0000
0000
0000
,  // measure 47
0000
0100
0000
0000
,  // measure 48
0000
0010
0000
0000
,  // measure 49
0000
0100
0000
0000
,  // measure 50
0000
0010
0000
0000
,  // measure 51
0000
0001
0000
0000
,  // measure 52
0000
1000
0000
0000
,  // measure 53
0000
0100
0000
0000
,  // measure 54
0000
0000
0000
0000
,  // measure 55
0000
1001
0000
0000
,  // measure 56
0000
1000
0000
0000
,  // measure 57
0000
0001
0000
0000
,  // measure 58
0000
1000
0000
0000
,  // measure 59
0000
0001
0000
0000
,  // measure 60
0000
1000
0000
0000
,  // measure 61
0000
0001
0000
0000
,  // measure 62
0000
0010
0000
0000
,  // measure 63
0000
0110
0000
0000
,  // measure 64
0000
0100
0000
0000
,  // measure 65
0000
0010
0000
0000
,  // measure 66
0000
0100
0000
0010
,  // measure 67
0000
0100
0000
0000
,  // measure 68
0000
0000
0000
0000
,  // measure 69
0000
0100
0000
0000
,  // measure 70
0000
0100
0000
0000
;
