#TITLE:ROCKET MAN;
#SUBTITLE:;
#ARTIST:Mutsuhiko Izumi;
#TITLETRANSLIT:;
#SUBTITLETRANSLIT:;
#ARTISTTRANSLIT:;
#CREDIT:DigiMindAxel;
#BANNER:ROCKET MAN.png;
#BACKGROUND:ROCKET MAN-bg.png;
#LYRICSPATH:;
#CDTITLE:GITADORA.png;
#MUSIC:ROCKET MAN.mp3;
#METERTYPE:DDR X;
#OFFSET:-5.897;
#SAMPLESTART:12.413;
#SAMPLELENGTH:12.000;
#SELECTABLE:YES;
#BPMS:0.000=220.000;
#STOPS:;
#BGCHANGES:;

//---------------dance-single - ----------------
#NOTES:
     dance-single:
     :
     Easy:
     4:
     0.180,0.361,0.251,0.060,0.000: // measure 1
0001
0000
0000
0000
,  // measure 2
1000
0000
0000
0000
,  // measure 3
0001
0000
0000
0000
,  // measure 4
1000
0000
1000
0000
,  // measure 5
1001
0000
0000
0000
,  // measure 6
1001
0000
0000
0000
,  // measure 7
0001
0000
0000
0000
,  // measure 8
0010
0000
0000
0000
,  // measure 9
0001
0000
0000
0000
,  // measure 10
1000
0000
1000
0000
,  // measure 11
0001
0000
0000
0000
,  // measure 12
0100
0000
0000
0000
,  // measure 13
0010
0000
0000
0000
,  // measure 14
0100
0000
0100
0000
,  // measure 15
0110
0000
0000
0000
,  // measure 16
0110
0000
0000
0000
,  // measure 17
1001
0000
0000
0000
,  // measure 18
1001
0000
0000
0000
,  // measure 19
0110
0000
0000
0000
,  // measure 20
0110
0000
0000
0000
,  // measure 21
1001
0000
0000
0000
,  // measure 22
1001
0000
0000
0000
,  // measure 23
1000
0000
0000
0000
,  // measure 24
0100
0000
0000
0000
,  // measure 25
0010
0000
0000
0000
,  // measure 26
0001
0000
0000
0000
,  // measure 27
0010
0000
0000
0000
,  // measure 28
0100
0000
0000
0000
,  // measure 29
1000
0000
0000
0000
,  // measure 30
0001
0000
1000
0000
,  // measure 31
0001
0000
0000
0000
,  // measure 32
0001
0000
0000
0000
,  // measure 33
2000
0000
0000
0000
,  // measure 34
3002
0000
0000
0000
,  // measure 35
1003
0000
0000
0000
,  // measure 36
1000
0000
0000
0000
,  // measure 37
0020
0000
0230
0000
,  // measure 38
0320
0000
0230
0000
,  // measure 39
0310
0000
0010
0000
,  // measure 40
0000
0000
0000
0000
,  // measure 41
0110
0000
0110
0000
,  // measure 42
0110
0000
0000
0000
,  // measure 43
0001
0000
0000
0000
,  // measure 44
0010
0000
0000
0000
,  // measure 45
0100
0000
0000
0000
,  // measure 46
1000
0000
0000
0000
,  // measure 47
0001
0000
0000
0000
,  // measure 48
0100
0000
0000
0000
,  // measure 49
0010
0000
0000
0000
,  // measure 50
1000
0000
0000
0000
,  // measure 51
1001
0000
0000
0000
,  // measure 52
1001
0000
0000
0000
,  // measure 53
1001
0000
0000
0000
,  // measure 54
0001
0000
1000
0000
,  // measure 55
1001
0000
0000
0000
,  // measure 56
1001
0000
0000
0000
,  // measure 57
1001
0000
0000
0000
,  // measure 58
1000
0000
0001
0000
,  // measure 59
1000
0000
0000
0000
,  // measure 60
0100
0000
0000
0000
,  // measure 61
0010
0000
0000
0000
,  // measure 62
0100
0000
1000
0000
,  // measure 63
0100
0000
0000
0000
,  // measure 64
0010
0000
0000
0000
,  // measure 65
0001
0000
0000
0000
,  // measure 66
0100
0000
0001
0000
,  // measure 67
0100
0000
0000
0000
,  // measure 68
0100
0000
0000
0000
,  // measure 69
0110
0000
0000
0000
,  // measure 70
0010
0000
0000
0000
,  // measure 71
0110
0000
0000
0000
,  // measure 72
0100
0000
0000
0000
,  // measure 73
0001
0000
0010
0000
,  // measure 74
0100
0000
1000
0000
,  // measure 75
0001
0000
0000
0000
,  // measure 76
0001
0000
0000
0000
,  // measure 77
1001
0000
0000
0000
,  // measure 78
1001
0000
0000
0000
,  // measure 79
0110
0000
0000
0000
,  // measure 80
0110
0000
0000
0010
;

//---------------dance-single - ----------------
#NOTES:
     dance-single:
     :
     Medium:
     8:
     0.399,0.521,0.261,0.101,0.000:
0001
0000
0100
0000
,
0001
0000
1000
0000
,
0001
0000
1000
0000
,
0100
0000
0100
0000
,
0110
0000
0000
0000
,
0110
0000
0000
0000
,
0010
0000
0100
0000
,
0010
0000
0100
0000
,
0001
0000
0010
0000
,
0001
0001
0000
0000
,
1000
0000
0001
0000
,
1000
0000
0100
0000
,
1000
0000
0001
0000
,
1000
1000
0000
0000
,
1001
0000
1001
0000
,
0010
0100
0010
0000
,
0110
0000
0110
0000
,
1000
0001
1000
0001
,
0101
0000
0101
0000
,
0010
0100
0010
0000
,
1010
0000
1010
0000
,
1000
0001
1000
0001
,
1000
0000
0000
0100
0000
0000
0000
0000
,
0010
0000
0000
0001
0000
0000
0000
0000
,
0010
0000
0000
0100
0000
0000
0000
0000
,
1000
0001
1000
0001
,
1000
0000
0000
0010
0000
0000
0000
0000
,
0100
0000
0000
0001
0000
0000
0000
0000
,
0010
0000
0000
0100
0000
0000
0000
0000
,
1000
0000
0000
1001
0000
0000
0000
0000
,
1002
1000
1000
1003
,
2001
0001
0001
3001
,
1000
0100
0010
0001
,
1000
0100
0010
0001
,
2001
0001
0001
3001
,
1002
1000
1000
1003
,
0001
0010
0100
1000
,
0001
0010
0100
1000
,
0001
0000
0001
0000
1000
0001
0000
1000
,
0000
1000
0000
1000
0000
0000
0000
0000
,
0010
0000
0010
0000
0100
0010
0100
0000
,
0010
0000
0100
0010
0000
1000
0001
0000
,
0010
0100
0010
0100
,
1000
0010
1000
0010
,
0100
0001
0100
0001
,
0010
0100
1000
0000
,
0001
0100
0001
0100
,
0010
1000
0010
1000
,
0100
0010
0001
0010
,
0100
1000
0000
0000
,
1001
0000
0000
0000
,
1001
0000
0000
0000
,
0110
0000
0000
0000
,
0010
0100
0010
0100
,
1001
0000
0000
0000
,
1001
0000
0000
0000
,
0110
0000
0000
0000
,
0100
0010
0100
0010
,
1000
0000
0000
0100
0000
0000
0010
0000
,
0100
0000
0000
2000
0000
0000
0000
0000
,
3001
0000
0000
0100
0000
0000
0010
0000
,
0100
0001
0100
0010
,
1000
0000
0000
0100
0000
0000
0010
0000
,
0100
0000
0000
2000
0000
0000
0000
0000
,
3001
0000
0000
0100
0000
0000
0010
0000
,
0100
0000
0000
0101
0000
0000
0000
0000
,
1002
1000
1000
1003
,
2001
0001
0001
3001
,
1000
0010
0100
0001
,
1000
0010
0100
0001
,
1002
1000
1000
1003
,
2001
0001
0001
3001
,
1000
0010
0100
0001
,
1000
0010
0100
0001
,
1000
0000
1000
0000
0001
1000
0000
0001
,
0000
0001
0000
0001
0000
0100
0010
0000
,
0100
0000
0100
0000
0010
0100
0010
0000
,
0100
0000
0001
1000
0000
1000
0001
0000
,
0100
0010
0100
0000
0010
0100
0010
0000
,
1000
0100
0000
0100
0000
0100
1000
0000
;

//---------------dance-single - ----------------
#NOTES:
     dance-single:
     :
     Hard:
     12:
     0.685,0.682,0.483,0.654,0.000:
2000
0000
0000
3100
0000
0000
1000
0000
,
0002
0000
0000
0013
0000
0000
0001
0000
,
0200
0000
0000
0310
0000
0000
1000
0000
,
0100
0010
0001
1000
,
0010
0100
0010
0100
0000
0001
1000
0001
,
1000
0001
1000
0001
0000
0010
0100
0010
,
0200
0000
1300
0000
0001
0100
0010
0000
,
0200
0000
0301
0000
1000
0100
0010
0000
,
0001
1000
0100
0000
0100
1000
0001
0000
,
0200
0000
0301
0000
1000
0100
0010
0000
,
0002
0000
1003
0000
0001
1000
0010
0000
,
0200
0000
0310
0000
1000
0100
0010
0000
,
0001
1000
0020
0000
0000
1030
0001
0010
,
0001
0000
0000
1001
0000
1000
0100
1000
,
0001
1001
1001
1001
,
0100
0110
0110
0110
,
0001
1001
1000
1001
,
0001
0010
0100
1000
0001
0000
0001
0000
,
1000
1001
1001
1001
,
0100
0110
0110
0110
,
0001
1001
1000
1001
,
0001
0100
0010
1000
0001
0000
0001
0000
,
0100
0000
0000
0210
0000
0000
0310
0000
,
1000
0000
0000
2002
0000
0000
3003
0000
,
0010
0000
0000
2010
0000
0000
3001
0000
,
1000
0100
0010
0001
0010
0100
1000
0000
,
0100
0000
0000
2100
0000
0000
3001
0000
,
0010
0000
0000
0220
0000
0000
0330
0000
,
0100
0000
0000
0102
0000
0000
1003
0000
,
0100
0000
0000
0220
0000
0000
0330
0000
,
0100
0001
0100
0001
0100
0001
0100
0001
,
0100
1000
0100
1000
0100
1000
0100
0001
,
2000
3020
0230
0302
,
0203
0320
2030
3001
,
0100
0001
0100
0001
0100
0001
0100
0001
,
0100
1000
0100
1000
0100
1000
0100
0001
,
2000
3200
0320
0032
,
2003
3200
0320
0032
,
1003
0000
0010
0000
1000
0001
0000
0011
,
0000
0011
0000
0011
0000
0010
0100
0010
,
0001
0000
0001
0000
0001
0100
0010
0000
,
1000
0010
0100
0001
0000
0001
1000
0000
,
1020
1000
1000
1030
,
0012
0010
0010
0013
,
0002
1003
0200
1300
,
0010
0100
0002
0000
2000
0000
3003
0000
,
0210
0010
0010
0310
,
0201
0001
0001
0301
,
1000
0100
1000
0000
0001
0010
0001
0000
,
0100
0000
0000
0110
0000
0001
0010
0001
,
1000
0000
0000
0000
,
1001
0000
0000
0000
,
0110
0000
0000
0000
,
0010
0100
0010
0100
0001
0000
0001
0000
,
1001
0000
1000
1000
,
1001
0000
0010
0010
,
0110
0000
0010
0100
,
0020
1000
1000
1030
,
0001
0000
0000
0102
0000
0000
1003
0000
,
0010
0000
0000
0220
0000
0000
0330
0000
,
0100
0000
0000
2100
0000
0000
3001
0000
,
1000
0100
0010
0001
0010
0100
1000
0000
,
0001
0000
0000
0201
0000
0000
0310
0000
,
1000
0000
0000
2002
0000
0000
3003
0000
,
0010
0000
0000
0012
0000
0000
1003
0000
,
0010
0000
0000
1001
0000
1000
0100
1000
,
0100
0001
0100
0001
0100
0001
0100
1000
,
0100
1000
0100
1000
0100
1000
0100
0001
,
2000
3200
0320
0032
,
0023
0230
2300
3001
,
0100
0001
0100
0001
0100
0001
0100
0001
,
0100
1000
0100
1000
0100
1000
0100
0001
,
2000
3020
0230
0302
,
0203
0320
2030
3001
,
0100
0000
0101
0000
0001
1000
0000
1100
,
0000
1100
0000
1100
0000
1000
0010
0100
,
0001
0000
0001
0000
0001
1000
0100
0000
,
1000
0010
0100
0001
0000
0001
1000
0000
,
0100
0010
0001
0000
0001
0010
0100
0000
,
1000
0010
0000
0010
0000
0010
0100
0000
;

//---------------dance-single - ----------------
#NOTES:
     dance-single:
     :
     Challenge:
     14:
     0.812,0.722,0.483,0.382,0.010:
0001
0000
1000
0010
0000
0010
0100
0001
,
0010
0000
0100
0010
0000
0010
0001
1000
,
0010
0000
1000
0001
0000
0001
0010
0100
,
1000
0010
0000
0000
0100
0000
0000
0000
0001
0010
0000
0000
0001
0000
0000
0000
,
1000
0010
0100
0001
0000
0001
1000
0010
,
1000
0010
0100
0001
0000
0010
0100
1000
,
0001
0000
0010
0001
1000
0010
0100
0010
,
1000
0000
0100
0010
0100
1000
0001
0010
,
0001
1000
0010
0000
0010
1000
0001
0000
,
0010
0000
0100
0010
0001
1000
0010
1000
,
0001
0000
0100
0000
0010
0100
0001
1000
,
0100
0000
0010
0000
0100
1000
0010
0100
,
0010
1000
0200
0000
0000
0310
0100
1000
,
0001
0000
0100
0110
0000
0100
0010
0001
,
1000
0100
0010
0100
1000
0100
0010
0100
,
1000
0001
0100
0001
1000
0001
0100
0001
,
1000
0100
0001
0000
1000
0010
0001
1000
,
0001
0010
0100
1000
0001
0000
1001
0000
,
0001
0100
0010
0100
0001
0100
0010
0100
,
0001
1000
0100
1000
0001
1000
0100
1000
,
0001
0010
1000
0010
0001
0100
1000
0100
,
0001
0010
0100
1000
0001
0000
1001
0000
,
1020
0000
1030
0002
0000
0013
0100
0000
,
2010
0000
3010
0200
0000
0000
0301
0000
,
1002
0000
0013
0200
0000
0310
0002
0000
,
1003
0010
0001
0010
1000
0100
0001
0100
,
2000
0000
3001
0020
0000
0031
1000
0100
,
0020
0000
0031
2000
0000
0000
3001
0000
,
0201
0000
0310
2000
0000
3100
0020
0000
,
0130
0000
1000
0002
0000
1003
0100
1000
,
0001
0100
1000
0100
0001
0100
1000
0100
,
0001
0010
1000
0010
0001
0010
1000
0010
,
0001
0011
0010
0110
,
0100
0000
1100
0000
1000
0001
1001
0000
,
1000
0100
0001
0100
1000
0100
0001
0100
,
1000
0010
0001
0010
1000
0010
0001
0010
,
1000
1010
0010
0110
,
0100
0000
0101
0000
0001
1000
1001
0000
,
0001
0010
0100
1000
0010
0010
0000
1010
,
0000
0110
0000
1010
0000
0010
1000
0100
,
0010
0000
0011
0000
0001
0010
1000
0000
,
0010
0001
1000
0100
0000
1000
1001
0000
,
0101
0000
0100
0001
0010
0001
0100
0000
,
1010
0000
0010
1000
0100
1000
0010
0000
,
1000
0100
0001
0000
1000
0010
0001
0000
,
0100
0010
1000
0000
2002
0000
3003
0000
,
1100
0000
0100
1000
0100
0010
0100
1000
,
0001
0100
0010
0200
0000
0000
0301
0000
,
1000
0100
0001
0000
1000
0010
0001
1000
,
0010
0000
0000
0110
0000
0010
0100
1000
,
0002
0010
0020
0033
,
2001
0100
0200
3300
,
0120
0100
0100
0130
,
0001
0100
1000
0100
0001
0000
1001
0000
,
1100
0000
0100
0000
0100
1000
0001
0100
,
0101
0000
0001
0000
0001
0010
0100
1000
,
1010
0000
0010
0000
0010
0100
0010
0000
,
1000
0100
0001
0100
1000
0001
0010
0001
,
2000
0000
3100
0020
0000
0130
1000
0001
,
0200
0000
0301
2000
0000
0000
3001
0000
,
0012
0000
0013
0200
0000
1300
0002
0000
,
1003
0010
0001
0010
1000
0100
0010
0001
,
2000
0000
3001
0200
0000
0301
1000
0100
,
0020
0000
0130
2000
0000
0000
3001
0000
,
1200
0000
1300
0002
0000
0103
0020
0000
,
0130
0000
0001
1001
0000
0001
0010
0001
,
1000
0100
0001
0100
1000
0100
0001
0100
,
1000
0010
0001
0010
1000
0010
0001
0010
,
1000
1010
0010
0110
,
0100
0000
0101
0000
0001
1000
1001
0000
,
0001
0010
1000
0010
0001
0010
1000
0010
,
0001
0100
1000
0100
0001
0100
1000
0100
,
0001
0011
0010
0110
,
0100
0000
1100
0000
1000
0001
1001
0000
,
1000
0010
0100
0001
1000
1000
0000
1100
,
0000
1100
0000
1100
0000
1000
0001
0010
,
0100
0000
1100
0000
1000
0100
0001
0000
,
0100
1000
0001
0010
0000
0001
1001
0000
,
0001
1000
0010
0000
0010
1000
0001
0000
,
0010
0100
0000
0100
0000
0100
1100
0000
;

//---------------dance-single - ----------------
#NOTES:
     dance-single:
     :
     Beginner:
     3:
     0.106,0.200,0.090,0.000,0.000: // measure 1
0001
0000
0000
0000
,  // measure 2
1000
0000
0000
0000
,  // measure 3
0001
0000
0000
0000
,  // measure 4
1001
0000
0000
0000
,  // measure 5
1000
0000
0000
0000
,  // measure 6
0000
0000
0000
0000
,  // measure 7
0010
0000
0000
0000
,  // measure 8
0100
0000
0000
0000
,  // measure 9
0010
0000
0000
0000
,  // measure 10
0100
0000
0000
0000
,  // measure 11
0001
0000
0000
0000
,  // measure 12
1000
0000
0000
0000
,  // measure 13
0001
0000
0000
0000
,  // measure 14
1001
0000
0000
0000
,  // measure 15
1000
0000
0000
0000
,  // measure 16
1000
0000
0000
0000
,  // measure 17
1000
0000
0000
0000
,  // measure 18
1000
0000
0000
0000
,  // measure 19
0001
0000
0000
0000
,  // measure 20
0001
0000
0000
0000
,  // measure 21
0001
0000
0000
0000
,  // measure 22
0001
0000
0000
0000
,  // measure 23
0010
0000
0000
0000
,  // measure 24
0000
0000
0000
0000
,  // measure 25
0100
0000
0000
0000
,  // measure 26
0000
0000
0000
0000
,  // measure 27
1000
0000
0000
0000
,  // measure 28
0000
0000
0000
0000
,  // measure 29
0100
0000
0000
0000
,  // measure 30
0000
0000
0000
0000
,  // measure 31
0010
0000
0000
0000
,  // measure 32
0010
0000
0000
0000
,  // measure 33
0110
0000
0000
0000
,  // measure 34
0000
0000
0000
0000
,  // measure 35
0010
0000
0000
0000
,  // measure 36
0010
0000
0000
0000
,  // measure 37
0110
0000
0000
0000
,  // measure 38
0000
0000
0000
0000
,  // measure 39
1001
0000
0000
0000
,  // measure 40
0000
0000
0000
0000
,  // measure 41
0001
0000
0000
0000
,  // measure 42
0000
0000
0000
0000
,  // measure 43
0100
0000
0000
0000
,  // measure 44
0010
0000
0000
0000
,  // measure 45
0100
0000
0000
0000
,  // measure 46
0001
0000
0000
0000
,  // measure 47
1000
0000
0000
0000
,  // measure 48
0010
0000
0000
0000
,  // measure 49
0100
0000
0000
0000
,  // measure 50
0010
0000
0000
0000
,  // measure 51
1000
0000
0000
0000
,  // measure 52
1000
0000
0000
0000
,  // measure 53
1000
0000
0000
0000
,  // measure 54
1001
0000
0000
0000
,  // measure 55
0001
0000
0000
0000
,  // measure 56
0001
0000
0000
0000
,  // measure 57
0001
0000
0000
0000
,  // measure 58
0001
0000
0000
0000
,  // measure 59
1000
0000
0000
0000
,  // measure 60
0000
0000
0000
0000
,  // measure 61
0010
0000
0000
0000
,  // measure 62
0000
0000
0000
0000
,  // measure 63
0100
0000
0000
0000
,  // measure 64
0000
0000
0000
0000
,  // measure 65
0001
0000
0000
0000
,  // measure 66
0000
0000
0000
0000
,  // measure 67
0010
0000
0000
0000
,  // measure 68
0100
0000
0000
0000
,  // measure 69
0010
0000
0000
0000
,  // measure 70
0000
0000
0000
0000
,  // measure 71
0100
0000
0000
0000
,  // measure 72
1000
0000
0000
0000
,  // measure 73
0100
0000
0000
0000
,  // measure 74
0000
0000
0000
0000
,  // measure 75
1000
0000
0000
0000
,  // measure 76
0000
0000
0000
0000
,  // measure 77
1001
0000
0000
0000
,  // measure 78
0001
0000
0000
0000
,  // measure 79
1001
0000
0000
0000
,  // measure 80
1000
0000
0000
1001
;
