#TITLE:Quick Silver;
#SUBTITLE:;
#ARTIST:Mystic Moon;
#TITLETRANSLIT:;
#SUBTITLETRANSLIT:;
#ARTISTTRANSLIT:;
#GENRE:;
#CREDIT:DigiMindAxel;
#BANNER:Quick Silver.png;
#BACKGROUND:Quick Silver-bg.png;
#LYRICSPATH:;
#CDTITLE:beatmania IIDX.png;
#MUSIC:Quick Silver.mp3;
#METERTYPE:DDR X;
#OFFSET:-6.018;
#SAMPLESTART:14.353;
#SAMPLELENGTH:12.000;
#SELECTABLE:YES;
#BPMS:0.000=172.000
;
#STOPS:
;
#BGCHANGES:-20.000=Quick Silver.avi=1.000=1=1=0,
99999=-nosongbg-=1.000=0=0=0 // don't automatically add -songbackground-
;
#KEYSOUNDS:;
#ATTACKS:;

//---------------dance-single - ----------------
#NOTES:
     dance-single:
     :
     Easy:
     6:
     0.256,0.295,0.280,0.087,0.000,163.000,32.000,10.000,0.000,0.000,0.000,0.256,0.295,0.280,0.087,0.000,163.000,32.000,10.000,0.000,0.000,0.000: // measure 0
1000
0001
1000
0001
,  // measure 1
1000
0100
1000
0100
,  // measure 2
1000
0001
1000
0001
,  // measure 3
0100
0000
0000
2002
0000
0000
0000
0000
,  // measure 4
0000
0000
0000
0000
,  // measure 5
0000
0000
0000
3003
0000
1001
0000
0000
,  // measure 6
0001
1000
0001
1000
,  // measure 7
0100
2000
0000
0000
,  // measure 8
3001
0100
0001
0100
,  // measure 9
0020
0000
0230
0000
,  // measure 10
0301
0010
0100
1000
,  // measure 11
0100
2000
0000
0000
,  // measure 12
3010
0100
0010
0100
,  // measure 13
0002
0000
0000
0000
,  // measure 14
0013
0100
1000
0100
,  // measure 15
0010
0001
0001
0000
,  // measure 16
1000
0100
0010
0001
,  // measure 17
0010
0000
0010
0000
,  // measure 18
0001
1000
1001
0001
,  // measure 19
1000
0001
0000
0000
,  // measure 20
0010
0001
0010
0001
,  // measure 21
0100
0000
0000
0000
,  // measure 22
0110
0000
0010
0100
,  // measure 23
0010
0000
0000
0000
,  // measure 24
1001
0000
1000
0001
,  // measure 25
1000
0000
0000
0000
,  // measure 26
0110
0000
0100
0010
,  // measure 27
0100
0000
0000
0000
,  // measure 28
1001
0000
0001
1000
,  // measure 29
0001
0000
0000
0000
,  // measure 30
1001
0000
0000
0000
,  // measure 31
0000
0000
0110
0000
,  // measure 32
0000
0000
0000
1001
,  // measure 33
0000
0000
0000
1001
,  // measure 34
0000
0000
0000
0000
,  // measure 35
0000
0110
0000
0110
,  // measure 36
0000
0110
0000
0000
,  // measure 37
1001
0000
1001
0000
,  // measure 38
0000
0000
0001
0000
,  // measure 39
0010
0000
0100
0000
,  // measure 40
1000
0000
0100
0000
,  // measure 41
0010
0000
0001
0000
,  // measure 42
1000
0000
0001
0000
,  // measure 43
0100
0000
0010
0000
,  // measure 44
1000
0000
0010
0000
,  // measure 45
0100
0000
0001
0000
,  // measure 46
0000
0000
1001
0000
,  // measure 47
0000
0000
0110
0000
,  // measure 48
0000
0000
1001
0000
,  // measure 49
0000
0000
0110
0000
,  // measure 50
0000
0000
1001
0000
,  // measure 51
1000
0000
0001
0000
,  // measure 52
1000
0000
0001
0000
,  // measure 53
1000
0000
0020
0000
,  // measure 54
0000
0000
0000
0000
,  // measure 55
0030
0000
0110
0000
,  // measure 56
0000
0000
0000
0000
,  // measure 57
0000
0000
1001
1001
,  // measure 58
0000
0000
0000
0000
,  // measure 59
0000
0000
0110
0110
,  // measure 60
0100
0010
0100
0010
,  // measure 61
0100
0010
1000
0001
,  // measure 62
1000
0001
1001
0000
,  // measure 63
0000
0000
0001
0100
,  // measure 64
0001
0100
0001
0010
,  // measure 65
0100
1000
0100
1000
,  // measure 66
0100
1000
0010
0010
,  // measure 67
0100
0100
0001
1000
,  // measure 68
0001
1000
0001
1000
,  // measure 69
0100
0010
0001
0001
,  // measure 70
1000
0000
1000
0000
1001
0000
0000
1001
,  // measure 71
0000
0000
0000
0000
0110
0000
0000
0100
,  // measure 72
0000
1001
0000
0000
,  // measure 73
0000
0000
0000
2002
0000
0000
0000
0000
,  // measure 74
0000
0000
0000
0000
,  // measure 75
0000
3003
0000
0000
0000
0000
0000
0000
;

//---------------dance-single - ----------------
#NOTES:
     dance-single:
     :
     Medium:
     8:
     0.437,0.427,0.402,0.315,0.004,268.000,46.000,36.000,0.000,0.000,0.000,0.437,0.427,0.402,0.315,0.004,268.000,46.000,36.000,0.000,0.000,0.000: // measure 0
0001
0010
0100
1000
,  // measure 1
0001
0010
0100
1000
,  // measure 2
0001
0100
0010
1000
,  // measure 3
0001
0000
0000
1000
0000
0000
2002
0000
0000
0000
0000
0000
0000
0000
0000
0000
,  // measure 4
0000
0000
0000
0000
,  // measure 5
0000
0000
0000
3003
0000
0001
1001
0000
,  // measure 6
1001
0000
0100
1000
0100
0000
1000
0000
,  // measure 7
0010
0200
0001
0301
,  // measure 8
1000
0001
0000
0100
0000
0010
0000
0100
,  // measure 9
0110
0000
1001
0000
,  // measure 10
0010
1000
0010
0000
1001
0000
1000
0000
,  // measure 11
0001
0020
0100
0130
,  // measure 12
1000
0001
1000
0000
0010
0100
0010
0000
,  // measure 13
1001
0000
0000
1001
0000
0000
0000
0000
,  // measure 14
0010
0100
0010
0000
0100
0000
0010
0100
,  // measure 15
0001
1000
0001
0000
1000
0001
1000
0000
,  // measure 16
0100
0010
0001
0100
,  // measure 17
0010
1000
0010
0000
0100
0001
0100
0000
,  // measure 18
0001
1000
0001
0000
1001
0000
1000
0100
,  // measure 19
1000
0000
0001
0010
0001
0000
0010
0000
,  // measure 20
0100
0000
1000
0000
0100
0000
1000
0001
,  // measure 21
1000
0000
0000
0000
,  // measure 22
1001
0000
0001
0000
1000
0001
1000
0000
,  // measure 23
0001
0100
0100
0100
,  // measure 24
0001
0000
1000
0001
1000
0000
0001
0000
,  // measure 25
1000
0100
0010
0001
,  // measure 26
1001
0000
0100
1000
0100
0000
0010
0000
,  // measure 27
0001
1000
1000
1000
,  // measure 28
0110
0000
0100
0000
0001
1000
0001
0000
,  // measure 29
0100
0000
0000
0110
0000
0000
0000
0000
,  // measure 30
1001
0000
0000
0000
0000
0000
0000
1000
,  // measure 31
0000
1000
0000
1000
1100
0000
0000
0000
,  // measure 32
0000
1001
0000
0000
0000
0000
0101
0000
,  // measure 33
0000
0000
0000
0110
,  // measure 34
0000
0000
0000
0000
0000
0001
0000
0001
,  // measure 35
0000
0001
0101
0000
0000
0000
1001
0000
,  // measure 36
0000
0000
1010
0000
0000
1010
0000
0000
,  // measure 37
1001
0000
1001
0000
,  // measure 38
0000
0000
2001
3001
,  // measure 39
0200
0301
2000
3100
,  // measure 40
2000
3001
0020
0031
,  // measure 41
0200
0310
2000
3001
,  // measure 42
1002
0013
0200
1300
,  // measure 43
0002
1003
0020
1030
,  // measure 44
0002
0103
0002
1003
,  // measure 45
0020
0130
0220
0000
,  // measure 46
0000
0330
2200
0000
,  // measure 47
0000
3300
0220
0000
,  // measure 48
0000
0330
0022
0000
,  // measure 49
0000
0033
2002
0000
,  // measure 50
0000
3003
1001
0001
,  // measure 51
0100
0001
1000
0100
,  // measure 52
1000
0100
0010
0001
,  // measure 53
0010
0000
0001
0000
1000
0001
1000
0001
,  // measure 54
1000
0001
1000
0001
1000
0000
0000
0000
,  // measure 55
0000
0001
1001
0000
2002
0000
0000
0000
,  // measure 56
0000
0000
0000
3003
,  // measure 57
1000
0010
0110
0220
,  // measure 58
0000
0000
0000
0330
,  // measure 59
0001
0100
0110
0110
,  // measure 60
0010
1000
0010
0000
0100
0001
0100
0000
,  // measure 61
0001
1000
1001
0001
,  // measure 62
0110
1000
1001
0000
,  // measure 63
0000
0000
0001
1000
,  // measure 64
0100
1000
0010
1000
0100
0000
0010
0100
,  // measure 65
0010
0000
0001
0000
0100
0001
0010
0001
,  // measure 66
0100
0001
1001
1000
,  // measure 67
1001
0000
1000
0000
0100
0010
0100
1000
,  // measure 68
0100
0000
1000
0000
0010
0000
0100
0001
,  // measure 69
0100
0000
0010
0000
1000
0100
1000
0000
,  // measure 70
0010
0100
0010
0000
0110
0000
0000
2002
,  // measure 71
0000
0000
3003
0000
1000
1000
0000
0001
,  // measure 72
0001
0000
0100
0100
0010
0000
0100
0000
,  // measure 73
0010
0000
0000
0220
0000
0000
0000
0000
,  // measure 74
0000
0000
0000
0000
,  // measure 75
0000
0330
0000
0000
0000
0000
0000
0000
;

//---------------dance-single - ----------------
#NOTES:
     dance-single:
     :
     Hard:
     11:
     0.608,0.525,0.428,0.297,0.210,404.000,49.000,34.000,0.000,0.000,0.000,0.608,0.525,0.428,0.297,0.210,404.000,49.000,34.000,0.000,0.000,0.000: // measure 0
1000
0000
0000
1000
0000
0000
0002
0000
0010
0000
0000
0013
0000
0000
0000
0000
,  // measure 1
0001
0000
0000
0001
0000
0000
2000
0000
0010
0000
0000
3010
0000
0000
0000
0000
,  // measure 2
0100
0000
0000
0100
0000
0000
0002
0000
1000
0000
0000
1003
0000
0000
0000
0000
,  // measure 3
0010
0000
0000
0100
0000
0000
0220
0000
0000
0000
0000
0000
0000
0000
0000
0000
,  // measure 4
0000
0000
0000
0300
0000
0100
0000
0100
,  // measure 5
0000
0100
0000
0130
0000
0001
1001
0000
,  // measure 6
0001
0100
0001
1000
0100
0010
0100
1000
,  // measure 7
0010
0000
0000
0000
0200
0000
0000
0000
0010
0000
0000
0310
0000
0000
0000
0000
,  // measure 8
1000
0100
1000
0001
0100
0010
0100
0001
,  // measure 9
0101
0000
0000
0101
0000
0000
0000
0000
1001
0000
0000
1001
0000
0000
0000
0000
,  // measure 10
0100
0010
0100
0010
0110
0000
0010
1000
,  // measure 11
0001
0000
0000
0000
0200
0000
0000
0000
0001
0000
0000
0301
0000
0000
1000
0000
,  // measure 12
0001
1000
0001
0010
0100
0010
0001
0000
,  // measure 13
1001
0000
0000
1001
0000
1000
1000
0001
,  // measure 14
0100
1000
0100
0001
1000
0000
0100
0010
,  // measure 15
0001
0000
0001
0000
1000
0001
0100
0000
,  // measure 16
0010
0010
0010
0100
0001
0001
0001
0010
,  // measure 17
0100
0000
0000
1100
0000
0000
0000
0000
0100
0000
0000
0110
0000
0000
0000
0000
,  // measure 18
0001
1000
0001
1000
1001
0000
0001
1000
,  // measure 19
0100
0000
0010
0001
0010
0100
0010
0001
,  // measure 20
1000
0000
0000
1000
0000
0000
0100
0000
0010
0000
0010
0000
0010
0000
0001
0000
,  // measure 21
2000
0000
0001
3001
,  // measure 22
1000
0100
1000
0001
1000
0001
1000
0100
,  // measure 23
1000
0002
1000
0103
,  // measure 24
0001
0100
0001
1000
0001
1000
0001
0100
,  // measure 25
0001
2000
0001
3100
,  // measure 26
1000
0001
0100
0001
1000
0100
1000
0010
,  // measure 27
0100
0002
1000
0103
,  // measure 28
0001
1000
0100
0010
0100
1000
0001
0100
,  // measure 29
0101
0000
0000
1100
0000
1000
1000
0000
,  // measure 30
1001
0000
0001
0000
0100
0000
0001
1000
,  // measure 31
0000
1000
0000
1000
1001
0000
1001
0000
,  // measure 32
0000
0000
0101
0000
0000
0000
0101
0000
0000
0000
0000
0000
1001
0000
0000
1001
,  // measure 33
0000
0000
0000
1000
0100
0010
0001
0000
0000
1001
0000
0000
,  // measure 34
1000
0000
0100
0000
1000
0001
0000
0001
,  // measure 35
0000
0001
2002
0000
3003
0000
0220
0000
,  // measure 36
0330
0000
0100
0001
1000
1001
0000
0000
,  // measure 37
0001
0010
0001
0010
0001
1000
0020
0000
0000
0000
0000
0000
,  // measure 38
0100
0000
0000
0000
0130
0000
0000
0000
0001
0000
0000
0100
0000
0000
1000
0000
,  // measure 39
0100
0000
0000
0001
0000
0000
1000
0000
0010
0000
0000
0001
0000
0000
0010
0000
,  // measure 40
1000
0000
0000
0100
0000
0000
0001
0000
0100
0000
0000
1000
0000
0000
0001
0000
,  // measure 41
0010
0000
0000
1000
0000
0000
0010
0000
0001
0000
0000
0100
0000
0000
1000
0000
,  // measure 42
0100
0000
0000
0001
0000
0000
1000
0000
0100
0000
0000
0001
0000
0000
0100
0000
,  // measure 43
0010
0000
0000
0001
0000
0000
0100
0000
1000
0000
0000
0100
0000
0000
0010
0000
,  // measure 44
1000
0000
0000
0001
0000
0000
0010
0000
0100
0000
0000
0001
0000
0000
0100
0000
,  // measure 45
1000
0000
0000
0001
0000
0000
0100
0000
0220
0000
0000
0000
0000
0000
0000
0000
,  // measure 46
0000
0000
0330
0000
0101
0002
1000
0000
,  // measure 47
1000
0000
1003
0000
1100
2000
0001
0000
,  // measure 48
0001
0000
3001
0000
0110
0020
1000
0000
,  // measure 49
1000
0000
1030
0000
0110
0200
0001
0000
,  // measure 50
0001
0000
0301
0000
1001
1000
0001
0010
,  // measure 51
0100
1000
0001
0000
1001
0001
1000
0100
,  // measure 52
0010
0001
1000
0000
0110
0010
1000
0010
,  // measure 53
0100
0001
1000
0000
0100
1000
0100
1000
,  // measure 54
0001
0010
0001
0010
0100
1000
0001
0100
,  // measure 55
0001
1000
1001
0000
2002
0000
0000
0000
,  // measure 56
0000
0000
0000
3003
,  // measure 57
2000
0000
0000
3002
0000
0000
1003
0100
1000
0001
0000
0000
,  // measure 58
0100
0001
0010
0100
0000
0000
1000
0000
0000
0010
0000
0000
,  // measure 59
1000
0001
1001
1001
,  // measure 60
0100
0000
0000
0100
0000
0000
0100
0000
0000
0000
0001
0000
1000
0000
0000
0000
,  // measure 61
0010
0000
0000
0010
0000
0000
0010
0000
1000
0000
0100
0000
0010
0000
0001
0000
,  // measure 62
0010
0100
1000
0001
2002
0000
0000
3003
,  // measure 63
0000
0000
1000
0000
1001
0000
0000
0000
0001
0000
0000
0100
0001
0000
0010
0000
,  // measure 64
0100
0010
0001
1000
0010
0000
2000
0000
,  // measure 65
3002
0000
0000
0100
0000
0000
0103
0000
0001
0000
0000
1000
0100
0000
0010
0000
,  // measure 66
0100
0000
1000
0000
0001
0000
0100
0000
0101
0000
0000
0101
0000
0000
0000
0000
,  // measure 67
0110
0000
0000
0110
0000
0000
0000
0000
1000
0000
0000
0010
1000
0000
0100
0000
,  // measure 68
0010
0100
1000
0001
0100
0000
0002
0000
,  // measure 69
2003
0000
0000
0010
0000
0000
3010
0000
1000
0000
0001
0000
0100
0000
1000
0000
,  // measure 70
0100
0001
1000
0000
1001
0000
0000
1010
,  // measure 71
0000
0000
0010
0100
0001
0101
0000
1000
,  // measure 72
1100
0000
0010
0110
0100
0001
0010
0100
,  // measure 73
1000
0010
0000
0220
0000
0000
0000
0000
,  // measure 74
0000
0000
0000
0000
,  // measure 75
0000
0330
0000
0000
0000
0000
0000
0000
;

//---------------dance-single - ----------------
#NOTES:
     dance-single:
     :
     Challenge:
     15:
     0.865,0.853,0.690,0.140,0.699,598.000,79.000,16.000,0.000,0.000,0.000,0.865,0.853,0.690,0.140,0.699,598.000,79.000,16.000,0.000,0.000,0.000: // measure 0
0001
0000
0000
0001
1000
0000
0200
0000
0010
0000
0000
0310
0000
0000
0000
0000
,  // measure 1
0100
0000
0000
0100
1000
0000
0002
0000
0100
0000
0000
0103
0000
0000
0000
0000
,  // measure 2
0001
0000
0000
0001
0100
0000
0020
0000
0100
0000
0000
0130
0000
0000
0000
0000
,  // measure 3
1100
0000
0000
0110
0000
0000
0022
0000
0000
0000
0000
0000
0000
0000
0000
0000
,  // measure 4
0000
0000
0000
0030
0000
1000
0000
1000
,  // measure 5
0000
0000
1000
0000
0000
0000
1003
0000
0000
0000
1001
0000
1001
0000
0001
0100
,  // measure 6
0001
1000
0100
0010
0100
1000
0001
0100
,  // measure 7
0100
0000
0010
0000
1000
0000
0000
1000
0100
0000
0000
0100
0010
0000
0001
1000
,  // measure 8
0001
1000
0010
0100
0001
1000
0001
0010
,  // measure 9
0011
0000
0000
0011
0000
0000
1000
0000
1001
0000
0000
1001
0000
0000
0001
0000
,  // measure 10
1000
0100
1000
0100
1000
0100
1000
0000
1001
0000
0000
0000
0001
0000
0100
0001
,  // measure 11
0100
0000
0001
0000
1000
0000
0000
1000
0100
0000
0000
0100
0010
0000
0001
1000
,  // measure 12
0001
0000
1000
0100
1000
0000
0010
0000
0100
0001
0000
0001
1000
0000
0100
0000
,  // measure 13
1000
0001
1000
0001
1000
0000
1001
0000
0000
0000
1001
0000
0001
0000
1000
0000
,  // measure 14
0100
1000
0100
0000
0010
0000
0100
0000
1000
0000
0001
0000
0100
0001
0100
0000
,  // measure 15
0101
0000
0000
0000
1100
0000
0000
1000
0001
0000
0010
0000
0100
0000
1000
0000
,  // measure 16
0001
0000
0001
0000
0001
0000
0010
0000
0100
1000
0100
1000
0100
0000
1000
0000
,  // measure 17
1010
0000
0000
1010
0000
0000
0001
0000
0101
0000
0000
0101
0000
0000
0001
0000
,  // measure 18
0100
0010
0100
0010
0100
0010
0100
0000
0110
0000
0000
0000
0001
0100
0001
0000
,  // measure 19
0010
0000
0100
0000
0010
0001
0010
0000
0100
0010
0100
0000
1000
0010
1000
0000
,  // measure 20
1010
0000
1000
0001
0000
0001
0010
0000
0110
0000
0100
0000
0100
0010
1000
0000
,  // measure 21
1001
0000
0000
0000
0000
0000
0000
0000
1000
0001
1000
0001
1000
0001
1000
0001
,  // measure 22
1000
0000
0010
0100
0001
0000
1000
0000
0100
0000
1000
0000
1000
0000
0001
0000
,  // measure 23
0001
0000
0100
0000
0210
0000
0000
0000
0001
0000
0000
0001
0000
0000
0301
0000
,  // measure 24
1000
0000
0100
0010
0001
0000
0100
0000
0001
0000
1000
0000
1000
0000
0001
0000
,  // measure 25
0001
0000
0200
0000
0000
0000
0301
0000
1000
0000
0000
0100
0000
0000
0010
0000
,  // measure 26
0011
0000
1000
0010
1000
0000
0100
0000
0010
0000
0001
0000
0010
0000
0100
0000
,  // measure 27
0010
0000
0001
0000
2001
0000
0000
0000
0010
0000
0000
0010
0000
0000
3010
0000
,  // measure 28
1010
0000
0001
0010
0001
0000
1000
0000
0010
0100
0010
0000
1000
0000
0001
0000
,  // measure 29
1001
1000
0010
0110
0100
0001
0001
1000
,  // measure 30
0002
0100
0100
0000
0100
0000
0103
0110
,  // measure 31
0000
0000
0000
0110
0000
0000
0000
0000
0000
0110
0000
0000
1000
0000
0100
0000
0010
0000
0001
0000
0000
0100
0000
0000
,  // measure 32
0100
0000
0110
0000
0000
0000
0110
0000
0001
0000
1000
0000
1001
0000
0000
1001
,  // measure 33
0000
0000
0000
0000
1000
0000
0001
0000
0010
0000
0100
0000
1000
0000
0000
0000
0000
0000
0002
0000
0000
0010
0000
0000
,  // measure 34
0010
0000
0010
0000
0013
0110
0000
0110
,  // measure 35
0000
0000
0000
0110
0000
0000
1000
0000
0100
0000
1000
0000
0010
0000
0100
0000
0000
0000
1001
0000
0000
0001
0000
0000
,  // measure 36
1000
1000
1001
0001
0100
0101
0000
0000
,  // measure 37
1000
0100
0010
0001
0010
0100
2000
0000
0000
0001
0000
0000
,  // measure 38
0001
0000
0000
0000
3001
0000
0000
0000
0011
0000
0000
0001
1000
0000
0100
0000
,  // measure 39
0010
0000
0000
0010
0100
0000
1000
0000
0001
0000
0000
0001
0100
0000
0010
0000
,  // measure 40
0100
0000
0000
0100
0001
0000
1000
0000
0100
0000
0000
0100
0010
0000
0001
0000
,  // measure 41
0100
0000
0000
0100
0010
0000
1000
0000
0010
0000
0000
0010
0100
0000
0001
0000
,  // measure 42
0010
0000
0000
0010
0001
0000
0100
0000
0010
0000
1000
0010
0000
1000
0010
0000
,  // measure 43
0100
0000
0001
0010
0000
0001
0010
0000
0100
0000
1000
0100
0000
1000
0100
0000
,  // measure 44
1000
0000
0001
0100
0000
0001
0100
0000
0010
0000
1000
0001
0000
1000
0001
0000
,  // measure 45
0100
0000
0010
0100
0000
0010
0100
0000
0220
0000
0000
0000
0000
0000
0330
0000
,  // measure 46
0000
0000
0100
0010
0100
0000
0001
0000
0101
0000
0101
0000
1000
0100
0000
1000
,  // measure 47
0000
0000
0001
0000
0000
1000
0000
0000
1100
0000
1100
0000
0001
0100
0000
0001
,  // measure 48
0000
0000
1000
0000
0000
0001
0000
0000
0110
0000
0110
0000
1000
0010
0000
1000
,  // measure 49
0000
0000
0001
0000
0000
0010
0000
0000
0110
0000
0110
0000
0001
0010
0000
0001
,  // measure 50
1000
0100
1000
0100
1000
0100
1000
0000
1001
0000
1001
0000
0001
0100
0000
0100
,  // measure 51
0001
0000
0010
0000
0100
0000
1000
0000
1001
0000
1001
0000
1000
0100
0000
0100
,  // measure 52
1000
0000
0010
0000
0100
0000
0001
0000
1001
0000
1001
0000
0001
0010
0000
0010
,  // measure 53
0001
1000
0010
0100
0001
0001
0010
0010
,  // measure 54
0100
0000
0100
0000
1000
0000
1000
0001
1000
0001
1000
0001
0100
0010
0100
0010
,  // measure 55
0100
0010
0100
0000
0110
0000
0000
0000
1001
0000
0000
0000
0001
0000
0000
0000
,  // measure 56
1000
0000
0000
1000
0000
0000
1000
0000
0000
0000
0010
0000
0100
0000
0000
0000
,  // measure 57
0001
0000
0000
1000
0000
0000
0001
0000
0000
1000
0000
0000
0001
0000
0000
1000
0000
0000
0001
0000
0000
1000
0000
0000
0001
0000
0000
0000
0100
0000
0000
0000
0001
0000
0000
0000
0100
0000
0000
0000
0010
0000
0000
0000
1000
0000
0000
0000
,  // measure 58
0010
0000
0000
0000
1000
0000
0000
0000
0100
0000
0000
0000
0010
0000
0000
0000
0001
0000
0000
0000
0010
0000
0000
0000
0100
0000
0000
0000
0000
0000
0000
0000
0000
0100
0000
0000
0000
0000
0000
0000
0000
0000
0100
0000
0000
0000
0000
0000
,  // measure 59
0010
0000
0000
0010
0000
0000
0010
0000
0011
0000
0000
0000
1100
0000
0000
0000
,  // measure 60
1001
0000
0000
1000
0001
0000
0010
0000
0200
0000
0010
0000
0310
0000
0000
0000
,  // measure 61
0001
0000
0000
1000
0010
0000
0100
0000
0001
1000
0001
1000
0001
1000
0001
1000
,  // measure 62
0100
1000
0100
1000
0100
1000
0100
1000
0001
0100
0001
0100
0001
0100
0001
0100
,  // measure 63
0001
0000
1001
0000
1001
0000
0000
0000
1000
0000
0001
0100
0001
0000
0010
0000
,  // measure 64
0100
0000
1000
0000
0010
0000
0001
0000
0010
0000
1000
0000
0001
0000
0000
0001
,  // measure 65
0100
0000
0000
0100
0010
0000
1000
0000
0001
0000
1000
0010
1000
0000
0100
0000
,  // measure 66
0010
0000
0001
0000
1000
0000
0100
0000
1100
0000
0000
1100
0000
0000
0010
0000
,  // measure 67
0110
0000
0000
0110
0000
0000
0001
0000
1001
0000
1000
0100
1000
0000
0001
0000
,  // measure 68
0100
0000
0001
0000
1000
0000
0100
0000
0001
0000
0100
0000
1000
0000
0000
1000
,  // measure 69
0010
0000
0000
0010
0100
0000
0001
0000
1001
0000
1000
0100
1000
0100
0010
0000
,  // measure 70
0110
0000
0000
0010
0100
0000
0001
0000
1000
0001
1000
0001
1000
0000
1001
0000
,  // measure 71
0001
1000
0100
1000
1001
1001
0000
0011
,  // measure 72
0011
0000
0000
0000
0110
0000
0110
0000
1000
0000
0001
0010
0100
0000
1000
0010
,  // measure 73
0100
0010
0100
0000
0000
0000
0220
0000
0000
0000
0000
0000
0000
0000
0000
0000
,  // measure 74
0000
0000
0000
0000
,  // measure 75
0000
0330
0000
0000
0000
0000
0000
0000
;

//---------------dance-single - ----------------
#NOTES:
     dance-single:
     :
     Beginner:
     3:
     0.136,0.160,0.114,0.000,0.000,96.000,13.000,0.000,0.000,0.000,0.000,0.136,0.160,0.114,0.000,0.000,96.000,13.000,0.000,0.000,0.000,0.000: // measure 0
0001
0000
1000
0000
,  // measure 1
0001
0000
1000
0000
,  // measure 2
0001
0000
1000
0000
,  // measure 3
0001
0000
0000
0000
,  // measure 4
0000
0000
0000
0000
,  // measure 5
0000
0000
0000
0000
,  // measure 6
1000
0000
0100
0000
,  // measure 7
1000
0000
0000
0000
,  // measure 8
0001
0000
0010
0000
,  // measure 9
0001
0000
0000
0000
,  // measure 10
1000
0000
0010
0000
,  // measure 11
1000
0000
0000
0000
,  // measure 12
0001
0000
0100
0000
,  // measure 13
0001
0000
0000
0000
,  // measure 14
1000
0000
1000
0000
,  // measure 15
1000
0000
1000
0000
,  // measure 16
0100
0000
0100
0000
,  // measure 17
0100
0000
0000
0000
,  // measure 18
0010
0000
0010
0000
,  // measure 19
0010
0000
0000
0000
,  // measure 20
0001
0000
0001
0000
,  // measure 21
0001
0000
0000
0000
,  // measure 22
1001
0000
1000
0000
,  // measure 23
0001
0000
1000
0000
,  // measure 24
0100
0000
1000
0000
,  // measure 25
0100
0000
1000
0000
,  // measure 26
0010
0000
0100
0000
,  // measure 27
0010
0000
0100
0000
,  // measure 28
0001
0000
0010
0000
,  // measure 29
0001
0000
0000
0000
,  // measure 30
1001
0000
0000
0000
,  // measure 31
0000
0000
0000
0000
,  // measure 32
0000
0000
0000
0000
,  // measure 33
0000
0000
0000
1001
,  // measure 34
0000
0000
0000
0000
,  // measure 35
0000
0000
0000
0000
,  // measure 36
0000
0000
0000
0000
,  // measure 37
0000
0000
0110
0000
,  // measure 38
0000
0000
0010
0000
,  // measure 39
0010
0000
0010
0000
,  // measure 40
0000
0000
0100
0000
,  // measure 41
0100
0000
0100
0000
,  // measure 42
0000
0000
0010
0000
,  // measure 43
0010
0000
0010
0000
,  // measure 44
0000
0000
0100
0000
,  // measure 45
0100
0000
0110
0000
,  // measure 46
0000
0000
1001
0000
,  // measure 47
0000
0000
1001
0000
,  // measure 48
0000
0000
1001
0000
,  // measure 49
0000
0000
1001
0000
,  // measure 50
0000
0000
0001
0000
,  // measure 51
1000
0000
0001
0000
,  // measure 52
1000
0000
0001
0000
,  // measure 53
1000
0000
0001
0000
,  // measure 54
0000
0000
0000
0000
,  // measure 55
0000
0000
1001
0000
,  // measure 56
0000
0000
0000
0000
,  // measure 57
0000
0000
1000
0000
,  // measure 58
0000
0000
0000
0000
,  // measure 59
0000
0000
0001
0000
,  // measure 60
1000
0000
0001
0000
,  // measure 61
1000
0000
0001
0000
,  // measure 62
0001
0000
0001
0000
,  // measure 63
0000
0000
1001
0000
,  // measure 64
1000
0000
0001
0000
,  // measure 65
0000
0000
0010
0000
,  // measure 66
0001
0000
0010
0000
,  // measure 67
0000
0000
0100
0000
,  // measure 68
0010
0000
0100
0000
,  // measure 69
0000
0000
1000
0000
,  // measure 70
0100
0000
1000
0000
,  // measure 71
0000
0000
1001
0000
,  // measure 72
0000
0000
0000
0000
,  // measure 73
0000
0000
0000
1001
0000
0000
0000
0000
;
