#TITLE:Promessa;
#SUBTITLE:;
#ARTIST:原田ひとみ;
#TITLETRANSLIT:;
#SUBTITLETRANSLIT:;
#ARTISTTRANSLIT:HITOMI HARADA;
#CREDIT:DigiMindAxel;
#BANNER:Promessa.png;
#BACKGROUND:Promessa-bg.png;
#LYRICSPATH:;
#CDTITLE:DigiMindAxel original simfile.png;
#MUSIC:Promessa.mp3;
#METERTYPE:DDR X;
#OFFSET:-6.995;
#SAMPLESTART:61.606;
#SAMPLELENGTH:12.000;
#SELECTABLE:YES;
#BPMS:0.000=175.000;
#STOPS:;
#BGCHANGES:-20.000=Promessa.avi=1.000=1=1=0,
99999=-nosongbg-=1.000=0=0=0 // don't automatically add -songbackground-
;

//---------------dance-single - ----------------
#NOTES:
     dance-single:
     :
     Easy:
     5:
     0.309,0.292,0.161,0.000,0.000:
0000
1001
0000
0000
1000
0000
0100
0000
,
1000
0100
1000
0001
,
0000
1001
0000
0000
0001
0000
0100
0000
,
0001
0100
0001
1000
,
0000
1001
0000
0000
0010
0000
0100
0000
,
0010
0100
0001
1000
,
0000
1001
0000
0000
0100
0000
0010
0000
,
0100
0000
0010
0000
0000
1000
0000
1000
,
0000
1001
0000
0000
0010
0000
0100
0000
,
0010
1000
0100
1000
,
0001
0000
1000
0100
,
0010
0001
1000
0100
,
0000
1000
0001
1000
,
0001
0100
0001
1000
,
0000
0000
0001
0010
,
0100
0000
1000
0000
0000
0001
0000
0001
,
0000
1001
0000
0000
0000
0000
0001
0000
,
0000
1000
0000
0001
,
0000
0010
0000
0100
,
0000
0010
0000
0100
,
0000
1000
0000
0001
,
0000
1000
0000
0001
,
0000
1000
0000
0010
,
0000
0100
0000
0001
,
0000
1000
0001
1000
,
0100
1000
0100
1000
,
0000
0000
0001
0010
,
0001
0010
0001
1000
,
0000
0000
0100
0010
,
0100
0010
0001
0100
,
0000
0010
1000
0001
,
1000
0100
0010
0001
,
0000
1000
0000
0100
,
0000
1000
0000
0100
,
0000
0010
0000
0001
,
0000
0010
0000
0001
,
0000
0100
0000
0010
,
0000
0100
0000
0010
,
0000
1000
0000
0001
,
0000
1000
0100
0000
,
0000
1001
0000
0000
1000
0000
0100
0000
,
1000
0010
0100
0010
,
1000
0100
1000
0010
,
0110
0000
0000
1001
,
0000
0110
0010
0100
,
0010
1000
0100
1000
,
0001
0010
0001
0100
,
0010
0100
0001
0010
,
0000
1001
0000
0000
0001
0000
0010
0000
,
0001
0100
0001
0010
,
0001
1000
0100
0010
,
0001
1001
0000
0110
,
0000
1001
1000
0100
,
1000
0001
0100
0001
,
1000
0100
0010
0100
,
0010
0001
1000
0001
,
1000
0100
1000
1000
,
1000
0000
0001
0001
,
0001
0000
1000
0100
,
0010
0001
0010
0100
,
1000
0000
0001
0001
,
0001
0000
1000
1000
,
1000
0000
0001
0010
,
0100
0000
1000
0000
0000
0010
0000
0010
,
0000
0110
0000
0000
0110
0000
0000
0000
;

//---------------dance-single - ----------------
#NOTES:
     dance-single:
     :
     Medium:
     8:
     0.455,0.455,0.272,0.040,0.000:
0000
1001
0000
0000
0001
0010
0001
0000
,
1000
0100
1000
0000
0001
1000
0001
0000
,
0000
1001
0000
0000
1000
0010
1000
0000
,
0001
0100
0001
0000
1000
0001
1000
0000
,
0000
1001
0000
0000
0010
0100
0010
0000
,
1000
0100
1000
0000
0001
0010
0001
0000
,
0000
1001
0000
0000
0100
0010
0100
0000
,
0010
0100
0010
0000
1000
0001
0000
1001
,
0000
1001
0000
1000
0100
1000
0100
1000
,
0000
1010
0000
0010
0100
0010
0100
0010
,
0000
0110
0000
0000
1000
0000
0100
0000
,
0010
0100
1000
0010
,
0000
0110
0000
0100
0001
0100
0001
0100
,
0000
0110
0000
0100
1000
0100
1000
0100
,
0000
1001
0000
0000
0001
0000
0010
0000
,
0100
0000
0010
0000
0001
1000
0000
1001
,
0000
1001
0000
0000
0000
0000
1000
0000
,
0000
0100
0000
0010
,
0000
0100
0000
1000
,
0000
0100
0000
0010
,
0000
0001
0000
0010
,
0000
0001
0000
0100
,
0000
0010
0000
1000
,
0000
0001
1000
0001
,
0000
1001
0000
0000
1000
0100
1000
0000
,
0100
0010
0100
0000
0010
0001
0010
0000
,
0000
0001
0000
0000
0010
0001
0010
0000
,
0100
0010
0100
0000
1000
0100
1000
0000
,
0000
1001
0000
0000
0001
0100
0001
0000
,
0100
0010
0100
0000
0010
1000
0010
0000
,
0000
1000
0000
0000
0010
1000
0010
0000
,
0100
0010
0100
0000
0001
0100
0001
0000
,
0000
1002
0000
0023
,
0000
0230
0000
0320
,
0000
0130
1000
0001
,
1000
0100
1000
0001
,
0100
0010
0100
0010
,
0000
1000
0001
0100
,
0000
0001
1000
0001
,
0010
0000
0100
0000
1000
0001
0000
0000
,
0000
1001
0000
0000
0001
0010
0100
0000
,
0010
0001
0010
0000
0001
0000
1000
0000
,
0010
0100
0010
0000
1000
0010
0100
0000
,
0010
0100
0000
0000
0001
1000
0000
0000
,
0010
0100
0000
0000
0001
0100
0010
0000
,
0100
0010
0100
0000
0001
0000
1000
0000
,
0100
1000
0100
0000
1000
0100
0010
0000
,
0001
1000
0001
1000
0001
1000
0100
0000
,
0000
1001
0000
0000
1000
0100
0010
0000
,
0100
1000
0100
0000
1000
0000
0001
0000
,
0100
0010
0000
0000
1000
0001
0100
0000
,
0001
1000
0000
0100
0000
1000
0000
0001
,
0000
1001
0000
0000
0001
0000
0100
0010
,
0100
0010
0000
0000
1000
0000
0100
0010
,
0100
0010
0000
0000
0001
0000
0010
0000
,
0100
0000
1000
0001
1000
0001
1000
0001
,
0010
0001
0000
1000
0100
1000
0100
1000
,
0000
1001
0000
0001
0100
0001
0100
0001
,
0000
0101
0000
0000
0001
0000
0010
0000
,
0100
0010
0001
1000
,
0000
1001
0000
0001
0010
0001
0010
0001
,
0000
0011
0000
0010
0100
0010
0100
0010
,
0000
0110
0000
0000
1000
0000
0010
0000
,
0100
0000
0010
0000
1000
0001
0000
1001
,
0000
0110
0000
0100
0110
0000
0000
0000
;

//---------------dance-single - ----------------
#NOTES:
     dance-single:
     :
     Hard:
     12:
     0.675,0.552,0.604,0.181,0.000:
0000
1001
0000
1000
0010
1000
0010
1000
,
0001
1000
0001
0010
1000
0010
0001
1000
,
0001
1001
0000
0001
0100
0001
0100
0001
,
1000
0001
1000
0010
0001
0010
1000
0001
,
1000
1001
0000
1000
0001
1000
0001
0010
,
0100
0010
0100
1000
0010
0001
0010
1000
,
0001
1001
0000
0001
1000
0001
1000
0010
,
0100
0010
1000
0100
0010
0011
0000
0011
,
0000
1001
0000
0001
0010
1000
0010
0001
,
0100
0110
0000
1000
0010
0001
0010
1000
,
0010
0110
0000
0000
0101
0000
0101
0000
,
0110
0110
0101
0101
,
1000
1001
0000
0001
0100
1000
0100
0001
,
0100
0110
0000
1000
0100
0001
0100
1000
,
0010
0110
0000
0000
1100
0000
0110
0000
,
1100
0000
1000
0100
0010
0011
0000
0011
,
0000
1002
0000
1000
1003
0000
0001
0000
,
0010
0001
0020
0000
0000
0000
0130
0000
,
0000
2000
0000
0001
3001
0000
1000
0000
,
0000
0020
0000
0130
,
0000
0002
0000
1000
1003
0000
0001
0010
,
0001
2000
0000
3001
,
0000
0200
0000
0010
0310
0000
1000
0000
,
0001
0000
1000
0001
0100
0001
1000
0000
,
0000
1001
0000
0001
0010
0001
0010
0001
,
0010
0100
0010
0100
1000
0100
1000
0100
,
0010
0002
0000
1003
0100
1000
0100
1000
,
0010
0100
0010
0100
0001
0010
0001
0010
,
0100
2000
0000
3001
0100
0001
0100
0001
,
0010
0100
0010
0100
1000
0010
1000
0010
,
0100
0002
0000
1003
0010
1000
0010
1000
,
0100
0010
0100
0010
0001
1000
1000
0001
,
0001
2001
0100
3002
,
0100
0000
2003
0000
0100
0000
3001
1000
,
0100
0010
0002
0000
0100
0000
2003
0000
,
0100
0000
3002
0000
0100
0000
1003
0001
,
0010
0100
1000
0000
0010
0100
0000
0010
,
0100
0000
0001
0000
0010
0100
0000
0010
,
0100
0000
1001
0000
1000
0001
0000
1000
,
0001
0000
0010
0100
1000
0002
0000
0000
,
0003
1001
0000
1000
0100
0010
0100
1000
,
0001
0200
0000
0301
0010
0100
0010
0001
,
0100
0010
0000
1000
0001
1000
0010
0100
,
0001
0101
0000
0010
0100
0110
0000
1000
,
0010
1010
0000
1000
0010
0100
0010
1000
,
0100
1000
0000
0001
0100
0010
0100
0001
,
0010
0001
0000
0100
0010
0100
0001
0010
,
0001
1000
0100
0010
0001
0010
0100
0000
,
0000
1001
0000
0001
0010
0100
0010
0001
,
1000
1001
0000
0010
0100
1000
0100
0010
,
0001
0011
0000
0010
1000
0100
1000
0010
,
0100
0110
0000
0010
0001
0011
0000
0100
,
1000
1100
0000
1000
0010
0100
0010
1000
,
0100
1100
0000
0001
0100
0010
0100
0001
,
0010
0011
0000
0010
0100
1000
0100
0010
,
0100
0010
0001
0100
1000
0100
0001
0010
,
0100
0110
0000
1000
0010
0001
0010
1000
,
0100
0110
0000
0001
0100
1000
0100
0001
,
0010
0110
0000
0000
1010
0000
0110
0000
,
1010
0110
1010
0110
,
0001
1001
0000
1000
0100
0001
0100
1000
,
0010
0110
0000
0001
0010
1000
0010
0001
,
0100
0110
0000
0000
0011
0000
1100
0000
,
0011
0000
1100
0000
0100
0110
0000
0110
,
0000
1001
0000
1001
1001
0000
0000
0000
;

//---------------dance-single - ----------------
#NOTES:
     dance-single:
     :
     Challenge:
     14:
     0.794,0.812,0.514,0.131,0.302: // measure 1
0000
1001
0000
0001
0100
0010
0001
0010
,  // measure 2
0100
0000
0001
1000
0001
0000
1000
0000
0100
0000
1000
0001
1000
0000
0010
0000
,  // measure 3
0100
0110
0000
1000
0010
0100
1000
0100
,  // measure 4
0010
0000
1000
0001
1000
0000
0001
0000
0100
0000
0001
1000
0001
0000
0100
0000
,  // measure 5
0010
0110
0000
0100
0010
1000
0100
0001
,  // measure 6
0100
0000
1000
0001
1000
0000
0010
0000
0100
0000
0010
0100
0010
0000
1000
0000
,  // measure 7
0100
1100
0000
0100
0010
1000
0100
0001
,  // measure 8
0100
0000
1000
0001
1000
0001
1000
0001
0010
0000
0011
0000
0000
0000
0011
0000
,  // measure 9
0000
0000
1001
0000
0000
0000
1000
0100
1000
0100
0010
0001
0010
0001
1000
0001
,  // measure 10
1000
0000
1001
0000
0000
0000
0001
0000
0001
0000
0100
0000
0010
1000
0010
1000
,  // measure 11
0001
1001
0000
0000
1000
0100
0010
0100
,  // measure 12
1000
0000
0001
1000
0001
0000
0010
0000
0100
0000
0010
0001
0010
0000
0001
0000
,  // measure 13
1000
0000
1001
0000
0000
0000
0001
0100
0001
0100
0010
1000
0010
1000
0001
1000
,  // measure 14
0001
0000
1001
0000
0000
0000
1000
0000
1000
0000
0100
0000
0010
0001
0010
0001
,  // measure 15
1000
1001
0000
0000
0001
0100
0010
0100
,  // measure 16
0001
0000
1000
0001
1000
0000
0100
1000
0010
0000
0110
0000
0000
0000
0110
0000
,  // measure 17
0000
0201
0000
0010
0310
0000
1000
0001
,  // measure 18
1000
0100
0001
0000
0100
0000
1000
0000
,  // measure 19
0000
1020
0000
0100
0130
0000
0001
1000
,  // measure 20
0001
0010
0100
1000
,  // measure 21
0000
2001
0000
0100
3100
0000
1000
0001
,  // measure 22
1000
0100
0001
0000
0100
0000
1000
0000
,  // measure 23
0000
1002
0000
0010
0013
0000
0001
0000
,  // measure 24
0010
0000
0100
0000
1000
0000
0100
0000
0010
0000
0001
0000
1000
0001
1000
0001
,  // measure 25
1000
1001
0000
0001
1000
0100
1000
0001
,  // measure 26
1000
0100
1000
0001
1000
0100
1000
0001
,  // measure 27
0010
0200
0000
1300
0001
0100
0001
1000
,  // measure 28
0001
0100
0001
1000
0001
0100
0001
1000
,  // measure 29
0100
0020
0000
0031
1000
0010
1000
0001
,  // measure 30
1000
0010
1000
0001
1000
0010
1000
0001
,  // measure 31
0010
0200
0000
1300
0001
0010
0001
1000
,  // measure 32
0001
0010
0001
1000
0100
0010
0010
0100
,  // measure 33
0100
1200
1300
0120
,  // measure 34
0130
0000
0012
0000
0013
0000
0001
0010
,  // measure 35
0100
0000
1000
0000
1001
0000
0000
0000
0001
0000
1000
0000
0000
0000
0010
0100
,  // measure 36
0010
0000
1000
0001
1000
0000
0100
1000
0100
0010
0001
0010
0002
0000
0000
0000
,  // measure 37
1003
0001
1000
0001
0100
0000
0000
0000
0001
0000
1000
0000
0000
0000
1000
0000
,  // measure 38
0001
0010
0100
0000
1000
0001
0000
0001
,  // measure 39
1000
0010
0100
0000
0001
1000
0000
1000
,  // measure 40
0001
0010
0001
0001
1000
2002
0000
3003
,  // measure 41
0000
1001
0000
0001
0010
0100
1000
0100
,  // measure 42
0010
0001
0000
1000
0100
0010
0001
0010
,  // measure 43
0100
1000
0000
0010
0100
0001
0100
0010
,  // measure 44
1000
1100
0000
0010
1000
1100
0000
0010
,  // measure 45
0001
0101
0000
0001
0100
1000
0100
0001
,  // measure 46
0010
0100
0000
1000
0010
0001
0010
1000
,  // measure 47
0100
0010
0000
0001
1000
0001
0100
1000
,  // measure 48
0100
0000
0010
0000
1000
0000
0001
0000
0010
0000
0100
0000
1000
0001
1000
0001
,  // measure 49
1000
1001
0000
1000
0010
0100
0001
0100
,  // measure 50
0010
1010
0000
0001
0100
0010
1000
0010
,  // measure 51
0100
0101
0000
0001
1000
0001
0010
0100
,  // measure 52
1000
1010
0000
0100
1000
1010
0000
0100
,  // measure 53
0001
0011
0000
0001
1000
0001
0010
1000
,  // measure 54
0010
0011
0000
0001
1000
0001
0100
1000
,  // measure 55
0100
0101
0000
0001
1000
0100
0010
0001
,  // measure 56
1000
0000
0001
0000
0100
0001
1000
0000
1001
0000
0001
0000
0010
0001
0010
0001
,  // measure 57
1000
0000
1001
0000
0000
0000
0010
0001
0010
0001
0100
0010
0100
0010
1000
0100
,  // measure 58
1000
0000
1001
0000
0000
0000
1000
0000
0100
0000
0010
0000
0001
0100
0001
0100
,  // measure 59
0010
0110
0000
0000
1001
1000
0001
0010
,  // measure 60
0100
0000
0010
0001
1000
0000
0010
0000
0100
0000
0010
1000
0100
0000
0010
0000
,  // measure 61
0011
0000
1001
0000
0000
0000
0010
1000
0010
1000
0010
0100
0010
0100
0001
0100
,  // measure 62
0001
0000
1001
0000
0000
0000
0001
0000
0010
0000
0100
0000
1000
0001
0100
0001
,  // measure 63
0100
0110
0000
0000
1001
0001
1000
0100
,  // measure 64
0010
0000
0100
1000
0100
1000
0001
0100
0001
0000
0101
0000
0000
0000
0101
0000
,  // measure 65
0000
1001
0000
1001
1001
0000
0000
0000
;

//---------------dance-single - ----------------
#NOTES:
     dance-single:
     :
     Beginner:
     3:
     0.137,0.162,0.050,0.000,0.000:
0000
0000
0000
0000
,
0000
0000
0000
0000
,
0000
0000
0000
0000
,
0000
0000
0000
0000
,
0000
1000
0000
0100
,
0000
1000
0000
0100
,
0000
0000
1000
0000
,
0001
0000
1000
0000
,
0000
0000
0010
0000
,
0000
0000
0100
0000
,
0000
0000
0001
0000
,
0000
0001
0000
1000
,
0000
0000
0001
0000
,
0100
0000
0000
0001
,
0000
1000
0000
0100
,
0000
0010
0000
0100
,
0000
0000
0000
0010
,
0000
0000
0000
0010
,
0000
0000
0000
0100
,
0000
0000
0000
0100
,
0000
0000
0000
1000
,
0000
0000
0000
1000
,
0000
0000
0000
0001
,
0000
0000
0000
0001
,
0000
0000
1000
0000
,
0100
0000
1000
0000
,
0100
0000
0010
0000
,
0100
0000
0010
0000
,
0001
0000
0010
0000
,
0001
0000
0010
0000
,
0001
0000
1000
0000
,
0001
0000
1000
0000
,
0000
0110
0000
0000
,
0000
0010
0000
0000
,
0000
0110
0000
0000
,
0000
0100
0000
0000
,
0000
1001
0000
0000
,
0000
0001
0000
0000
,
0000
1001
0000
0000
,
0000
1000
0000
0000
,
0000
0010
0000
0100
,
0000
0010
0000
0100
,
0000
0001
0000
1000
,
0000
0000
0000
0000
,
0000
0000
0001
0000
,
1000
0000
0001
0000
,
0100
0000
0001
0000
,
0100
0000
0010
0000
,
0000
0000
1000
0000
,
0100
0000
1000
0000
,
0100
0000
0010
0000
,
0100
0000
0000
0000
,
0000
0000
1000
0000
,
0001
0000
0010
0000
,
0001
0000
1000
0000
,
0010
0000
0000
0000
,
0000
0000
0100
0000
,
0010
0000
0100
0000
,
0000
0000
0001
0000
,
1000
0000
0001
0000
,
1000
0000
0100
0000
,
1000
0000
0100
0000
,
0010
0000
0100
0000
,
0010
0000
0100
0000
,
0000
0000
0110
0000
;
