#TITLE:Playing With Fire;
#SUBTITLE:;
#ARTIST:kors k;
#TITLETRANSLIT:;
#SUBTITLETRANSLIT:;
#ARTISTTRANSLIT:;
#CREDIT:DigiMindAxel;
#BANNER:Playing With Fire.png;
#BACKGROUND:Playing With Fire-bg.png;
#LYRICSPATH:;
#CDTITLE:REFLEC BEAT.png;
#MUSIC:Playing With Fire.mp3;
#METERTYPE:DDR X;
#OFFSET:-7.964;
#SAMPLESTART:13.880;
#SAMPLELENGTH:12.000;
#SELECTABLE:YES;
#BPMS:0.000=160.000,112.000=80.000,128.000=160.000;
#STOPS:;
#BGCHANGES:;

//---------------dance-single - ----------------
#NOTES:
     dance-single:
     :
     Easy:
     5:
     0.239,0.279,0.038,0.247,0.000:
0001
0000
0001
0000
,
1000
0000
1000
0000
,
0001
0010
0001
0010
,
2002
0000
0000
3003
,
1000
1000
1000
0000
,
0001
0001
0001
0000
,
1000
1000
1000
0000
,
0001
0001
0001
0010
,
0100
0100
0100
0000
,
1000
1000
1000
0000
,
0010
0000
0110
0000
,
0200
0000
0000
0000
,
0301
1000
0001
1000
,
0001
0010
0001
0010
,
0002
0000
0023
0000
,
0230
0000
2300
0000
,
3010
0100
0010
0100
,
0001
0100
0001
0100
,
0002
0000
2003
0000
,
3100
0010
0100
0010
,
0001
0000
0000
0000
,
0001
0000
0000
0000
,
0001
0000
0000
0000
,
0001
0000
0000
0000
,
1000
0000
0000
0000
,
0100
0000
0000
0000
,
0010
0000
0000
0000
,
0001
0000
0000
0000
,
2001
0000
3020
0000
,
0230
0000
0302
0000
,
0203
0000
0320
0000
,
2030
0000
3002
0000
,
1003
0000
0100
0000
,
1000
0000
0100
0000
,
0010
0000
0001
0000
,
0010
0000
0001
0000
,
1000
0000
1000
0000
,
0001
0000
0001
0000
,
1000
0001
1000
0001
,
1000
0000
0000
0000
,
0100
1000
0100
1000
,
0001
1000
0001
1000
,
0002
0000
0203
0000
,
0302
0000
0203
0000
,
0310
0100
0010
0100
,
0001
1000
0001
1000
,
0002
0000
0023
0000
,
0032
0000
0000
0000
,
1003
0100
1000
0100
,
1000
0001
1000
0001
,
0100
0100
0010
0010
,
0100
0001
0100
0001
,
1000
0100
0010
0001
,
0010
0100
1000
0100
,
0010
0010
0001
0001
,
0100
0100
0100
0100
,
0220
0000
0000
0000
,
0000
0000
0000
0000
,
0000
0000
0000
0330
;

//---------------dance-single - ----------------
#NOTES:
     dance-single:
     :
     Medium:
     8:
     0.417,0.475,0.457,0.247,0.000:
1001
1000
1000
0001
,
0001
1000
1000
0001
,
0010
0100
1000
0001
,
2002
0000
0000
3003
,
1001
0000
1001
0000
0001
0100
0001
0000
,
1001
1001
2000
3010
,
1001
0000
1001
0000
1000
0100
1000
0000
,
1001
1001
0002
0013
,
0110
0000
0110
0000
0100
0010
0100
0000
,
0110
0110
0020
0130
,
2002
3003
0110
0100
,
0020
0000
0130
0110
,
1000
0100
1000
0000
0001
1000
0001
0000
,
1000
0100
1000
0100
1000
0000
0001
0000
,
1000
0000
0010
0000
0100
0001
0100
0000
,
0001
0000
0100
0000
0010
1000
0010
0000
,
1000
0001
1000
0000
0001
0010
0001
0000
,
1000
0001
1000
0001
1000
0000
1001
0000
,
1001
0011
0011
1100
,
2100
0000
0001
0000
3001
0100
0010
0000
,
1000
0000
0000
1000
0000
0000
1000
0000
,
0000
0001
0000
0000
0001
0000
0000
0001
,
0000
0000
1000
0000
0000
1000
0000
0000
,
1000
0000
0000
0001
0000
0000
0002
0000
,
0000
0000
0000
0000
,
0000
0000
0000
0000
,
0000
0000
0000
0000
,
1003
0001
1000
1001
,
1002
0000
0203
0000
,
0320
0000
2030
0000
,
3020
0000
0230
0000
,
0302
0000
0000
0000
2003
0000
0000
3000
,
1001
0010
0100
1000
,
0001
0010
0100
1000
,
0001
0100
0010
1000
,
0001
0100
0010
1000
,
1001
0100
0010
0001
,
0010
0100
1000
0001
,
1001
1000
0001
0001
,
0220
0000
0000
0330
,
0010
0001
0010
0001
0100
0010
0100
0000
,
0010
1000
0010
1000
0001
0010
0001
0000
,
1001
1100
0011
1100
,
0000
1001
0000
1001
0000
0200
0000
0000
,
0310
1000
0010
1000
0001
0010
0001
0000
,
1000
0100
1000
0100
1000
0001
0100
0000
,
1001
1010
0101
1001
,
0000
1010
0000
0101
0000
0200
0000
0000
,
0301
1000
0001
1000
0100
0010
0100
0000
,
1000
0001
1000
0001
1000
0010
0100
0000
,
0101
1010
0101
1010
,
0000
1001
0000
0110
0000
0020
0000
0000
,
1030
0001
1000
0001
1000
0100
1000
0100
,
1000
0001
0100
0001
1000
0100
0010
0001
,
2000
0100
0000
0100
0000
0100
0000
3100
,
0010
0001
0100
0001
0010
0001
0100
0000
,
0220
0000
0000
0000
,
0000
0000
0000
0000
,
0000
0000
0000
0330
;

//---------------dance-single - ----------------
#NOTES:
     dance-single:
     :
     Hard:
     13:
     0.609,0.671,0.371,0.304,0.447: // measure 1
1001
0000
0001
0001
0001
0000
1000
1000
,  // measure 2
1000
0000
0001
0001
0001
0000
1000
1000
,  // measure 3
1000
0100
0010
0001
0010
0100
1000
0010
,  // measure 4
2020
0000
0000
3030
,  // measure 5
1000
0000
1000
0000
0010
0000
0100
0000
0101
0000
0000
0101
0000
0000
0001
0000
,  // measure 6
1000
1000
0100
0010
0100
0000
1100
0000
,  // measure 7
0001
0000
0001
0000
0010
0000
0100
0000
1100
0000
0000
1100
0000
0000
1000
0000
,  // measure 8
0001
0001
1000
0010
0100
0000
0101
0000
,  // measure 9
1001
0000
0001
0000
0010
0000
0100
0000
1100
0000
0000
1100
0000
0000
1000
0000
,  // measure 10
0001
0001
0010
0100
1000
0001
0101
0000
,  // measure 11
1001
0000
0000
1001
0000
0000
0000
0000
0110
0000
0000
0010
0000
0000
0010
0000
,  // measure 12
2002
0000
0000
0000
0003
0000
0000
0000
3001
0000
0001
0000
0000
1001
0000
0000
,  // measure 13
0001
0000
0001
0000
0100
0001
0100
0001
0100
0000
0001
0000
1000
0000
0010
0100
,  // measure 14
0010
0000
1000
0000
1000
0000
0100
0010
0100
0010
0100
0010
0100
0000
0000
0000
,  // measure 15
1000
0001
0100
1000
0100
0001
1000
0000
,  // measure 16
1100
0011
2002
3003
,  // measure 17
1000
0000
1000
0000
0100
1000
0100
1000
0100
0000
1000
0000
0001
0000
0100
0010
,  // measure 18
0100
0000
0001
0000
0001
0000
0010
0100
0010
0100
0010
0100
0010
0000
0000
0000
,  // measure 19
0101
1010
0101
1010
,  // measure 20
0110
0000
1000
0100
0010
0001
0010
0100
,  // measure 21
2000
0000
3000
0002
0000
0003
0020
0000
,  // measure 22
0030
0200
0000
0300
2000
0000
3000
0020
,  // measure 23
0000
0030
0200
0000
0300
0002
0000
0003
,  // measure 24
2000
0000
3000
0002
0000
0003
2000
0000
,  // measure 25
0001
0001
0001
0001
,  // measure 26
0001
0001
0001
0001
,  // measure 27
0001
0001
0001
0001
,  // measure 28
3001
1000
0100
0000
0100
0000
1001
0000
,  // measure 29
1001
0000
0000
0001
0000
0000
0002
0000
0000
0000
0000
0000
0000
0000
0000
0000
0023
0000
0000
0000
0000
0000
0100
0000
0000
0000
0100
0000
0000
0000
0100
0000
,  // measure 30
0000
0130
2000
0000
0000
0000
0000
3001
1000
0000
0100
0000
0010
0000
0001
0000
,  // measure 31
2000
0000
0000
3002
0000
0000
0000
0000
0023
0000
0000
0100
0000
0100
0000
0100
,  // measure 32
0000
0000
0230
0000
0000
0000
0000
0000
0000
0000
0000
0000
0000
0000
0000
0000
1300
0000
0000
0010
0000
0000
0200
0000
0000
0000
0000
0000
0300
0000
0000
0000
,  // measure 33
0001
0000
0000
0010
0000
0000
0001
0000
0000
1000
0000
0000
0010
0000
0000
0000
,  // measure 34
1000
0000
0000
0100
0000
0000
0010
0000
0000
0100
0000
0000
1000
0000
0001
0000
,  // measure 35
0100
0000
0000
0010
0000
0000
1000
0000
0000
0100
0000
0000
0010
0000
0000
0000
,  // measure 36
0001
0000
0000
1000
0000
0000
0010
0000
0000
1000
0000
0000
0100
0000
0010
0000
,  // measure 37
0001
0000
0000
0100
0000
0000
1000
0000
0001
0000
0000
0010
0000
0000
1000
0000
,  // measure 38
0001
0000
0000
0100
0000
0000
1000
0000
0001
0000
0000
0010
0000
0000
1000
0000
,  // measure 39
0001
0000
0100
0001
0000
0100
0001
0000
1000
0100
0000
1000
0100
0000
1000
0000
,  // measure 40
2002
0000
3003
1001
,  // measure 41
0001
1000
0001
1000
0001
0000
1000
0000
0010
0000
0100
0000
0010
0000
1000
0000
,  // measure 42
0100
0010
0100
0010
0100
0000
1000
0000
0001
0000
0100
0000
1000
0000
0100
0000
,  // measure 43
0001
0000
0000
0011
0000
0000
0001
0000
1000
0000
0000
1100
0000
0000
1100
0000
,  // measure 44
0000
1000
0001
0000
0000
1000
0001
0000
0200
0000
0000
0010
0000
0000
0310
0000
,  // measure 45
1000
0010
1000
0010
1000
0000
0001
0000
0010
0000
0100
0000
1000
0000
0001
0000
,  // measure 46
0100
0010
0100
0010
0100
0000
0001
0000
1000
0000
0010
0000
0001
0000
0010
0000
,  // measure 47
1000
0000
0000
1010
0000
0000
1000
0000
0001
0000
0000
0101
0000
0000
0101
0000
,  // measure 48
0000
0001
1000
0000
0000
0001
1000
0000
0020
0000
0000
0000
0000
0000
0000
0000
,  // measure 49
1030
0001
1000
0001
1000
0000
0100
0000
1000
0100
1000
0100
1000
0000
0001
0000
,  // measure 50
0100
0001
0100
0001
0100
0000
0001
0000
1000
0000
0100
0010
0000
0100
0010
0000
,  // measure 51
0001
0000
0000
0101
0000
0000
0001
0000
1000
0000
0000
1010
0000
0000
1010
0000
,  // measure 52
0000
1000
0001
0000
0000
1000
0001
0000
0200
0000
0000
0010
0000
0000
0310
0000
,  // measure 53
1000
0001
1000
0001
1000
0000
0001
0000
0100
0001
0100
0001
0100
0000
0001
0000
,  // measure 54
1000
0100
1000
0100
1000
0000
0001
0000
0010
0000
0100
1000
0000
0100
1000
0000
,  // measure 55
0001
0000
0010
0001
0000
0010
0001
0000
0010
0001
0000
0010
0001
0000
1000
0000
,  // measure 56
0001
0000
1000
0010
1000
0000
0001
0100
0001
0000
1000
0001
1000
0001
0100
0000
,  // measure 57
0220
0000
0000
0000
,  // measure 58
0000
0000
0000
0000
,  // measure 59
0000
0000
0000
0330
;

//---------------dance-single - ----------------
#NOTES:
     dance-single:
     :
     Challenge:
     15:
     0.814,0.866,0.362,0.247,0.956:
1100
0000
0000
0000
1000
0000
1000
0000
1001
0000
0000
1000
0001
0000
0001
0000
,
0011
0000
0000
0010
0100
0000
0100
0000
0100
1000
0000
1000
0001
0000
1000
0001
,
1000
0000
0010
0100
0010
0100
0010
0100
0010
0100
0010
0100
0001
1000
0001
1000
,
0002
0000
0000
0003
,
1001
0000
1000
0000
1100
0000
0000
0000
1000
0000
0010
0100
0000
0100
0010
0000
,
0101
0001
1001
0000
0110
0000
0100
0000
,
1001
0000
0001
0000
0011
0000
0000
0000
0001
0000
0010
0100
0000
0100
0010
0000
,
1001
0000
1000
0000
1100
0000
0010
0100
0010
0000
0000
0000
0110
0000
0000
0000
,
1001
0000
1000
0000
1100
0000
0100
0000
0010
0000
0001
1000
0000
1000
0001
0010
,
0100
0010
0110
0100
0001
1000
1100
0000
,
1000
0001
1000
0001
0100
0000
0010
0100
0010
0000
0100
0010
0000
0100
0010
0000
,
1001
0000
0000
0100
0000
0000
0010
0000
0011
0000
0011
0000
0000
0001
1000
0001
,
1000
0100
1000
0100
0000
0010
0100
0010
0100
0000
1000
0000
0001
0000
0100
0000
,
0001
0100
0001
0100
0000
0010
0100
0010
0100
0000
0001
1000
0001
0000
0000
0000
,
1000
0000
0100
1000
0100
1000
0001
0000
0100
0000
0100
0000
0100
0000
0001
0000
,
0011
0000
0010
0100
1000
0001
0100
0000
,
0001
0010
0001
0010
0000
0100
0010
0100
0010
0000
0001
0000
0010
0000
0100
0000
,
1000
0010
1000
0010
0000
0100
0010
0100
0010
0000
1000
0001
1000
0000
0100
1000
,
0100
0000
0010
0001
0010
0000
0001
1000
0001
0000
0100
0010
0100
0010
0100
0010
,
0100
0000
0001
0000
0010
0000
0100
0000
1000
0001
1000
0001
1000
0001
1000
0000
,
0001
0100
0001
0200
0000
0000
0301
0100
0001
0200
0000
0000
0301
1000
0001
2000
,
0000
3000
0001
1000
0001
2000
0000
0000
3100
0010
0100
0020
0000
0000
0031
1000
,
0001
2000
0000
0000
3010
0100
0010
0200
0000
0000
0301
1000
0001
2000
0000
0000
,
3100
0010
0100
0020
0000
0000
0031
1000
0001
2000
0000
0000
3002
0000
0000
0000
,
1003
0100
1000
0100
1000
0100
1000
0100
,
1000
0001
1000
0001
1000
0001
1000
0001
,
0100
0001
0100
0001
0100
0001
0100
0001
,
0100
0010
0200
0000
0010
0000
0310
0000
0000
0000
1000
0000
1001
0000
0000
0000
,
1100
0000
0000
0200
0000
0000
2000
0000
0000
0000
0000
0000
3300
0000
0000
0000
0020
0000
0000
0000
0000
0000
0001
0000
0000
0000
0001
0000
0000
0000
0001
0000
,
0000
0031
0200
0000
0000
0000
0000
0301
1000
0001
1000
0100
1000
0100
0010
0001
,
0200
0000
0000
0002
0000
0000
0303
0000
0020
0000
0000
1000
0000
1000
0000
1000
,
0000
0000
1030
0000
0000
0000
0002
0000
0000
0000
0000
0000
0000
0000
0000
0000
1003
0000
0000
0100
0000
0000
0010
0000
0000
0001
0000
0000
1000
0000
0000
0000
,
1001
0000
0000
0001
0000
0000
0101
0000
0000
0001
0000
0000
0100
0000
0001
0000
,
1000
0000
0000
1000
0000
0000
1100
0000
0000
0100
1000
0000
0001
0000
0010
0000
,
0100
0000
0000
0100
0000
0000
0110
0000
0000
0010
0000
0000
0100
0000
0001
0000
,
1000
0000
0000
1000
0000
0000
1100
0000
0000
0100
0010
0000
0001
0000
1000
0000
,
0001
0000
0000
0100
0000
0000
1000
0000
0001
0000
0000
0010
0000
0000
1000
0000
,
0001
0000
0000
0100
0000
0000
1000
0000
0001
0000
0000
0010
0000
0000
1000
0001
,
1000
0000
0100
1000
0000
1000
0010
0000
0100
0001
0000
0001
0010
0000
0001
0000
,
2002
0000
3003
1001
,
1000
0100
1000
0100
1000
0010
0100
0000
0001
1000
0001
0000
0001
0100
0001
0000
,
0010
0100
0010
0100
0010
0001
0100
0000
1000
0000
1000
0001
0000
0001
1000
0000
,
1001
0000
0001
0100
0000
0100
0010
0000
0010
1000
0000
1000
0100
0000
1100
0000
,
0000
1000
0001
0100
0000
0100
0001
1000
0100
0000
0010
0100
0000
0100
0010
0000
,
0001
0100
0001
0100
0001
0010
0100
0000
1000
0001
1000
0000
1000
0100
1000
0000
,
0010
0100
0010
0100
0010
0100
0001
0000
1000
0000
1000
0100
0000
0100
1000
0000
,
1001
0000
0001
0100
0000
0100
0010
0000
0010
1000
0000
1000
0010
0000
0110
0000
,
0000
0100
1000
0010
0000
0010
1000
0100
0010
0001
0010
0001
0020
0000
0000
0000
,
0130
1000
0010
0100
0010
1000
0100
0000
1000
0100
1000
0100
0010
0001
0010
0000
,
0001
1000
0010
1000
0010
1000
0001
0000
1001
0000
0001
0100
0000
0100
0010
0000
,
0110
0000
0100
1000
0000
1000
0100
0000
0100
0010
0000
0010
0100
0000
0110
0000
,
0000
0100
0001
0010
0000
0010
0100
1000
0010
0000
0100
0010
0000
0010
0100
0000
,
0001
0010
0001
1000
0010
1000
0001
0000
0010
0100
0010
0100
1000
0010
1000
0000
,
0100
1000
0001
0100
0001
1000
0100
0000
1000
0000
1000
0010
0100
0000
0010
0100
,
0001
0000
1000
0001
1000
0001
1000
0001
1000
0001
1000
0001
1000
0001
1000
0001
,
1000
0100
1000
0100
0010
0001
0010
0001
0100
0010
1000
0001
0000
0001
1000
0000
,
1200
2000
0000
0000
,
0000
0000
0000
0000
,
0000
0000
0000
3300
;

//---------------dance-single - ----------------
#NOTES:
     dance-single:
     :
     Beginner:
     2:
     0.107,0.186,0.152,0.000,0.000:
0001
0000
0000
0000
,
1000
0000
0000
0000
,
0001
0000
0000
0000
,
1001
0000
0000
0000
,
1001
0000
1000
0000
,
1000
0000
1001
0000
,
0001
0000
0001
0000
,
1000
0000
1000
0000
,
0110
0000
0010
0000
,
0010
0000
0100
0000
,
0110
0000
0110
0000
,
0010
0000
0000
0000
,
1001
0000
0000
0000
,
1000
0000
0000
0000
,
0100
0000
0000
0000
,
0010
0000
0000
0000
,
1001
0000
0000
0000
,
0001
0000
0000
0000
,
0010
0000
0100
0000
,
0010
0000
0000
0000
,
0110
0000
0000
0000
,
0000
0000
0000
0000
,
0000
0000
0000
0000
,
0000
0000
0000
0000
,
1000
0000
0000
0000
,
0100
0000
0000
0000
,
0010
0000
0000
0000
,
0001
0000
0000
0000
,
1001
0000
0000
0000
,
0000
0000
0000
0000
,
1000
0000
0000
0000
,
0001
0000
0000
0000
,
1001
0000
0000
0000
,
1000
0000
0000
0000
,
1000
0000
0000
0000
,
1000
0000
0000
0000
,
0100
0000
0000
0000
,
0010
0000
0000
0000
,
0100
0000
0000
0000
,
0110
0000
0000
0000
,
0001
0000
0000
0000
,
0010
0000
0000
0000
,
0100
0000
0000
0000
,
0100
0000
0000
0000
,
0110
0000
0000
0000
,
0010
0000
0000
0000
,
1000
0000
0000
0000
,
1000
0000
0000
0000
,
1001
0000
0000
0000
,
1000
0000
0000
0000
,
0010
0000
0000
0000
,
0100
0000
0000
0000
,
0110
0000
0010
0000
,
0100
0000
0010
0000
,
0100
0000
0000
0000
,
0010
0000
0000
0000
,
1001
0000
0000
0000
;
