#TITLE:PULSE LASER;
#SUBTITLE:;
#ARTIST:ヒゲドライバー;
#TITLETRANSLIT:;
#SUBTITLETRANSLIT:;
#ARTISTTRANSLIT:HIGE DRIVER;
#GENRE:;
#CREDIT:DigiMindAxel;
#BANNER:PULSE LASER.png;
#BACKGROUND:PULSE LASER-bg.png;
#LYRICSPATH:;
#CDTITLE:SOUND VOLTEX.png;
#MUSIC:PULSE LASER.mp3;
#METERTYPE:DDR X;
#OFFSET:-10.245;
#SAMPLESTART:39.324;
#SAMPLELENGTH:12.000;
#SELECTABLE:YES;
#BPMS:0.000=165.000
;
#STOPS:
;
#BGCHANGES:;
#KEYSOUNDS:;
#ATTACKS:;

//---------------dance-single - ----------------
#NOTES:
     dance-single:
     :
     Easy:
     5:
     0.279,0.243,0.275,0.078,0.000,163.000,28.000,8.000,0.000,0.000,0.000,0.279,0.243,0.275,0.078,0.000,163.000,28.000,8.000,0.000,0.000,0.000: // measure 0
0001
0000
1000
0000
,  // measure 1
0001
0000
0000
0000
,  // measure 2
0010
0000
0001
0000
,  // measure 3
0020
0000
0000
0000
,  // measure 4
0130
1000
0100
0000
,  // measure 5
2000
0000
3001
1000
,  // measure 6
0001
0100
0001
0000
,  // measure 7
0020
0000
0130
1000
,  // measure 8
0100
0010
0100
0000
,  // measure 9
2000
0000
3001
0100
,  // measure 10
0001
1000
0100
0000
,  // measure 11
1000
0001
1000
0001
,  // measure 12
1001
0000
1001
0000
,  // measure 13
1001
0000
0001
1000
,  // measure 14
1001
0000
1001
0000
,  // measure 15
1001
0000
1000
0001
,  // measure 16
1001
0000
1001
0000
,  // measure 17
1001
0000
0010
0100
,  // measure 18
0020
0000
0000
0000
,  // measure 19
0130
0000
0000
0000
,  // measure 20
0110
0000
0100
0010
,  // measure 21
1000
0000
0100
0010
,  // measure 22
0001
0000
1000
0001
,  // measure 23
1000
0100
1000
0100
,  // measure 24
1000
0000
0010
0100
,  // measure 25
0001
0000
0010
0001
,  // measure 26
0010
0000
0100
0000
,  // measure 27
1000
0001
1000
0000
,  // measure 28
1001
0000
1001
0000
,  // measure 29
0010
0100
0001
1000
,  // measure 30
1001
0000
1001
0000
,  // measure 31
0100
0010
1000
0001
,  // measure 32
1001
0000
1001
0000
,  // measure 33
0010
0100
1000
0001
,  // measure 34
1001
0000
1001
0000
,  // measure 35
0100
0010
0001
1000
,  // measure 36
1001
0000
0000
0000
,  // measure 37
0000
0000
0000
0000
,  // measure 38
0000
0000
0000
0000
,  // measure 39
0000
0000
0000
0000
,  // measure 40
0001
1000
0001
1000
,  // measure 41
0001
1000
0001
1000
,  // measure 42
0001
1000
0001
1000
,  // measure 43
0010
0010
0010
0010
,  // measure 44
0110
0000
0100
0010
,  // measure 45
1000
0000
0100
0010
,  // measure 46
0001
0000
0010
0001
,  // measure 47
0100
0010
0100
0010
,  // measure 48
0100
0000
0001
0010
,  // measure 49
0100
0000
1000
0010
,  // measure 50
0200
0000
0001
0000
,  // measure 51
0301
0010
0100
0000
,  // measure 52
1001
0000
1001
0000
,  // measure 53
1000
0010
0100
0001
,  // measure 54
1001
0000
1001
0000
,  // measure 55
0001
0010
0100
1000
,  // measure 56
1001
0000
1001
0000
,  // measure 57
1000
0100
0010
0001
,  // measure 58
1001
0000
1001
0000
,  // measure 59
0001
0100
0010
1000
,  // measure 60
0002
0000
0000
0000
,  // measure 61
2003
0000
0000
0000
,  // measure 62
3000
0000
0000
0000
;

//---------------dance-single - ----------------
#NOTES:
     dance-single:
     :
     Medium:
     8:
     0.471,0.456,0.245,0.353,0.000,275.000,25.000,36.000,0.000,0.000,0.000,0.471,0.456,0.245,0.353,0.000,275.000,25.000,36.000,0.000,0.000,0.000: // measure 0
1000
0100
0010
0100
,  // measure 1
1000
0010
0100
0001
,  // measure 2
0010
0100
1000
0001
,  // measure 3
0100
0100
0100
0100
,  // measure 4
0110
0000
0001
0100
0001
0000
0100
0000
,  // measure 5
0010
0000
1000
0000
0001
1000
0001
1000
,  // measure 6
0001
0000
1000
0100
1000
0000
0100
0000
,  // measure 7
0010
0000
0001
0000
1000
0001
1000
0001
,  // measure 8
1000
0000
0010
1000
0010
0000
0100
0000
,  // measure 9
0001
0000
0010
0000
0100
0010
0100
0010
,  // measure 10
0100
1000
0010
0100
,  // measure 11
0001
0010
0100
1000
,  // measure 12
1200
1300
0020
0130
,  // measure 13
2000
0000
3100
0000
0010
0001
0100
0000
,  // measure 14
0020
0130
0002
0103
,  // measure 15
0020
0000
0130
0000
0001
1000
0100
1000
,  // measure 16
0002
0013
0200
0310
,  // measure 17
0002
0000
0013
0000
0100
1000
0010
0000
,  // measure 18
0200
0000
0320
0000
,  // measure 19
0230
0000
0000
0000
0020
0000
0000
0330
,  // measure 20
0000
0110
0000
0010
0100
1000
0100
0000
,  // measure 21
0000
0110
0000
0100
0010
0001
0010
0000
,  // measure 22
0000
0110
0000
0010
1000
0100
1000
0000
,  // measure 23
0010
0100
0001
1000
,  // measure 24
0000
0110
0000
0100
0001
0010
0001
0000
,  // measure 25
0000
0110
0000
0010
1000
0100
0010
0000
,  // measure 26
0001
0100
0010
0100
,  // measure 27
0001
1000
0100
1000
0001
0000
0001
0000
,  // measure 28
0101
0100
0110
0010
,  // measure 29
1010
0000
1000
0000
0010
0100
0010
0000
,  // measure 30
1100
0100
0110
0010
,  // measure 31
0011
0000
0001
0000
0010
0100
0010
0000
,  // measure 32
0011
0010
0110
0100
,  // measure 33
1100
0000
1000
0000
0100
0010
0100
0000
,  // measure 34
1010
0010
0110
0100
,  // measure 35
0101
0000
0001
0000
0100
0010
0100
0000
,  // measure 36
2002
0000
0000
0000
,  // measure 37
0000
0000
3003
0200
,  // measure 38
0000
0000
0000
0300
,  // measure 39
0020
0000
0000
0000
,  // measure 40
1030
0000
1000
0000
1000
0000
0001
0001
,  // measure 41
0001
0000
0001
0000
0001
0000
1000
1000
,  // measure 42
1000
0100
0010
0001
,  // measure 43
0100
0010
0100
0010
0100
0010
0100
0000
,  // measure 44
0110
0000
0010
0000
1000
0100
0010
0100
,  // measure 45
1000
0001
1000
0000
0100
0010
0001
0010
,  // measure 46
0100
1000
0100
0000
1000
0010
0100
0000
,  // measure 47
0001
1000
0001
1000
0001
0010
0100
1000
,  // measure 48
0001
0100
0001
0000
1000
0010
0100
0010
,  // measure 49
1000
0001
1000
0000
0100
0010
0001
0010
,  // measure 50
0100
1000
0001
1000
,  // measure 51
0001
0010
0100
1000
0001
0000
0000
0000
,  // measure 52
0201
0301
2000
3100
,  // measure 53
0020
0130
2000
3100
,  // measure 54
1200
1300
0002
0103
,  // measure 55
0020
0130
0002
0103
,  // measure 56
1002
1003
0200
1300
,  // measure 57
0002
0103
0020
0130
,  // measure 58
2001
3001
0200
0301
,  // measure 59
2000
3200
0320
0230
,  // measure 60
1300
0100
0001
0100
,  // measure 61
2000
0000
0000
0000
,  // measure 62
3000
0000
0000
0000
;

//---------------dance-single - ----------------
#NOTES:
     dance-single:
     :
     Hard:
     11:
     0.612,0.577,0.265,0.206,0.211,389.000,27.000,21.000,0.000,0.000,0.000,0.612,0.577,0.265,0.206,0.211,389.000,27.000,21.000,0.000,0.000,0.000: // measure 0
0001
0000
0000
0001
0000
0000
0000
0000
0100
0000
0000
0010
0000
0000
1000
0000
,  // measure 1
0000
0100
0000
0000
0100
0000
1000
0000
0001
0000
0010
0000
0001
0000
0000
0000
,  // measure 2
1000
0000
0000
1000
0000
0000
0000
0000
0100
0000
0000
0010
0000
0000
0001
0000
,  // measure 3
0100
0010
0100
0001
1000
0100
1000
0000
,  // measure 4
1001
0000
0000
0000
1000
0000
0100
1000
0000
0000
0010
0000
0010
0000
0100
0000
,  // measure 5
0001
0000
0000
0001
0000
0000
0001
0000
1000
0000
0100
0000
0010
0000
0100
0000
,  // measure 6
0000
0000
1000
0000
0001
0000
0100
0001
0000
0000
0010
0000
0010
0000
0100
0000
,  // measure 7
1000
0000
0000
1000
0000
0000
1000
0000
0001
0000
0100
0000
0010
0000
0100
0000
,  // measure 8
0000
0000
0001
0000
1000
0000
0010
1000
0000
0000
0001
0000
0001
0000
0010
0000
,  // measure 9
0100
0000
0000
0100
0000
0000
0100
0000
1000
0000
0010
0000
0100
0000
0010
0000
,  // measure 10
2000
0001
3200
0010
,  // measure 11
0310
0001
1000
0100
,  // measure 12
1100
0000
0000
1100
0000
0000
0010
0000
0110
0000
0000
0110
0000
0000
0001
0000
,  // measure 13
0011
0000
0000
0011
0000
0000
0001
0000
1000
0000
0100
0000
0010
0000
0000
0000
,  // measure 14
0101
0000
0000
0101
0000
0000
0010
0000
0110
0000
0000
0110
0000
0000
1000
0000
,  // measure 15
1010
0000
0000
1010
0000
0000
1000
0000
0001
0000
0010
0000
0100
0000
0010
0000
,  // measure 16
0011
0000
0000
0011
0000
0000
1000
0000
1010
0000
0000
1010
0000
0000
0001
0000
,  // measure 17
1001
0000
0000
1001
0000
0000
0001
0000
1000
0000
0010
0000
0100
0000
0010
0000
,  // measure 18
1000
0000
0000
1000
0000
0000
1000
0000
0100
0000
0000
0100
0000
0000
0100
0000
,  // measure 19
0020
0032
0203
0310
,  // measure 20
1001
0001
0100
0001
0010
0100
0010
0001
,  // measure 21
1000
0010
0100
1000
0100
0010
1000
0001
,  // measure 22
1000
0100
0010
1000
0010
0100
1000
0001
,  // measure 23
0100
0100
0010
0010
1000
0100
0001
0100
,  // measure 24
0000
1000
0001
0010
0100
0010
0001
1000
,  // measure 25
0100
1000
0010
0100
0010
1000
0100
0010
,  // measure 26
0002
0000
1000
0000
0100
0000
1003
0001
,  // measure 27
0100
1000
0100
0001
1000
0000
1000
0000
,  // measure 28
0110
0000
0000
0100
0000
0000
0100
0000
0001
0000
0000
0001
0000
0000
0001
0000
,  // measure 29
0000
0010
0000
0000
0100
0000
1000
0000
0100
0000
0001
0000
0100
0000
1000
0000
,  // measure 30
0001
0000
0000
0001
0000
0000
0001
0000
0010
0000
0000
0010
0000
0000
0010
0000
,  // measure 31
0001
1000
0010
0001
0010
1000
0001
0000
,  // measure 32
0010
0000
0000
0010
0000
0000
0010
0000
0100
0000
0000
0100
0000
0000
0100
0000
,  // measure 33
0000
1000
0000
0000
0001
0000
1000
0000
0100
0000
0001
0000
0100
0000
1000
0000
,  // measure 34
0010
0000
0000
0010
0000
0000
0010
0000
0100
0000
0000
0100
0000
0000
0100
0000
,  // measure 35
0001
0010
0100
1000
0001
0010
0100
1000
,  // measure 36
1002
0000
2003
0000
,  // measure 37
3002
0000
0023
0000
,  // measure 38
0230
0000
2300
0000
,  // measure 39
3001
0010
0100
1000
,  // measure 40
1001
0000
0001
0000
1001
0000
1000
1000
,  // measure 41
1001
0000
0001
0000
1001
0000
0001
0001
,  // measure 42
0001
1000
0001
1000
0001
1000
0001
1000
,  // measure 43
0100
0010
0001
0010
0100
1000
0001
0000
,  // measure 44
0110
0010
1000
0010
0100
1000
0100
0010
,  // measure 45
1000
0001
1000
0100
0010
1000
0010
0100
,  // measure 46
1000
0001
1000
0010
0001
0010
1000
0001
,  // measure 47
0100
0100
0001
0001
1000
0100
0010
0001
,  // measure 48
1000
0010
1000
0001
0100
1000
0100
0001
,  // measure 49
1000
0100
1000
0001
0010
1000
0010
0001
,  // measure 50
2000
0000
0001
0000
0100
0000
3001
1000
,  // measure 51
0001
0100
1000
0100
0001
0000
0001
0000
,  // measure 52
0200
0000
0000
0010
0000
0000
0310
0000
2000
0000
0000
0100
0000
0000
3100
0000
,  // measure 53
0000
0010
0000
0000
0001
0000
1000
0000
0010
0000
1000
0000
0001
0000
0000
0000
,  // measure 54
0200
0000
0000
0001
0000
0000
0301
0000
2000
0000
0000
0100
0000
0000
3100
0000
,  // measure 55
0000
1000
0010
0000
0100
0000
0000
0000
0001
0000
0010
0000
0100
0000
1000
0000
,  // measure 56
0020
0000
0000
0100
0000
0000
0130
0000
0002
0000
0000
0010
0000
0000
0013
0000
,  // measure 57
0000
0100
0000
0000
1000
0000
0001
0000
0010
0000
0100
0000
0010
0000
0000
0000
,  // measure 58
0002
0000
0000
1000
0000
0000
1003
0000
0020
0000
0000
1000
0000
0000
1030
0000
,  // measure 59
0001
0010
0100
1000
0100
0010
0001
1000
,  // measure 60
0001
0010
1000
0010
0001
0100
1000
0100
,  // measure 61
0000
0001
0000
0001
0000
0001
0000
0001
;

//---------------dance-single - ----------------
#NOTES:
     dance-single:
     :
     Challenge:
     13:
     0.757,0.668,0.520,0.383,0.397,448.000,53.000,39.000,0.000,0.000,0.000,0.757,0.668,0.520,0.383,0.397,448.000,53.000,39.000,0.000,0.000,0.000: // measure 0
1000
0100
0000
1000
0000
0000
0002
0000
0100
0000
0000
0100
0000
0000
0103
0000
,  // measure 1
0000
0010
0100
0000
0001
0000
1000
0000
0001
0000
0100
0000
1000
0000
0100
0000
,  // measure 2
0001
0100
0000
0001
0000
0000
2000
0000
0100
0000
0000
0100
0000
0000
3100
0000
,  // measure 3
1000
0001
0100
1000
0100
0001
1000
0001
,  // measure 4
1001
0000
1000
0000
0100
0000
1000
0002
0000
0000
0100
0000
0103
0000
0001
0000
,  // measure 5
1001
0000
0000
1001
0000
0000
1000
0000
0100
0000
0001
0000
0100
0000
1000
0000
,  // measure 6
0000
0000
0001
0000
0100
0000
0001
2000
0000
0000
0100
0000
3100
0000
1000
0000
,  // measure 7
1001
0000
0000
1001
0000
0000
0001
0000
0010
0000
1000
0000
0010
0000
0001
0000
,  // measure 8
0000
0000
0100
0000
0010
0000
0100
0002
0000
0000
1000
0000
1003
0000
0010
0000
,  // measure 9
0110
0000
0000
0110
0000
0000
1000
0000
0100
0000
0001
0000
0100
0000
1000
0000
,  // measure 10
0002
0000
0100
0103
0020
0000
1000
0000
,  // measure 11
1030
0001
0010
0100
1000
0001
0010
0100
,  // measure 12
0110
0000
0000
0110
0000
0000
1000
0000
1100
0000
0000
1100
0000
0000
0001
0000
,  // measure 13
0101
0000
0000
0101
0000
0000
1000
0000
1100
0000
0100
0000
0110
0000
0000
0000
,  // measure 14
0110
0000
0000
0110
0000
0000
0001
0000
0011
0000
0000
0011
0000
0000
1000
0000
,  // measure 15
1010
0000
0000
1010
0000
0000
0001
0000
0011
0000
0010
0000
0110
0000
0100
0000
,  // measure 16
1100
0000
0000
1100
0000
0000
0010
0000
0110
0000
0000
0110
0000
0000
0001
0000
,  // measure 17
0011
0000
0000
0011
0000
0000
0001
0000
1001
0000
1000
0000
1100
0000
0000
0000
,  // measure 18
0002
0000
0000
0010
0000
0000
0013
0000
0200
0000
0000
1000
0000
0000
1300
0000
,  // measure 19
0002
0203
0320
0130
,  // measure 20
1001
0000
1000
0000
0001
0000
0010
0000
0100
0000
0010
0001
0000
0001
0100
0000
,  // measure 21
0010
0000
1000
0000
0100
0000
0010
0000
0100
0000
1000
0010
0000
0010
0100
0000
,  // measure 22
0001
0000
1000
0000
0010
0000
0100
0000
0010
0000
1000
0100
0000
0100
0010
0000
,  // measure 23
0001
0100
1000
0100
0001
0010
1000
0010
,  // measure 24
0000
0000
0001
0000
1000
0000
0010
0000
0100
0000
0010
1000
0000
1000
0100
0000
,  // measure 25
0010
0000
0001
0000
1000
0000
0010
0000
1000
0001
0000
0001
0010
0000
0100
0000
,  // measure 26
0010
0001
0010
0001
1000
0010
1000
0010
,  // measure 27
1000
0100
0001
0100
1000
0000
0010
0000
,  // measure 28
0120
0000
0000
0100
0000
0000
0130
0000
0002
0000
0000
0100
0000
0000
0103
0000
,  // measure 29
0000
0110
0000
0000
1100
0000
1000
0000
0001
0000
0100
0000
1000
0000
0100
0000
,  // measure 30
0001
1000
0000
0100
0000
0000
2000
0000
0001
0000
0000
0001
0000
0000
3001
0000
,  // measure 31
0100
0001
0000
1000
0000
0000
0001
0000
0010
0000
0100
0000
1000
0000
0001
0000
,  // measure 32
0200
0000
0000
0010
0000
0000
0310
0000
2000
0000
0000
0010
0000
0000
3010
0000
,  // measure 33
0000
0110
0000
0000
0011
0000
0001
0000
1000
0000
0010
0000
0001
0000
0010
0000
,  // measure 34
1000
0001
0000
0100
0000
0000
0020
0000
0100
0000
0000
0100
0000
0000
0130
0000
,  // measure 35
0001
0010
1000
0010
0001
0100
1000
0100
,  // measure 36
0002
1000
0000
1003
0020
0000
0230
0000
,  // measure 37
0320
0100
0000
0130
0002
0000
2003
0000
,  // measure 38
3002
1000
0000
1003
0020
0000
0230
0000
,  // measure 39
0301
0010
0100
1000
0001
0010
0100
1000
,  // measure 40
1100
0000
1100
0000
1001
0000
0110
0100
,  // measure 41
0101
0000
0101
0000
1001
0000
0110
0010
,  // measure 42
1010
1000
0001
0001
1000
1000
0001
0001
,  // measure 43
0010
0001
0010
0001
0100
0010
0100
0010
1000
0100
1000
0100
1000
0000
0000
0000
,  // measure 44
1001
0000
1000
0000
0100
0000
0001
0000
0100
0000
1000
0010
0000
0010
0100
0000
,  // measure 45
0001
0000
1000
0000
0010
0000
0001
0000
0010
0000
1000
0001
0000
0001
0010
0000
,  // measure 46
0001
0000
1000
0000
0100
0000
0001
0000
0100
0000
1000
0010
0000
0010
0100
0000
,  // measure 47
0001
0001
0010
0010
0100
0100
1000
1000
,  // measure 48
0001
0000
1000
0000
0010
0000
0001
0000
0010
0000
1000
0001
0000
0001
0100
0000
,  // measure 49
0001
0000
1000
0000
0100
0000
1000
0000
0001
0100
0000
0100
0010
0000
0100
0000
,  // measure 50
0001
1000
0001
1000
0001
1000
0001
0010
,  // measure 51
1000
0010
0001
1000
1010
0000
0010
0000
,  // measure 52
0210
0000
0000
0010
0000
0000
0310
0000
2000
0000
0000
0100
0000
0000
3100
0000
,  // measure 53
0000
0110
0000
0000
0011
0000
0001
0000
1000
0000
0010
0000
0100
0000
0001
0000
,  // measure 54
1000
0100
0000
2000
0000
0000
3001
0000
0200
0000
0000
0010
0000
0000
0310
0000
,  // measure 55
0000
1000
0001
0000
0010
0000
1000
0000
0010
0000
0001
0000
1000
0000
0100
0000
,  // measure 56
0020
0000
0000
0001
0000
0000
0031
0000
0200
0000
0000
0010
0000
0000
0310
0000
,  // measure 57
0000
0110
0000
0000
1100
0000
1000
0000
0001
0000
0010
0000
0100
0000
1000
0000
,  // measure 58
0001
0100
0000
0002
0000
0000
2003
0000
0100
0000
0000
0100
0000
0000
3100
0000
,  // measure 59
1000
0001
0010
0100
0001
0100
1000
0001
,  // measure 60
1000
0010
0100
1000
0100
0001
1000
0001
,  // measure 61
0000
0000
2000
3100
0000
0000
2000
3100
0000
0000
2000
3100
0000
0000
2000
3100
;

//---------------dance-single - ----------------
#NOTES:
     dance-single:
     :
     Beginner:
     2:
     0.119,0.149,0.108,0.000,0.000,74.000,11.000,0.000,0.000,0.000,0.000,0.119,0.149,0.108,0.000,0.000,74.000,11.000,0.000,0.000,0.000,0.000: // measure 0
1000
0000
0000
0000
,  // measure 1
0001
0000
0000
0000
,  // measure 2
1000
0000
0000
0000
,  // measure 3
0001
0000
0000
0000
,  // measure 4
1001
0000
0000
0000
,  // measure 5
0100
0000
0000
0000
,  // measure 6
0010
0000
0000
0000
,  // measure 7
0100
0000
0000
0000
,  // measure 8
0010
0000
0000
0000
,  // measure 9
0100
0000
0000
0000
,  // measure 10
0010
0000
0000
0000
,  // measure 11
0000
0000
0000
0000
,  // measure 12
1001
0000
0001
0000
,  // measure 13
1000
0000
0000
0000
,  // measure 14
1001
0000
1000
0000
,  // measure 15
0001
0000
0000
0000
,  // measure 16
1001
0000
0001
0000
,  // measure 17
1000
0000
0000
0000
,  // measure 18
0001
0000
0000
0000
,  // measure 19
0000
0000
0000
0000
,  // measure 20
1001
0000
1000
0000
,  // measure 21
0001
0000
1000
0000
,  // measure 22
0001
0000
1000
0000
,  // measure 23
0001
0000
0010
0000
,  // measure 24
0100
0000
0010
0000
,  // measure 25
0100
0000
0010
0000
,  // measure 26
0100
0000
0000
0000
,  // measure 27
1000
0000
0000
0000
,  // measure 28
1001
0000
0000
0000
,  // measure 29
0001
0000
0000
0000
,  // measure 30
1000
0000
0000
0000
,  // measure 31
0001
0000
0000
0000
,  // measure 32
1000
0000
0000
0000
,  // measure 33
0001
0000
0000
0000
,  // measure 34
0100
0000
0000
0000
,  // measure 35
0010
0000
0000
0000
,  // measure 36
0110
0000
0000
0000
,  // measure 37
0000
0000
0000
0000
,  // measure 38
0000
0000
0000
0000
,  // measure 39
0000
0000
0000
0000
,  // measure 40
0100
0000
0000
0000
,  // measure 41
0100
0000
0000
0000
,  // measure 42
0100
0000
0000
0000
,  // measure 43
0100
0000
0000
0000
,  // measure 44
0110
0000
0000
0000
,  // measure 45
0001
0000
0000
0000
,  // measure 46
1000
0000
0000
0000
,  // measure 47
0001
0000
0000
0000
,  // measure 48
1001
0000
1000
0000
,  // measure 49
0001
0000
0000
0000
,  // measure 50
1001
0000
0001
0000
,  // measure 51
1000
0000
0000
0000
,  // measure 52
1001
0000
0001
0000
,  // measure 53
1000
0000
0001
0000
,  // measure 54
1000
0000
0001
0000
,  // measure 55
1000
0000
0001
0000
,  // measure 56
1000
0000
0100
0000
,  // measure 57
0010
0000
0000
0000
,  // measure 58
0001
0000
0010
0000
,  // measure 59
0100
0000
0000
0000
,  // measure 60
0100
0000
0000
0010
;
