#TITLE:ポップミュージック論;
#SUBTITLE:;
#ARTIST:ギラギラメガネ団;
#TITLETRANSLIT:POP MUSIC RON;
#SUBTITLETRANSLIT:;
#ARTISTTRANSLIT:GYRAGYRA MEGANE DAN;
#CREDIT:DigiMindAxel;
#BANNER:POP MUSIC RON.png;
#BACKGROUND:POP MUSIC RON-bg.png;
#LYRICSPATH:POP MUSIC RON.lrc;
#CDTITLE:pop'n music.png;
#MUSIC:POP MUSIC RON.mp3;
#METERTYPE:DDR X;
#OFFSET:-7.547;
#SAMPLESTART:62.659;
#SAMPLELENGTH:12.000;
#SELECTABLE:YES;
#BPMS:0.000=190.000;
#STOPS:;
#BGCHANGES:;

//---------------dance-single - ----------------
#NOTES:
     dance-single:
     :
     Easy:
     5:
     0.208,0.352,0.261,0.019,0.000:
1001
0000
1000
0000
,
1000
0000
1000
0000
,
0010
0000
0100
0000
,
0001
0000
0001
0000
,
1001
0000
0010
0000
,
0100
0000
1000
0000
,
1000
0000
1000
0000
,
0001
0000
1000
0000
,
1001
0000
0001
0000
,
0001
0000
0001
0000
,
0100
0000
0001
0000
,
0100
0000
0000
0000
,
1001
0000
0000
0000
,
1000
0000
0000
0000
,
0001
0000
0000
0000
,
1000
0000
0000
0000
,
0100
0000
0000
0000
,
0100
0000
0000
0000
,
0100
0000
1000
0000
,
0001
0000
0000
0000
,
0010
0000
0010
0000
,
0010
0000
0010
0000
,
0001
0000
0001
0000
,
0001
0000
0001
0000
,
1001
0000
0000
0000
,
1001
0000
0000
0000
,
1001
0000
0000
0000
,
1000
0000
0000
0000
,
1000
0000
0000
0000
,
0100
0000
0000
0000
,
1000
0000
0000
0000
,
0001
0000
0000
0000
,
0010
0000
0000
0000
,
0010
0000
0000
0000
,
0001
0000
1000
0000
,
0001
0000
1000
0000
,
0100
0000
1000
0000
,
0100
0000
1000
0000
,
1001
0000
1001
0000
,
1000
0000
0000
0000
,
0002
0000
0000
0000
,
2003
0000
0000
0000
,
3010
0000
0010
0000
,
0110
0000
0000
0000
,
1000
0000
0001
0000
,
1000
0000
0001
0000
,
0010
0000
0001
0000
,
0010
0000
0001
0000
,
1000
0000
1000
0000
,
0100
0000
0100
0000
,
1000
0000
0100
0000
,
0010
0000
0000
0000
,
0001
0000
1000
0000
,
0001
0000
1000
0000
,
0010
0000
0100
0000
,
0010
0000
0100
0000
,
0110
0000
0110
0000
,
1001
0000
1001
0000
,
0110
0000
0110
0000
,
0110
0000
0000
0000
,
0110
0000
0110
0000
,
1001
0000
1001
0000
,
1001
0000
0000
0000
,
0000
0000
0000
0000
,
1000
0000
0001
0000
,
1000
0000
1000
0000
,
0001
0000
0010
0000
,
0001
0000
0001
0000
,
1000
0000
0001
0000
,
1000
0000
0100
0000
,
1000
0000
0010
0000
,
0010
0000
0000
0000
,
0110
0000
0110
0000
,
1001
0000
1001
0000
,
0001
0001
1001
0000
,
1000
1000
1001
0000
;

//---------------dance-single - ----------------
#NOTES:
     dance-single:
     :
     Medium:
     8:
     0.384,0.563,0.420,0.149,0.000:
1001
0000
1001
0000
,
0110
0000
0110
0000
,
0001
1000
0001
0000
1000
0001
1000
0000
,
0010
0100
0010
0000
0100
0010
0100
0000
,
1001
0010
0100
1000
,
0001
1000
0001
0000
,
1000
0100
0010
0001
,
1000
0010
1000
0000
,
0001
0010
0100
1000
,
0010
0010
0100
0000
,
0001
1000
0100
1000
,
0010
0100
0001
0010
,
0002
0000
0000
0000
,
2003
0000
0000
0000
,
3002
0000
0000
0000
,
2003
0000
0000
0000
,
3020
0000
0000
0000
,
0230
0000
0000
0000
,
0310
0000
0010
0000
,
0110
0000
0000
0000
,
1000
0001
1000
0001
,
1000
0001
0010
0100
,
1000
0001
1000
0001
,
1000
0100
0010
0001
,
0220
0000
0000
0330
,
2002
0000
0000
3003
,
0220
0000
0000
0330
,
2002
0000
0000
3003
,
1000
0000
0010
0000
,
0100
0000
0001
0000
,
0010
0000
0100
0000
,
1000
0000
0000
0001
0000
0000
0000
0000
,
1000
0000
0100
0000
,
0010
0000
0000
0010
0000
0000
0000
0000
,
0001
1000
0001
1000
,
0001
0010
0100
1000
,
0001
1000
0001
1000
,
0100
0010
0001
1000
,
1001
1001
1001
0010
,
1001
1001
1001
0100
,
1001
0000
0011
0000
,
1010
0000
1001
0000
,
1100
0000
0101
0000
,
0001
1000
1001
0000
,
1000
0010
1000
0100
,
0010
0001
1000
0001
,
0100
0001
0010
0100
,
1001
0000
0110
0000
,
2001
0000
3001
0000
,
1000
0100
1000
0000
,
1002
0000
1003
0000
,
0001
0010
0001
0000
,
1000
0010
1000
0100
,
0010
0001
1000
0001
,
0100
0001
0010
0100
,
1001
0000
0110
0000
,
1001
0000
0001
1000
0001
0000
0001
0000
,
1001
0000
1000
0001
1000
0000
1000
0000
,
1001
0000
0001
1000
0001
0000
0001
0000
,
1001
0000
1000
0001
1000
0000
1000
0000
,
1001
0000
0001
0100
0001
0000
1000
0000
,
1001
0000
1000
0010
1000
0000
0001
0000
,
1001
0000
0000
0001
0000
0000
1001
0000
,
0000
0000
0000
0000
,
0001
0100
0001
0010
,
0100
1000
0001
0000
,
1000
0010
1000
0100
,
0010
0001
1000
0001
,
0100
0000
0100
0000
,
0010
0000
0010
0000
,
1001
0000
0110
0000
,
1001
0000
0001
1000
,
1001
0000
0000
1000
0010
0000
0000
0000
,
1001
0000
0000
0001
0100
0000
0000
0000
,
1001
0001
1001
0000
,
0100
0010
0100
0000
1001
0000
0000
0000
;

//---------------dance-single - ----------------
#NOTES:
     dance-single:
     :
     Hard:
     11:
     0.577,0.634,0.671,0.093,0.000:
1000
0001
0000
1000
0001
0010
0000
0001
,
1000
0010
0000
1000
0001
0100
0000
0001
,
1000
1100
1001
0011
,
1001
1100
1001
1001
,
1000
0001
1000
0001
1000
0000
0010
0000
,
0100
0101
1001
0000
,
0001
0010
0100
1000
0100
0010
0001
0000
,
1000
0001
0100
0000
0100
0000
1001
0000
,
0001
1000
0001
1000
0001
0000
0100
0000
,
0010
1010
1001
0000
,
1000
0010
0100
0001
0100
0010
1000
0000
,
0001
0010
0100
0010
0001
0000
1001
0000
,
1001
0000
0100
0000
,
0010
0000
0001
0000
,
0010
0000
0100
0000
,
1000
0000
0010
0000
,
0110
0000
0001
0000
,
0110
0000
1000
0000
,
0110
0001
1000
0001
,
0100
0010
0100
0000
0010
0100
0010
0000
,
1001
0000
0001
0000
1000
0001
0010
0001
,
1000
0000
0010
0000
0100
0000
0001
1000
,
0001
0000
0100
0010
1000
0000
0010
0100
,
0010
0100
0010
0000
1000
0001
1000
0000
,
2020
0000
0000
3030
,
0022
0000
0000
0033
,
2200
0000
0000
3300
,
1001
0000
0000
0011
0000
0000
0001
0000
,
1000
0100
0010
0001
,
0100
0001
1000
0000
,
0001
0010
0100
1000
,
0010
0000
1000
0001
0000
0000
0000
0000
,
1001
0010
0001
0010
,
1001
0000
0000
0010
0000
0000
1000
0000
,
0001
0100
0001
0000
0001
1000
0001
0000
,
0001
0100
0001
1000
0100
0010
0001
0000
,
1000
0010
1000
0000
1000
0001
1000
0000
,
1000
0010
1000
0001
0010
0100
1000
0000
,
1100
1100
1100
1001
,
0011
0011
0011
1001
,
1000
0001
0000
1000
0001
0000
0011
0000
,
0001
1000
0000
0001
1000
0000
1100
0000
,
0101
0000
0101
0000
0001
1000
0001
0000
,
1000
0010
0100
0001
1000
0000
0000
0000
,
1000
0100
1000
0000
1000
0100
1000
0001
,
0100
0010
1000
0000
0001
0010
0001
0000
,
0001
0010
0001
1000
0010
0100
0001
0000
,
0100
0001
1000
0000
0010
1000
0001
0000
,
1001
0000
1000
0000
0100
0000
1000
0001
,
0010
0000
0001
0000
0010
0000
0001
1000
,
0100
0100
1000
0001
,
1001
0110
1001
0000
,
0001
0010
0001
1000
0010
0100
0001
0000
,
0101
0000
0100
0001
1000
0000
0001
0000
,
1000
0100
1000
0001
0100
0010
1000
0000
,
1010
0000
0001
0000
1000
0010
0100
0000
,
1001
1100
1001
1100
,
1001
0101
1001
0101
,
1001
1010
1001
1010
,
1001
0000
0000
1001
0000
0000
0011
0000
,
1001
0000
1000
0010
0100
0010
1000
0000
,
1001
0000
0001
0100
0010
0100
0001
0000
,
1001
0000
0000
1010
0000
0000
2002
0000
,
0000
0000
3003
0000
,
1000
0100
0010
0001
0020
0000
0130
0000
,
1000
0110
0101
0000
,
0001
0010
0100
1000
0100
0010
0001
0000
,
1000
0001
0100
0000
0100
0000
1001
0000
,
0001
0100
0010
1000
0020
0000
0130
0000
,
0001
0110
1100
0000
,
1000
0010
0100
0001
0100
0010
1000
0000
,
0100
0010
0100
0010
0001
0010
0100
1000
,
0001
0100
0000
0100
0001
0000
1001
0000
,
1000
0100
0000
0100
1000
0000
1001
0000
,
0110
0000
0110
0000
1000
0100
0001
0000
,
0100
1000
0001
0010
0100
0000
0000
0000
;

//---------------dance-single - ----------------
#NOTES:
     dance-single:
     :
     Challenge:
     13:
     0.734,0.845,0.737,0.177,0.182: // measure 1
0001
0001
0000
1000
1000
0100
0000
0010
,  // measure 2
0010
0100
0000
1000
1000
0001
0000
0010
,  // measure 3
0010
0000
0000
0001
1000
0000
0100
0000
0010
0000
0000
0010
0100
0000
1000
0000
,  // measure 4
0001
0000
0000
0001
1000
0000
0010
0000
0100
0001
0100
0001
0100
0001
0100
0001
,  // measure 5
0100
0001
0100
0010
1000
0100
0010
0000
,  // measure 6
0110
1010
1001
1000
,  // measure 7
1000
0100
0010
0001
0100
0010
0100
0000
,  // measure 8
0100
0010
1000
1000
0100
0100
1000
0000
,  // measure 9
0001
1000
0010
0100
0001
0010
0100
0000
,  // measure 10
0110
0101
1001
0001
,  // measure 11
0001
0000
0100
0001
0100
0000
0001
0000
1000
0000
0100
1000
0100
0000
0000
0000
,  // measure 12
1000
0000
0001
1000
0001
0000
1000
0001
1000
0100
1000
0100
1000
0100
1000
0100
,  // measure 13
2000
0000
0000
0100
0000
0000
3100
0000
,  // measure 14
0020
0000
0000
0001
0000
0000
0031
0000
,  // measure 15
0200
0000
0000
1000
0000
0000
1300
0000
,  // measure 16
0020
0000
0000
0001
0000
0000
0031
0000
,  // measure 17
2001
0000
0000
0010
0000
0000
3010
0000
,  // measure 18
1002
0000
0000
0100
0000
0000
0103
0000
,  // measure 19
0110
1000
0001
1000
,  // measure 20
0010
0000
1000
0000
0100
0000
0000
0000
0010
0000
0001
1000
0001
1000
0001
1000
,  // measure 21
0001
0000
1000
0010
1000
0100
0010
0001
,  // measure 22
0100
0000
0001
0100
0001
0001
0100
0010
,  // measure 23
1000
0000
0001
0100
0001
0010
0100
1000
,  // measure 24
0010
1000
1000
0000
0010
1000
1000
0010
,  // measure 25
0220
0000
0000
0330
,  // measure 26
2200
0000
0000
3300
,  // measure 27
0202
0000
0000
0303
,  // measure 28
1001
0000
0000
1100
0000
0100
0100
0000
,  // measure 29
2000
0001
3001
2000
,  // measure 30
0010
3010
0110
0001
,  // measure 31
2000
0100
3100
0020
,  // measure 32
0001
0000
0031
1000
0000
0000
0001
0000
,  // measure 33
2001
0010
0010
3010
,  // measure 34
0110
0000
0000
0000
0100
0000
0010
0000
1000
0001
1000
0001
1000
0001
1000
0001
,  // measure 35
1000
0100
0010
0100
1000
0100
0010
0001
,  // measure 36
1000
0010
1000
0001
0010
0100
1000
0000
,  // measure 37
0001
0010
0100
0010
0001
0010
0100
1000
,  // measure 38
0001
0100
0001
1000
0100
0010
0001
0000
,  // measure 39
0101
0011
0101
1001
,  // measure 40
1010
0000
0000
0000
1100
0000
0000
0000
1000
0001
1000
0001
1000
0001
1000
0001
,  // measure 41
1000
0100
0000
0010
0100
0000
0110
0000
,  // measure 42
0001
0010
0000
0100
0010
0000
0110
0000
,  // measure 43
1001
0000
1001
0000
1000
1000
1001
0000
,  // measure 44
0001
0001
0100
0100
0110
0000
0000
0000
,  // measure 45
1001
0000
0101
0000
0001
0010
0001
1000
,  // measure 46
0010
0100
0001
0010
0100
0010
0001
0000
,  // measure 47
1001
0000
1010
0000
1000
0100
1000
0001
,  // measure 48
0100
0001
0101
0000
0100
0001
0101
0000
,  // measure 49
1001
0000
1010
0000
0110
0000
0010
1000
,  // measure 50
0001
0000
0101
0000
0110
0000
0100
0001
,  // measure 51
1000
0110
0001
0110
,  // measure 52
1010
0011
1001
0000
,  // measure 53
1001
0000
1010
0000
1000
0100
1000
0001
,  // measure 54
0100
0010
1000
0100
0010
0100
1000
0000
,  // measure 55
1001
0000
0101
0000
0001
0010
0001
1000
,  // measure 56
0010
0000
1000
0000
0010
0000
0100
0010
0100
0010
0100
0010
0100
0000
0000
0000
,  // measure 57
1001
0000
0001
0001
0001
1000
1000
1000
,  // measure 58
1100
0000
0100
0100
0100
0010
0010
0010
,  // measure 59
0011
0000
0001
0001
0001
1000
1000
1000
,  // measure 60
1010
0000
0100
0110
0000
0010
0110
0000
,  // measure 61
1001
0000
1000
1000
1000
0001
0001
0001
,  // measure 62
0101
0000
0100
0100
0100
0001
0001
0001
,  // measure 63
1001
0000
0100
0110
0000
0010
0110
0000
,  // measure 64
0001
0000
1000
0001
1000
0000
0000
0000
0010
0000
0100
0010
0100
0000
0000
0000
,  // measure 65
0001
0100
0010
1000
0001
0010
0100
0000
,  // measure 66
0011
0110
2002
3003
,  // measure 67
1000
0010
0100
0001
0100
0010
0100
0000
,  // measure 68
0110
0101
1100
1001
,  // measure 69
1001
0000
1000
0010
0100
0001
0100
0000
,  // measure 70
0101
0000
0001
0100
0010
1000
0010
0100
,  // measure 71
0010
0000
1000
0100
1000
0000
0000
0000
0010
0000
1000
0100
1000
0000
0000
0000
,  // measure 72
0010
0000
1000
0001
1000
0000
0001
1000
0001
1000
0001
1000
0001
1000
0001
1000
,  // measure 73
0001
0101
0000
0100
0110
0000
0110
0000
,  // measure 74
1000
1100
0000
0010
0110
0000
0110
0000
,  // measure 75
1001
0000
1001
0000
0001
0001
1001
0000
,  // measure 76
1000
1000
0010
0010
0110
0000
0000
0000
;

//---------------dance-single - ----------------
#NOTES:
     dance-single:
     :
     Beginner:
     1:
     0.069,0.141,0.037,0.000,0.000:
0001
0000
0000
0000
,
0001
0000
0000
0000
,
1000
0000
0000
0000
,
1000
0000
0000
0000
,
1001
0000
0000
0000
,
0000
0000
0000
0000
,
0001
0000
0000
0000
,
0000
0000
0000
0000
,
1000
0000
0000
0000
,
0000
0000
0000
0000
,
0001
0000
0000
0000
,
0000
0000
0000
0000
,
0001
0000
0000
0000
,
0000
0000
0000
0000
,
0010
0000
0000
0000
,
0000
0000
0000
0000
,
0001
0000
0000
0000
,
1000
0000
0000
0000
,
0100
0000
0000
0000
,
1000
0000
0000
0000
,
1000
0000
0000
0000
,
0000
0000
0000
0000
,
0001
0000
0000
0000
,
0000
0000
0000
0000
,
1000
0000
0000
0000
,
1000
0000
0000
0000
,
1000
0000
0000
0000
,
1000
0000
0000
0000
,
1000
0000
0000
0000
,
0000
0000
0000
0000
,
0100
0000
0000
0000
,
0000
0000
0000
0000
,
0010
0000
0000
0000
,
0000
0000
0000
0000
,
0001
0000
0000
0000
,
0000
0000
0000
0000
,
1000
0000
0000
0000
,
0000
0000
0000
0000
,
0001
0000
0000
0000
,
0001
0000
0000
0000
,
0001
0000
0000
0000
,
0000
0000
0000
0000
,
0000
0000
0000
0000
,
0000
0000
0000
0000
,
1000
0000
0000
0000
,
0000
0000
0000
0000
,
0001
0000
0000
0000
,
0000
0000
0000
0000
,
0001
0000
0000
0000
,
0000
0000
0000
0000
,
1000
0000
0000
0000
,
0000
0000
0000
0000
,
1000
0000
0000
0000
,
0000
0000
0000
0000
,
0001
0000
0000
0000
,
0000
0000
0000
0000
,
0001
0000
0000
0000
,
0000
0000
0000
0000
,
1000
0000
0000
0000
,
0000
0000
0000
0000
,
1000
0000
0000
0000
,
0000
0000
0000
0000
,
0001
0000
0000
0000
,
0000
0000
0000
0000
,
1001
0000
0000
0000
,
0000
0000
0000
0000
,
0010
0000
0000
0000
,
0000
0000
0000
0000
,
0001
0000
0000
0000
,
1000
0000
0000
0000
,
0100
0000
0000
0000
,
1000
0000
0000
0000
,
1001
0000
0000
0000
,
1000
0000
0000
0000
,
0001
0000
0000
0000
,
0000
0000
1001
0000
;
