#TITLE:On top of the world;
#SUBTITLE:;
#ARTIST:LUCA;
#TITLETRANSLIT:;
#SUBTITLETRANSLIT:;
#ARTISTTRANSLIT:;
#GENRE:;
#CREDIT:DigiMindAxel;
#BANNER:On top of the world.png;
#BACKGROUND:On top of the world-bg.png;
#LYRICSPATH:On top of the world.lrc;
#CDTITLE:GuitarFreaksXG & DrumManiaXG.png;
#MUSIC:On top of the world.mp3;
#METERTYPE:DDR X;
#OFFSET:-8.030;
#SAMPLESTART:15.597;
#SAMPLELENGTH:12.000;
#SELECTABLE:YES;
#BPMS:0.000=280.000
;
#STOPS:
;
#BGCHANGES:;
#KEYSOUNDS:;
#ATTACKS:;

//---------------dance-single - ----------------
#NOTES:
     dance-single:
     :
     Hard:
     12:
     0.602,0.686,0.472,0.290,0.025,417.000,57.000,35.000,0.000,0.000,0.000,0.602,0.686,0.472,0.290,0.025,417.000,57.000,35.000,0.000,0.000,0.000: // measure 0
0101
0000
0000
0101
0000
0000
2002
0000
,  // measure 1
0000
0000
3003
0000
,  // measure 2
1010
0000
0000
1010
0000
0000
2002
0000
,  // measure 3
0000
0000
3003
0000
,  // measure 4
0011
0000
0000
0011
0000
0000
2002
0000
,  // measure 5
0000
0000
3003
0000
,  // measure 6
1100
0000
0000
1100
0000
0000
2002
0000
,  // measure 7
0000
0000
0000
3003
,  // measure 8
0100
0000
0001
1000
0000
1000
0000
1001
,  // measure 9
0000
0000
0000
0000
,  // measure 10
0000
0000
0000
0000
1000
0001
0000
1001
,  // measure 11
0000
0000
0000
0000
,  // measure 12
0000
0000
0000
0000
0001
1000
0000
1001
,  // measure 13
0000
0000
0000
0000
,  // measure 14
1000
0000
1000
0000
,  // measure 15
0001
0100
0001
0000
,  // measure 16
1000
0100
1000
0000
,  // measure 17
0001
0100
0001
0000
1000
0000
0001
0000
,  // measure 18
1000
0100
1000
0000
0001
0000
1000
0000
,  // measure 19
0010
0010
0100
0100
,  // measure 20
0001
0000
1000
0000
0010
1000
0000
0001
,  // measure 21
0000
0010
0001
0010
,  // measure 22
0001
1000
0100
1000
,  // measure 23
0100
0100
0010
0010
,  // measure 24
0001
0010
0100
0000
,  // measure 25
1001
0000
1000
0000
0001
0100
0000
0110
,  // measure 26
0000
0000
1000
1000
,  // measure 27
0001
0000
0001
0000
1000
0100
0000
0110
,  // measure 28
0000
0000
0001
0001
,  // measure 29
1000
0000
1000
0000
0010
0100
0000
0001
,  // measure 30
0000
1000
0000
0100
0000
0000
0000
0000
,  // measure 31
1100
0000
0000
1001
0000
0000
1010
0000
,  // measure 32
0000
0011
0000
0000
1001
0000
0001
0000
,  // measure 33
0100
0000
0001
0000
1000
0010
0000
0110
,  // measure 34
0000
0000
0010
0100
,  // measure 35
0010
0000
1000
0000
1000
0010
0000
0110
,  // measure 36
0000
0000
0010
0100
,  // measure 37
0010
0000
0001
0000
0001
0000
1000
0020
,  // measure 38
0000
0100
0130
0000
,  // measure 39
1100
1000
0001
0001
,  // measure 40
0010
0001
0000
1000
0000
0100
1000
0000
,  // measure 41
0001
0010
0001
0000
1000
0000
0001
0000
,  // measure 42
1000
0010
1000
0000
0001
0000
1000
0020
,  // measure 43
0000
0100
0130
0001
,  // measure 44
0001
0000
1000
0000
0010
0100
0000
0010
,  // measure 45
0000
1000
0100
1000
,  // measure 46
0100
0010
0001
0000
,  // measure 47
0010
0001
1000
0000
,  // measure 48
0100
1000
0100
0000
,  // measure 49
1001
0000
0000
0101
0000
0000
2002
0000
,  // measure 50
0000
0000
3003
0000
,  // measure 51
1001
0000
0000
1100
0000
0000
2002
0000
,  // measure 52
0000
3003
1000
0001
,  // measure 53
1001
0000
0000
1100
0000
0000
0022
0000
,  // measure 54
0000
0000
0000
0033
,  // measure 55
1001
0000
0000
0011
0000
0000
2200
0000
,  // measure 56
0000
0000
0000
3300
,  // measure 57
1000
0001
2000
0000
,  // measure 58
3001
1000
0002
0000
,  // measure 59
0103
0010
0100
0010
,  // measure 60
1000
0001
0100
0010
,  // measure 61
1000
0020
0000
0000
,  // measure 62
0230
0000
0000
0000
,  // measure 63
0301
1000
0000
0001
0000
1000
0001
0000
,  // measure 64
1000
0000
0010
0100
0010
0100
0010
0100
,  // measure 65
0010
0100
0001
0100
,  // measure 66
0001
1000
0100
1000
,  // measure 67
0010
1000
0010
1000
,  // measure 68
0001
0100
0001
0100
,  // measure 69
0001
0010
0001
0010
,  // measure 70
0001
1000
0000
0001
0000
1000
0001
0000
,  // measure 71
0100
0001
0100
0001
0100
0001
0100
0000
,  // measure 72
0010
1000
0010
1000
0010
1000
0010
0000
,  // measure 73
1000
0100
0010
0001
,  // measure 74
0010
0100
1000
0100
,  // measure 75
0001
0100
1000
0100
,  // measure 76
0001
0000
0100
0000
1000
0001
1000
0000
,  // measure 77
0010
0100
0001
0100
,  // measure 78
0010
0000
1000
0000
0001
1000
0001
0000
,  // measure 79
1000
1000
0001
0001
,  // measure 80
0010
0010
0100
0110
,  // measure 81
0000
0000
0000
0000
,  // measure 82
0000
0000
0000
0000
,  // measure 83
0000
0000
0000
0000
,  // measure 84
1000
0000
1000
0000
,  // measure 85
0001
0000
0100
0000
0001
0000
0100
0000
0010
0000
1000
0000
,  // measure 86
0100
0000
0010
0000
0001
0000
1000
0000
0000
0100
0000
0000
,  // measure 87
1000
0010
0000
0010
1000
0000
0001
0010
,  // measure 88
0000
0010
0001
0000
1000
0000
0010
0000
,  // measure 89
0200
0000
0000
0320
0000
0000
0230
0000
,  // measure 90
0000
0000
0000
0000
,  // measure 91
0301
0000
0000
0100
0000
0000
0020
0000
,  // measure 92
0000
0000
0030
0000
,  // measure 93
1000
0000
0000
0010
0000
0000
0200
0000
,  // measure 94
0000
0000
0300
0000
,  // measure 95
0101
0000
0000
0001
0000
0000
2000
0000
,  // measure 96
0000
0000
3000
0000
,  // measure 97
1010
0000
0000
1000
0000
0000
0002
0000
,  // measure 98
0000
0100
0000
0000
0103
0000
0000
0000
,  // measure 99
0001
0100
0001
0100
0000
0010
1000
0000
,  // measure 100
0010
1000
0002
0000
0100
0000
0103
0000
,  // measure 101
0001
0010
0001
0010
0000
0100
2000
0000
,  // measure 102
0001
3001
0100
0100
,  // measure 103
0110
0000
0000
0101
0000
0000
1001
0000
,  // measure 104
1001
0000
0000
1010
0000
0000
1001
0000
,  // measure 105
1001
0000
0000
0110
0000
0000
1001
0000
,  // measure 106
0100
0100
0010
0010
,  // measure 107
1001
0000
0100
0000
0010
0000
0001
0100
,  // measure 108
0000
0010
0000
1000
0100
0000
0010
0000
,  // measure 109
0001
0000
0010
0000
0100
0000
1000
0010
,  // measure 110
0000
0100
0000
0001
0010
0000
0100
0000
,  // measure 111
1000
0000
0010
0000
0100
0000
0010
1000
,  // measure 112
0000
0001
0000
0010
0001
0000
1000
0000
,  // measure 113
0010
0100
0010
0100
0010
1000
0001
0000
,  // measure 114
0010
0100
1000
0001
,  // measure 115
1001
0000
0010
0000
0100
0000
1000
0010
,  // measure 116
0000
0100
0000
0001
2000
0000
0001
0000
,  // measure 117
3001
0000
0010
0000
0100
0000
1000
0010
,  // measure 118
0000
0100
0000
0001
1000
0000
0001
0000
,  // measure 119
0200
0000
0010
0000
0310
0000
0100
0001
,  // measure 120
0000
1000
0000
0100
0010
0000
0000
0000
,  // measure 121
0101
0000
0000
1001
0000
0000
0010
1000
,  // measure 122
0010
0100
0001
1000
,  // measure 123
1100
0000
0000
0101
0000
0000
2002
0000
,  // measure 124
0000
0000
0000
0000
,  // measure 125
0000
0000
0000
0000
,  // measure 126
0000
0000
0000
0000
,  // measure 127
0000
0000
3003
0000
;

//---------------dance-single - ----------------
#NOTES:
     dance-single:
     :
     Easy:
     5:
     0.219,0.422,0.199,0.141,0.000,144.000,24.000,17.000,0.000,0.000,0.000,0.219,0.422,0.199,0.141,0.000,144.000,24.000,17.000,0.000,0.000,0.000: // measure 0
2000
0000
0000
0000
,  // measure 1
3000
0000
0000
0000
,  // measure 2
0002
0000
0000
0000
,  // measure 3
0003
0000
0000
0000
,  // measure 4
2000
0000
0000
0000
,  // measure 5
3000
0000
0000
0000
,  // measure 6
0002
0000
0000
0000
,  // measure 7
0003
0000
0000
0000
,  // measure 8
0000
0000
0000
0000
0000
0000
0000
1001
,  // measure 9
0000
0000
0000
0000
,  // measure 10
0000
0000
0000
0000
0000
0000
0000
1000
,  // measure 11
0000
0000
0000
0000
,  // measure 12
0000
0000
0000
0000
0000
0000
0000
0001
,  // measure 13
0000
0000
0000
0000
,  // measure 14
0000
0000
0000
0000
,  // measure 15
1000
0000
0001
0000
,  // measure 16
1000
0000
0000
0000
,  // measure 17
1001
0000
0000
0000
,  // measure 18
1000
0000
0000
0000
,  // measure 19
0001
0000
1000
0000
,  // measure 20
0001
0000
1000
0000
,  // measure 21
0001
0000
0000
0000
,  // measure 22
0001
0000
0000
0000
,  // measure 23
0100
0000
0010
0000
,  // measure 24
0100
0000
0000
0000
,  // measure 25
0110
0000
0000
0000
,  // measure 26
0000
0000
0000
0000
,  // measure 27
1001
0000
0000
0000
,  // measure 28
0000
0000
0000
0000
,  // measure 29
0110
0000
0000
0000
,  // measure 30
0000
0000
0000
0000
,  // measure 31
0001
0000
0100
0000
,  // measure 32
0010
0000
1000
0000
,  // measure 33
1001
0000
0000
0000
,  // measure 34
0000
0000
0000
0000
,  // measure 35
0110
0000
0000
0000
,  // measure 36
0000
0000
0000
0000
,  // measure 37
1001
0000
0000
0000
,  // measure 38
0000
0000
0000
0000
,  // measure 39
1000
0000
0010
0000
,  // measure 40
0100
0000
0001
0000
,  // measure 41
1000
0000
1000
0000
,  // measure 42
0001
0000
0001
0000
,  // measure 43
0010
0000
0100
0000
,  // measure 44
1000
0000
0001
0000
,  // measure 45
0000
0000
1000
0000
,  // measure 46
0001
0000
1000
0000
,  // measure 47
0100
0000
0010
0000
,  // measure 48
0001
0000
0000
0000
,  // measure 49
1001
0000
0000
0000
,  // measure 50
0000
0000
0000
0000
,  // measure 51
0110
0000
0000
0000
,  // measure 52
0000
0000
0000
0000
,  // measure 53
1001
0000
0000
0000
,  // measure 54
0000
0000
0000
0000
,  // measure 55
0110
0000
0000
0000
,  // measure 56
0000
0000
0000
0000
,  // measure 57
0001
0000
0000
0000
,  // measure 58
0000
0000
0000
0000
,  // measure 59
0001
0000
0000
0000
,  // measure 60
0000
0000
0000
0000
,  // measure 61
1000
0000
0000
0000
,  // measure 62
0000
0000
0000
0000
,  // measure 63
1000
0000
0000
0000
,  // measure 64
0000
0000
0000
0000
,  // measure 65
1001
0000
1000
0000
,  // measure 66
1000
0000
1000
0000
,  // measure 67
0001
0000
0001
0000
,  // measure 68
0001
0000
0001
0000
,  // measure 69
1000
0000
1000
0000
,  // measure 70
1000
0000
1000
0000
,  // measure 71
0001
0000
0001
0000
,  // measure 72
0001
0000
0001
0000
,  // measure 73
0100
0000
0010
0000
,  // measure 74
0100
0000
0001
0000
,  // measure 75
1000
0000
0010
0000
,  // measure 76
1000
0000
0010
0000
,  // measure 77
0100
0000
0010
0000
,  // measure 78
0100
0000
0001
0000
,  // measure 79
1000
0000
0100
0000
,  // measure 80
0010
0000
0001
0000
,  // measure 81
0000
0000
0000
0000
,  // measure 82
0000
0000
0000
0000
,  // measure 83
0000
0000
0000
0000
,  // measure 84
0000
0000
0000
0000
,  // measure 85
1001
0000
1000
0000
,  // measure 86
0001
0000
1000
0000
,  // measure 87
2002
0000
0000
0000
,  // measure 88
0000
0000
0000
3003
,  // measure 89
0000
0000
0000
0000
,  // measure 90
0000
0000
0000
0000
,  // measure 91
0220
0000
0000
0000
,  // measure 92
0000
0000
0330
0000
,  // measure 93
2002
0000
0000
0000
,  // measure 94
0000
3003
0000
0000
,  // measure 95
0002
0000
0000
0000
,  // measure 96
0000
0000
0000
0003
,  // measure 97
2000
0000
0000
0000
,  // measure 98
0000
0000
0000
0000
,  // measure 99
3001
0000
0100
0000
,  // measure 100
0010
0000
1000
0000
,  // measure 101
1000
0000
1000
0000
,  // measure 102
0001
0000
0001
0000
,  // measure 103
0100
0000
0010
0000
,  // measure 104
0100
0000
0010
0000
,  // measure 105
0100
0000
0001
0000
,  // measure 106
1000
0000
0000
0000
,  // measure 107
1001
0000
1000
0000
,  // measure 108
1000
0000
0001
0000
,  // measure 109
1001
0000
0010
0000
,  // measure 110
0010
0000
0100
0000
,  // measure 111
0110
0000
1000
0000
,  // measure 112
1000
0000
0001
0000
,  // measure 113
2000
0000
0000
0000
,  // measure 114
3002
0000
0000
0000
,  // measure 115
1003
0000
1000
0000
,  // measure 116
0001
0000
0001
0000
,  // measure 117
1001
0000
0010
0000
,  // measure 118
0010
0000
0100
0000
,  // measure 119
0110
0000
1000
0000
,  // measure 120
1000
0000
0001
0000
,  // measure 121
0200
0000
0000
0000
,  // measure 122
0301
0000
1000
0000
,  // measure 123
0110
0000
0000
0220
,  // measure 124
0000
0000
0000
0000
,  // measure 125
0000
0000
0000
0000
,  // measure 126
0000
0000
0000
0000
,  // measure 127
0000
0000
0330
0000
;

//---------------dance-single - ----------------
#NOTES:
     dance-single:
     :
     Medium:
     7:
     0.390,0.475,0.290,0.124,0.000,280.000,35.000,15.000,0.000,0.000,0.000,0.390,0.475,0.290,0.124,0.000,280.000,35.000,15.000,0.000,0.000,0.000: // measure 0
0200
0000
0300
1001
,  // measure 1
0000
0000
0000
0000
,  // measure 2
0200
0000
0300
1001
,  // measure 3
0000
0000
0000
0000
,  // measure 4
0010
0100
0010
0100
,  // measure 5
0010
0100
0010
0000
,  // measure 6
1000
0001
1000
0001
,  // measure 7
1000
0001
1000
0000
,  // measure 8
0010
0000
0100
0000
0010
0000
0000
1001
,  // measure 9
0000
0000
0000
0000
,  // measure 10
0000
0000
0000
0000
1000
0000
0000
0101
,  // measure 11
0000
0000
0000
0000
,  // measure 12
0000
0000
0000
0000
0001
0000
0000
1100
,  // measure 13
0000
0000
0000
0000
,  // measure 14
0001
0000
0000
0000
,  // measure 15
0001
0000
1001
0000
,  // measure 16
1000
0000
1001
0000
,  // measure 17
0001
0100
0001
0000
,  // measure 18
1000
0100
1000
0000
,  // measure 19
0010
0100
0010
0100
,  // measure 20
0010
0000
0100
0000
0010
0000
0000
1001
,  // measure 21
0000
1000
0010
1000
,  // measure 22
0001
0000
0001
0000
,  // measure 23
0001
0010
0001
0000
,  // measure 24
1000
0010
1000
0000
,  // measure 25
0010
0000
0100
0000
0010
0000
0000
0110
,  // measure 26
0000
0000
0000
0000
,  // measure 27
1000
0000
0001
0000
1000
0000
0000
1001
,  // measure 28
0000
0000
0000
0000
,  // measure 29
0010
0000
0100
0000
0010
0000
0000
0110
,  // measure 30
0000
0000
0000
0000
,  // measure 31
1000
0000
0000
0100
0000
0000
0010
0000
,  // measure 32
0000
0001
0000
0000
1000
0000
0001
0000
,  // measure 33
1000
0000
0010
0000
0100
0000
0000
0110
,  // measure 34
0000
0000
0000
0000
,  // measure 35
0001
0000
0100
0000
0010
0000
0000
0110
,  // measure 36
0000
0000
0000
0000
,  // measure 37
1000
0000
0010
0000
0100
0000
0000
0110
,  // measure 38
0000
0000
0000
0000
,  // measure 39
0001
0010
0100
1000
,  // measure 40
0001
0000
0000
0100
0000
0000
0010
0000
,  // measure 41
1000
0001
1000
0000
,  // measure 42
0010
0100
0010
0000
,  // measure 43
0100
0001
0010
0100
,  // measure 44
1000
0010
0100
0000
,  // measure 45
0001
0010
0001
0000
,  // measure 46
1000
0010
1000
0000
,  // measure 47
0010
0100
0010
0000
,  // measure 48
1000
0000
0001
0000
,  // measure 49
1001
0000
0000
1000
0000
0000
2000
0000
,  // measure 50
0000
0000
0000
3000
,  // measure 51
1001
0000
0000
0001
0000
0000
0002
0000
,  // measure 52
0000
0000
0000
0003
,  // measure 53
1001
0000
0000
1000
0000
0000
0002
0000
,  // measure 54
0000
0000
0000
0003
,  // measure 55
1001
0000
0000
0001
0000
0000
2000
0000
,  // measure 56
0000
0000
0000
3000
,  // measure 57
0020
0000
0000
0000
,  // measure 58
0000
0000
0000
0000
,  // measure 59
0230
0000
0000
0000
,  // measure 60
0000
0000
0000
0000
,  // measure 61
0310
0000
0000
0000
,  // measure 62
0100
0000
0000
0000
,  // measure 63
0010
0000
0010
0000
,  // measure 64
0010
0000
0000
0000
,  // measure 65
0110
0000
1000
0000
,  // measure 66
0001
0000
0100
0000
,  // measure 67
0010
0000
1000
0000
,  // measure 68
0100
0000
0010
0000
,  // measure 69
0001
0000
0100
0000
,  // measure 70
0010
0000
1000
0000
,  // measure 71
0100
0000
0010
0000
,  // measure 72
0001
1000
0001
0000
,  // measure 73
0100
0010
0100
0000
,  // measure 74
0010
0100
0010
0000
,  // measure 75
1000
0001
1000
0000
,  // measure 76
0001
1000
0001
0000
,  // measure 77
0010
0001
0010
0000
,  // measure 78
0100
1000
0100
0000
,  // measure 79
0010
0001
0010
0000
,  // measure 80
0100
1000
0100
0010
,  // measure 81
0000
0000
0000
0000
,  // measure 82
0000
0000
0000
0000
,  // measure 83
0000
0000
0000
0000
,  // measure 84
0000
0000
0000
0000
,  // measure 85
1001
0000
1100
0000
,  // measure 86
0011
0000
1001
0000
,  // measure 87
1001
0000
0000
0001
0000
0000
1000
0000
,  // measure 88
0000
0010
0010
0100
,  // measure 89
0020
0000
0000
0000
,  // measure 90
0030
0000
0000
0000
,  // measure 91
0100
0000
0000
0010
0000
0000
0200
0000
,  // measure 92
0000
0000
0300
0000
,  // measure 93
0010
0000
0000
0100
0000
0000
0020
0000
,  // measure 94
0000
0000
0030
0000
,  // measure 95
1000
0000
0000
0001
0000
0000
2000
0000
,  // measure 96
0000
0000
3000
0000
,  // measure 97
0001
0000
0000
1000
0000
0000
0002
0000
,  // measure 98
0000
0000
0003
0000
,  // measure 99
1000
0100
0010
0001
,  // measure 100
0100
0010
0110
0000
,  // measure 101
0001
0000
0000
0100
0000
0000
0010
0000
,  // measure 102
1000
0010
0110
0000
,  // measure 103
1000
0000
0000
0001
0000
0000
0100
0000
,  // measure 104
0010
0000
0000
1000
0000
0000
0010
0000
,  // measure 105
0100
0000
0000
0001
0000
0000
0100
0000
,  // measure 106
0010
0000
0100
0000
,  // measure 107
1001
0001
0001
0010
,  // measure 108
0100
1000
0001
0000
,  // measure 109
1001
1000
1000
0100
,  // measure 110
0010
0001
1000
0000
,  // measure 111
0110
0001
0001
0010
,  // measure 112
0100
1000
0001
0000
,  // measure 113
0110
0000
0001
0000
,  // measure 114
0100
0010
0100
0000
,  // measure 115
1001
0001
0001
0010
,  // measure 116
0100
1000
0010
0000
,  // measure 117
0110
1000
1000
0100
,  // measure 118
0010
0001
0100
0000
,  // measure 119
0110
0001
0001
0010
,  // measure 120
0100
1000
0001
0000
,  // measure 121
0110
0000
1000
0000
,  // measure 122
0010
0100
0010
0000
,  // measure 123
1000
0000
0000
0001
0000
0000
2002
0000
,  // measure 124
0000
0000
0000
0000
,  // measure 125
0000
0000
0000
0000
,  // measure 126
0000
0000
0000
0000
,  // measure 127
0000
0000
3003
0000
;

//---------------dance-single - ----------------
#NOTES:
     dance-single:
     :
     Beginner:
     3:
     0.116,0.205,0.149,0.000,0.000,80.000,18.000,0.000,0.000,0.000,0.000,0.116,0.205,0.149,0.000,0.000,80.000,18.000,0.000,0.000,0.000,0.000: // measure 0
1000
0000
0000
0000
,  // measure 1
0000
0000
0000
0000
,  // measure 2
0001
0000
0000
0000
,  // measure 3
0000
0000
0000
0000
,  // measure 4
1000
0000
0000
0000
,  // measure 5
0000
0000
0000
0000
,  // measure 6
0001
0000
0000
0000
,  // measure 7
0000
0000
0000
0000
,  // measure 8
0000
0000
0000
0000
0000
0000
0000
1000
,  // measure 9
0000
0000
0000
0000
,  // measure 10
0000
0000
0000
0000
0000
0000
0000
1000
,  // measure 11
0000
0000
0000
0000
,  // measure 12
0000
0000
0000
0000
0000
0000
0000
1000
,  // measure 13
0000
0000
0000
0000
,  // measure 14
0000
0000
0000
0000
,  // measure 15
1000
0000
0000
0000
,  // measure 16
0001
0000
0000
0000
,  // measure 17
1000
0000
0000
0000
,  // measure 18
1000
0000
0000
0000
,  // measure 19
1000
0000
0000
0000
,  // measure 20
0000
0000
0000
0000
,  // measure 21
0001
0000
0000
0000
,  // measure 22
1000
0000
0000
0000
,  // measure 23
0001
0000
0000
0000
,  // measure 24
0001
0000
0000
0000
,  // measure 25
1001
0000
0000
0000
,  // measure 26
0000
0000
0000
0000
,  // measure 27
1001
0000
0000
0000
,  // measure 28
0000
0000
0000
0000
,  // measure 29
1001
0000
0000
0000
,  // measure 30
0000
0000
0000
0000
,  // measure 31
1000
0000
0000
0000
,  // measure 32
0000
0000
0000
0000
,  // measure 33
1001
0000
0000
0000
,  // measure 34
0000
0000
0000
0000
,  // measure 35
1001
0000
0000
0000
,  // measure 36
0000
0000
0000
0000
,  // measure 37
0001
0000
0000
0000
,  // measure 38
0000
0000
0000
0000
,  // measure 39
1000
0000
0000
0000
,  // measure 40
0000
0000
0000
0000
,  // measure 41
0010
0000
0000
0000
,  // measure 42
0000
0000
0000
0000
,  // measure 43
0010
0000
0000
0000
,  // measure 44
0000
0000
0000
0000
,  // measure 45
0100
0000
0000
0000
,  // measure 46
0000
0000
0000
0000
,  // measure 47
0100
0000
0000
0000
,  // measure 48
0000
0000
0000
0000
,  // measure 49
0110
0000
0000
0000
,  // measure 50
0000
0000
0000
0000
,  // measure 51
1000
0001
0000
0000
,  // measure 52
0000
0000
0000
0000
,  // measure 53
0001
0000
0000
0000
,  // measure 54
0000
0000
0000
0000
,  // measure 55
1000
0000
0000
0000
,  // measure 56
0000
0000
0000
0000
,  // measure 57
0000
1001
0000
0000
,  // measure 58
0000
0000
0000
0000
,  // measure 59
0000
0000
0000
0000
,  // measure 60
0000
0000
0000
0000
,  // measure 61
0001
0000
0000
0000
,  // measure 62
0000
0000
0000
0000
,  // measure 63
0000
0000
0000
0000
,  // measure 64
0000
0000
0000
0000
,  // measure 65
1000
0000
0000
0000
,  // measure 66
1000
0000
0000
0000
,  // measure 67
1000
0000
0000
0000
,  // measure 68
0000
0000
0000
0000
,  // measure 69
0001
0000
0000
0000
,  // measure 70
0001
0000
0000
0000
,  // measure 71
0000
0000
0000
0000
,  // measure 72
0000
0000
0000
0000
,  // measure 73
1001
0000
0000
0000
,  // measure 74
1000
0000
0000
0000
,  // measure 75
0001
0000
0000
0000
,  // measure 76
1000
0000
0000
0000
,  // measure 77
0001
0000
0000
0000
,  // measure 78
0100
0000
0000
0000
,  // measure 79
0010
0000
0000
0000
,  // measure 80
1000
0000
0000
0000
,  // measure 81
0000
0000
0000
0000
,  // measure 82
0000
0000
0000
0000
,  // measure 83
0000
0000
0000
0000
,  // measure 84
0000
0000
0000
0000
,  // measure 85
0010
0000
0000
0000
,  // measure 86
0100
0000
0000
0000
,  // measure 87
0010
0000
0000
0000
,  // measure 88
0000
0000
0000
0000
,  // measure 89
0000
0000
0000
0000
,  // measure 90
0000
0000
0000
0000
,  // measure 91
1001
0000
0000
0000
,  // measure 92
0000
0000
0000
0000
,  // measure 93
0001
0000
0000
0000
,  // measure 94
0000
0000
0000
0000
,  // measure 95
1000
0000
0000
0000
,  // measure 96
0000
0000
0000
0000
,  // measure 97
0001
0000
0000
0000
,  // measure 98
0000
0000
0000
0000
,  // measure 99
0100
0000
0000
0000
,  // measure 100
0010
0000
0000
0000
,  // measure 101
0100
0000
0000
0000
,  // measure 102
0100
0000
0000
0000
,  // measure 103
0010
0000
0000
0000
,  // measure 104
0100
0000
0000
0000
,  // measure 105
0010
0000
0000
0000
,  // measure 106
0010
0000
0000
0000
,  // measure 107
1001
0000
0000
0000
,  // measure 108
1000
0000
0000
0000
,  // measure 109
1001
0000
0000
0000
,  // measure 110
0001
0000
0000
0000
,  // measure 111
1001
0000
0000
0000
,  // measure 112
1000
0000
0000
0000
,  // measure 113
1001
0000
0000
0000
,  // measure 114
0000
0000
0000
0000
,  // measure 115
0110
0000
0000
0000
,  // measure 116
1000
0000
0000
0000
,  // measure 117
0110
0000
0000
0000
,  // measure 118
0001
0000
0000
0000
,  // measure 119
0110
0000
0000
0000
,  // measure 120
1000
0000
0000
0000
,  // measure 121
1001
0000
0000
0000
,  // measure 122
0001
0000
0000
0000
,  // measure 123
1000
0000
0000
1001
;

//---------------dance-single - ----------------
#NOTES:
     dance-single:
     :
     Challenge:
     15:
     0.815,0.739,0.555,0.306,0.025,585.000,67.000,37.000,0.000,0.000,0.000,0.815,0.739,0.555,0.306,0.025,585.000,67.000,37.000,0.000,0.000,0.000: // measure 0
1100
0000
0000
1100
0000
0000
1001
0000
,  // measure 1
0000
1000
0001
1000
0001
1000
0001
0000
,  // measure 2
0011
0000
0000
0011
0000
0000
1001
0000
,  // measure 3
0000
2000
0000
0000
3001
1000
0001
0000
,  // measure 4
0101
0000
0000
0101
0000
0000
1001
0000
,  // measure 5
0000
0001
1000
0001
1000
0001
1000
0000
,  // measure 6
1010
0000
0000
1010
0000
0000
1001
0000
,  // measure 7
0010
0100
0000
1000
0001
1000
0010
0000
,  // measure 8
0100
0000
0001
1000
0000
1000
0010
0100
,  // measure 9
0010
0010
0010
0010
,  // measure 10
0010
0000
0010
0000
1000
0001
0100
0001
,  // measure 11
0100
0100
0100
0100
,  // measure 12
0100
0000
0100
0000
0001
1000
0010
1000
,  // measure 13
0010
0010
0010
0010
,  // measure 14
1000
1000
0001
0001
,  // measure 15
1000
0000
0100
0000
1000
0001
0000
0001
,  // measure 16
1000
0000
0010
0000
1000
0001
1000
0000
,  // measure 17
0001
0100
0001
0100
0010
0000
1000
0000
,  // measure 18
0100
0010
0100
0010
0001
1000
0001
0000
,  // measure 19
0100
0101
0010
0110
,  // measure 20
1000
0000
1001
0000
0010
1000
0000
1000
,  // measure 21
0001
0101
1000
1100
,  // measure 22
0001
0000
1001
0000
1000
0001
0100
0000
,  // measure 23
0020
0100
0130
0002
,  // measure 24
1000
0000
1003
0000
0010
0100
0010
0000
,  // measure 25
1001
0000
0100
0000
0010
0001
0010
0200
,  // measure 26
0000
0000
1000
1300
,  // measure 27
1001
0000
0010
0000
0100
1000
0100
0020
,  // measure 28
0000
0000
0001
0031
,  // measure 29
1001
0000
0001
0000
0010
0100
1000
0001
,  // measure 30
0000
1000
0010
1000
0001
0000
1000
0000
,  // measure 31
1100
0000
0000
0110
0000
0000
0011
0000
,  // measure 32
0000
0110
0000
0000
1001
0000
1001
0000
,  // measure 33
1000
0001
0100
0000
0001
0010
0100
2000
,  // measure 34
0000
0000
0001
3001
,  // measure 35
1000
0001
0010
0000
0001
0100
0010
2000
,  // measure 36
0000
0000
0001
3001
,  // measure 37
0210
0000
0001
0000
0301
0000
1000
0100
,  // measure 38
0000
0100
0010
0000
0101
0000
0000
0000
,  // measure 39
1010
1010
0101
0101
,  // measure 40
0010
0100
0001
1000
0000
0100
0010
0100
,  // measure 41
0010
0001
2000
0000
0100
0000
3100
0000
,  // measure 42
0010
0001
2000
0000
0010
0000
3010
0100
,  // measure 43
0001
0100
0110
0001
,  // measure 44
1001
0000
1000
0000
0010
0100
0001
0010
,  // measure 45
0000
0001
0101
0010
,  // measure 46
0110
1000
1010
0100
,  // measure 47
0110
0000
0001
1000
0001
0000
1000
0000
,  // measure 48
0100
1000
0100
0000
0010
0001
0010
0000
,  // measure 49
1001
0000
0000
0110
0000
0000
1001
0000
,  // measure 50
0000
0100
0010
0100
0010
0100
0010
0000
,  // measure 51
1001
0000
0000
0110
0000
0000
1001
0000
,  // measure 52
0000
0020
0000
0000
1030
0001
1000
0000
,  // measure 53
0001
0010
0100
1000
0100
0010
0002
0000
,  // measure 54
0000
1003
0001
1000
0010
0100
0001
0000
,  // measure 55
0010
0100
1000
0100
0010
0001
2000
0000
,  // measure 56
0000
0000
3001
0000
1000
0010
0100
0001
,  // measure 57
1000
1000
0100
0100
,  // measure 58
1000
1000
0001
0001
,  // measure 59
0100
0100
0010
0010
,  // measure 60
0100
0001
1000
0010
,  // measure 61
0100
0000
0100
0000
0001
0000
0001
1000
,  // measure 62
0010
0010
0100
0100
,  // measure 63
0001
1000
0000
1000
0000
0001
1000
0000
,  // measure 64
1000
0000
0010
0100
0010
0100
0010
0100
,  // measure 65
0020
1000
1030
0001
,  // measure 66
0020
0001
0031
0100
,  // measure 67
2000
0010
3010
0100
,  // measure 68
0002
1000
1003
0001
,  // measure 69
0020
0001
0031
0100
,  // measure 70
1000
0001
0000
0001
0000
1000
0001
0100
,  // measure 71
0001
0010
0100
1000
0100
0010
0001
0000
,  // measure 72
1000
0010
0100
0001
0100
0010
1000
0000
,  // measure 73
0001
1000
0001
0000
0010
0000
0100
0000
,  // measure 74
0010
0000
0001
0000
1000
0001
1000
0000
,  // measure 75
0001
0100
1000
0100
,  // measure 76
0001
0000
1000
0001
0100
0010
0100
0000
,  // measure 77
0001
0000
0010
0000
0100
0000
1000
0001
,  // measure 78
1000
0000
0010
0100
0001
1000
0001
0000
,  // measure 79
0010
0001
0010
0001
1000
0100
1000
0100
,  // measure 80
1000
0001
1000
0001
0100
0010
0100
0010
,  // measure 81
2000
0000
0000
0000
,  // measure 82
3002
0000
0000
0000
,  // measure 83
2003
0000
0000
0000
,  // measure 84
3001
0000
0001
0000
,  // measure 85
0001
0000
1000
0000
0100
0000
0010
0000
0001
0000
1000
0000
,  // measure 86
0100
0000
0010
0000
0001
0000
1000
0000
0000
0001
0000
0000
,  // measure 87
1000
0100
0000
0100
0010
0000
0010
0001
,  // measure 88
0000
0001
1000
0000
0010
0000
0110
0000
,  // measure 89
0002
0000
0000
2003
0000
0000
0002
0000
,  // measure 90
0000
0000
0000
0000
0000
3003
0000
0001
,  // measure 91
0100
0000
0100
0010
0000
0010
2000
0000
,  // measure 92
0000
0000
0000
0000
0000
3000
0000
1000
,  // measure 93
0010
0000
0010
0100
0000
0100
0002
0000
,  // measure 94
0000
1000
1000
1003
,  // measure 95
1100
0000
0000
0110
0000
0000
0012
0000
,  // measure 96
0000
1000
1000
1003
,  // measure 97
0101
0000
0000
0110
0000
0000
1010
0000
,  // measure 98
0000
0110
0000
0000
1001
0000
0000
0000
,  // measure 99
1000
0100
1000
0001
0000
0001
0010
0000
,  // measure 100
0010
0001
1000
0010
1000
0000
1000
0000
,  // measure 101
0001
0100
0001
1000
0000
1000
0100
0000
,  // measure 102
0100
1000
0001
0000
1001
0000
1001
0000
,  // measure 103
0001
0010
0100
1000
0100
0010
0001
0000
,  // measure 104
1000
0010
0100
0001
0100
0010
1000
0000
,  // measure 105
1001
0000
0000
0110
0000
0000
1001
0000
,  // measure 106
0200
0310
0020
0130
,  // measure 107
1001
0000
0100
1000
0010
0000
1000
0001
,  // measure 108
0010
0000
0100
1000
0020
0000
0130
0000
,  // measure 109
0110
0000
0010
1000
0100
0000
1000
0001
,  // measure 110
0100
0000
0010
1000
0200
0000
0310
0000
,  // measure 111
0110
0000
0100
1000
0010
0000
1000
0001
,  // measure 112
0100
0000
0010
1000
0200
0000
0310
0000
,  // measure 113
0001
0100
0010
0100
0001
0000
1000
0000
,  // measure 114
1001
0100
1100
0001
,  // measure 115
1001
0000
0010
0001
0100
0000
0010
0100
,  // measure 116
0010
0000
1000
0100
0020
0000
0130
0000
,  // measure 117
1000
0000
0010
1000
0100
0000
0010
0100
,  // measure 118
0010
0000
0001
0100
0020
0000
0130
0000
,  // measure 119
0001
0000
0100
0001
0010
0000
0001
1000
,  // measure 120
0001
0000
0010
0100
2000
0000
3010
0000
,  // measure 121
0100
0001
0100
0001
1000
0010
1000
0010
,  // measure 122
0100
0000
0001
1000
0001
0010
0100
0010
,  // measure 123
0001
0000
0000
0110
0000
0000
2002
0000
,  // measure 124
0000
0000
0000
0000
,  // measure 125
0000
0000
0000
0000
,  // measure 126
0000
0000
0000
0000
,  // measure 127
0000
0000
3003
0000
;
