#TITLE:New Lights;
#SUBTITLE:;
#ARTIST:kors k;
#TITLETRANSLIT:;
#SUBTITLETRANSLIT:;
#ARTISTTRANSLIT:;
#CREDIT:DigiMindAxel;
#BANNER:New Lights.png;
#BACKGROUND:New Lights-bg.png;
#LYRICSPATH:New Lights.lrc;
#CDTITLE:beatmania IIDX.png;
#MUSIC:New Lights.mp3;
#METERTYPE:DDR X;
#OFFSET:-11.585;
#SAMPLESTART:33.546;
#SAMPLELENGTH:12.000;
#SELECTABLE:YES;
#BPMS:0.000=175.000;
#STOPS:;
#BGCHANGES:;

//---------------dance-single - ----------------
#NOTES:
     dance-single:
     :
     Easy:
     5:
     0.256,0.291,0.134,0.118,0.000:
1001
0000
0000
0110
,
0000
0000
0000
0000
,
0000
0110
0000
0000
,
1001
0000
0000
0000
,
0001
0000
1000
0000
,
0001
0000
1000
0000
,
0100
0010
0100
0010
,
0100
0000
0000
0000
,
0110
0000
0010
0000
,
0100
0000
0010
0000
,
1000
0000
0001
0000
,
1000
0000
0001
0000
,
1000
1000
1000
1000
,
0001
0001
0001
0001
,
1000
0001
1000
0001
,
1000
0000
0000
0000
,
1001
0000
0001
0000
,
0010
0001
0010
0000
,
1001
0000
1000
0000
,
0100
1000
0100
0000
,
1001
0000
0001
0000
,
0100
0001
0100
0000
,
0210
0000
0000
0000
,
0320
0000
0000
0000
,
0130
0000
0001
0000
,
1000
0000
0100
1000
,
0001
0000
0010
0000
,
0001
1000
0001
0000
,
0200
0000
0301
0000
,
2000
0000
3100
0000
,
2000
0000
3002
0000
,
2003
0000
3002
0000
,
1003
0100
1000
0000
,
0001
0000
0010
0001
,
0100
0000
0010
0000
,
0100
0000
0001
1000
,
0001
0000
0010
0000
,
0100
0000
1000
0001
,
0100
0000
0010
0000
,
0200
0000
0000
0300
,
0110
0000
0010
0100
,
0001
0000
1000
0000
,
0001
0000
0010
0001
,
0100
0000
0010
0100
,
0000
0110
0010
0100
,
0010
0100
0001
1000
,
0001
1000
0100
0010
,
0002
0000
0000
0003
,
1002
0000
0000
0000
,
0000
0000
0000
0003
,
0000
2000
0000
0000
,
0000
0000
3000
0000
,
1001
0000
1000
0000
,
0001
0000
0010
0000
,
0001
0000
0100
0000
,
0010
0000
0000
0000
,
0110
0000
0010
0000
,
0100
0000
0010
0000
,
1000
0000
0001
0000
,
1000
0000
0001
0000
,
0010
0001
0010
0001
,
1000
0001
1000
0001
,
1000
0010
1000
0010
,
1000
0000
0000
0000
,
1001
0001
1000
0000
,
0100
1000
0010
0000
,
0100
0001
0010
0000
,
0001
1000
0001
1000
,
0001
0010
0100
0000
,
0010
0100
1000
0000
,
0001
1000
0001
1000
,
0001
0000
0010
0001
,
2000
3001
1000
0001
,
0010
0000
0001
0010
,
0100
1000
0010
0100
,
0001
0000
1000
0001
,
1000
0100
0010
0001
,
0010
0100
1000
0001
,
1000
1000
1000
1000
,
1001
0000
0000
0000
,
0220
0000
0000
0000
,
0000
0000
0000
0000
,
0330
0000
0000
0000
;

//---------------dance-single - ----------------
#NOTES:
     dance-single:
     :
     Medium:
     7:
     0.425,0.550,0.261,0.095,0.000: // measure 1
1001
0000
0000
0000
0000
0000
0001
0100
,  // measure 2
0000
0000
0000
0001
,  // measure 3
0000
0000
0001
0000
0000
0000
1000
0100
,  // measure 4
0000
0000
0000
1000
0000
1000
0001
0000
,  // measure 5
1001
0000
0000
0000
0100
0000
0000
0010
,  // measure 6
0000
0000
1000
0010
,  // measure 7
0000
0000
0100
0000
0000
0000
0001
1000
,  // measure 8
0000
1000
0000
0001
0000
0001
0000
0000
,  // measure 9
1000
0100
1000
0100
,  // measure 10
0010
0001
0010
0001
,  // measure 11
1000
0010
1000
0010
,  // measure 12
0100
0001
0100
0001
,  // measure 13
1001
1000
1001
0001
,  // measure 14
1001
1000
1001
0001
,  // measure 15
0010
0100
0010
0001
,  // measure 16
1000
0001
1000
0001
1000
0001
0100
0000
,  // measure 17
0101
0010
0110
0010
,  // measure 18
0101
0000
0010
0000
0110
0000
0100
0001
,  // measure 19
1000
1100
0010
0110
,  // measure 20
0010
0000
1100
0000
0010
0000
1000
0010
,  // measure 21
0100
1001
0001
0101
,  // measure 22
0001
0000
0101
0000
0001
1000
0100
0000
,  // measure 23
1100
0000
0000
1000
0000
0000
0001
0000
,  // measure 24
0010
0000
0000
0100
0000
0000
1000
0000
,  // measure 25
0000
0000
0001
1000
0001
0000
0001
0100
,  // measure 26
0010
0000
0100
0010
0100
0000
0010
1000
,  // measure 27
1000
0000
0001
1000
0100
0000
0100
1000
,  // measure 28
0100
0000
1000
0100
0010
0000
0100
0000
,  // measure 29
2000
0000
3001
0100
0001
0100
0001
0100
,  // measure 30
0010
1000
0010
1000
0100
0010
0100
0010
,  // measure 31
0200
0000
2300
0000
,  // measure 32
3002
0000
0023
0000
,  // measure 33
0031
0000
1000
0010
0100
0000
0001
0001
,  // measure 34
0000
1001
0000
0000
1000
0001
1000
0001
,  // measure 35
1000
0000
1010
0000
0010
0100
0000
0001
,  // measure 36
0000
0001
0000
0000
1000
0001
0100
0001
,  // measure 37
1000
0000
0100
0010
0001
0000
1000
0000
,  // measure 38
0010
0100
0010
0100
0010
0000
1000
0000
,  // measure 39
0110
0000
0001
0100
0010
0100
0000
0000
,  // measure 40
0001
1000
0000
0100
0000
0010
0000
0001
,  // measure 41
1000
0000
0100
1000
0010
0100
0000
0100
,  // measure 42
0000
0000
0110
0000
0010
0001
0010
0001
,  // measure 43
1000
0000
1001
0000
0001
0000
0100
0002
,  // measure 44
0000
1000
1003
1001
,  // measure 45
0000
0000
0001
1000
0001
0000
1000
0001
,  // measure 46
1000
0000
0100
0010
0100
0000
0010
0100
,  // measure 47
0010
0000
0001
1000
0001
1000
0001
1000
,  // measure 48
0200
0000
0000
0300
,  // measure 49
0110
0000
0000
0000
,  // measure 50
0000
0000
0000
0000
,  // measure 51
0000
0000
0010
0000
0000
0000
0000
0100
,  // measure 52
0000
0000
0000
0010
0000
0010
0000
0000
,  // measure 53
0110
0000
0000
0000
0100
0000
0000
0101
,  // measure 54
0000
0000
0000
0000
,  // measure 55
0000
0000
1010
0000
0000
0000
0000
0110
,  // measure 56
0000
0000
0000
0000
,  // measure 57
0001
0100
0001
0100
,  // measure 58
0001
1000
0001
1000
,  // measure 59
0100
1000
0100
1000
,  // measure 60
0001
1000
0001
1000
,  // measure 61
0001
1000
0100
1000
,  // measure 62
0001
0100
0010
0100
,  // measure 63
0001
0010
0100
1000
,  // measure 64
2002
0000
0000
3003
,  // measure 65
1001
0000
1000
0000
0001
0010
0000
0001
,  // measure 66
1000
0001
0000
0001
0000
0001
1000
0010
,  // measure 67
0000
0010
0000
0010
0000
0010
0100
0001
,  // measure 68
0000
0001
0000
0001
0000
0001
0010
0100
,  // measure 69
1000
0000
0001
0000
0100
0001
0000
0001
,  // measure 70
1000
0100
0000
0100
0000
0100
0010
0001
,  // measure 71
1000
0000
1001
0000
0001
0000
1000
0001
,  // measure 72
0000
0001
1000
0000
0100
1000
0100
1000
,  // measure 73
0002
0000
1003
0000
0001
0000
1000
0010
,  // measure 74
0000
1000
0000
0000
0001
0010
0001
1000
,  // measure 75
0000
0000
0100
0000
0010
0000
0100
1000
,  // measure 76
0000
1000
0000
0001
1000
0000
0010
0000
,  // measure 77
0110
0000
0100
1000
0100
0000
1000
0010
,  // measure 78
0100
0000
0001
1000
0001
0000
0010
0001
,  // measure 79
0100
0010
0100
0010
0100
0010
0100
0010
,  // measure 80
0000
0000
0000
0100
,  // measure 81
0220
0000
0000
0000
,  // measure 82
0000
0000
0000
0000
,  // measure 83
0330
0000
0000
0000
;

//---------------dance-single - ----------------
#NOTES:
     dance-single:
     :
     Hard:
     11:
     0.588,0.680,0.261,0.292,0.170:
2002
0000
0000
0000
0000
3003
0002
0020
,
0000
0000
0000
0033
0001
1000
0100
0010
,
0000
0000
0202
0000
0000
0303
0002
2000
,
0000
0000
3003
0001
0000
0001
1000
0010
,
0110
0000
0100
0000
0001
1000
0000
1100
,
0000
0000
1000
0000
0001
0010
0100
1000
,
0000
0000
0100
1000
0010
0100
0002
1000
,
0000
1000
0000
1003
0001
0010
0100
0000
,
2000
3010
0200
0301
,
2000
3001
0020
0031
,
2000
3100
0020
0130
,
2000
3001
0020
0031
,
1000
0100
0010
0000
0010
0100
1000
0000
,
1000
0001
0100
0000
0100
0001
1000
0000
,
0001
0001
1000
1000
0010
0100
0010
0100
,
0001
0010
0100
1000
0100
0010
0011
0000
,
1001
0000
0000
0000
1000
0000
0000
0010
0000
0000
0100
0000
0000
0001
0000
0000
,
1000
0000
0000
0100
0000
0000
0001
0000
0000
0100
0000
0000
1000
0001
1000
0000
,
0000
0001
0000
0000
0010
0000
0000
0100
0000
0000
0010
0000
0000
0001
0000
0000
,
0010
0000
0000
1000
0000
0000
0010
0000
0000
0001
0000
0000
1000
0001
1000
0000
,
1010
0000
0000
0000
0100
0000
0000
0001
0000
0000
0010
0000
0000
0100
0000
0000
,
0010
0000
0000
0001
0000
0000
1000
0000
0000
0010
0000
0000
0110
0000
0000
0000
,
0101
0000
0001
0001
1000
0100
0010
0000
,
1100
0000
1000
1000
0001
0100
0010
0000
,
0110
0000
0000
0000
0101
0000
0000
0001
0000
0000
1000
0000
0000
0100
0000
0000
,
0010
0000
0000
0100
0000
0000
1000
0000
0000
0001
0000
0000
0100
0001
0100
0000
,
0000
0001
0000
0000
1000
0000
0000
0100
0000
0000
0001
0000
0000
0100
0000
0000
,
1000
0000
0000
0010
0000
0000
0100
0000
0000
0001
0000
0000
0010
0001
0010
0000
,
0002
0000
0000
0000
1003
0000
0000
0001
0000
0000
0010
0000
0000
0001
0000
0000
,
1000
0000
0000
0010
0000
0000
0001
0000
0000
0010
0000
0000
1000
0000
0000
0000
,
0100
0010
0001
0000
0001
0010
0100
0000
,
1000
0010
0100
0000
0100
0010
1000
0000
,
1001
0000
0000
0001
0100
0000
0100
0000
0001
0000
1000
0000
0100
0000
1100
0000
,
0000
1002
0000
0000
1003
0010
0001
0010
,
1000
0001
1001
0000
1000
0010
0100
0101
,
0000
0000
1001
0000
0000
0000
1000
0001
1000
0000
0100
0000
0001
0000
0100
0000
,
2000
0000
0000
0000
3001
0000
0010
0000
0100
0000
0010
0000
0001
0000
1000
0010
,
1000
0010
1000
0010
1000
0000
0100
0000
0010
0000
0001
0000
1000
0000
0100
0000
,
2100
0000
3001
0100
0010
0100
0000
0102
,
0000
0023
0000
0230
0000
1300
0001
0100
,
0101
0000
0000
0001
1000
0000
1000
0000
0001
0000
0010
0000
0100
0000
0010
0000
,
0000
0000
0000
0000
0101
0000
0000
0000
0001
1000
0001
0000
0010
0000
0100
0000
,
1000
0000
1100
0000
1000
0010
0100
0020
,
0000
0000
1030
0001
0010
0100
0010
0002
,
0000
0000
0000
0000
1003
0001
1000
0000
0010
0000
0100
0000
0010
0000
1000
0000
,
0001
0000
0010
0000
0100
0000
0010
0000
0001
0100
0001
0000
0100
0000
0010
0000
,
0100
0001
0010
0010
0100
0100
1000
0002
,
0000
0000
0000
1003
,
0202
0000
0300
2000
,
0000
0000
0000
3003
,
0000
0000
2000
0000
0000
0000
3001
0020
,
0000
0000
0000
0031
0000
0001
1000
0100
,
0010
0000
0000
0000
0001
1000
0000
1001
,
0000
0000
0010
0000
0000
0010
0000
0010
,
0000
0000
0110
0000
0000
0100
0000
0110
,
0000
0010
0000
0010
0000
1000
0010
1000
,
0001
0010
0001
0010
0100
0000
0100
1000
,
0001
0000
0001
0100
0010
0000
0010
0000
,
0010
1000
0010
1000
0100
0000
0100
0010
,
0001
0000
0001
1000
0100
0000
0100
0000
,
0100
0010
0100
0010
0001
1000
0000
1000
,
0010
0100
0000
0100
0000
0100
0001
0010
,
0100
1000
0100
1000
0001
1000
0001
1000
,
2002
0000
0000
3003
,
0001
0100
0010
0100
0001
1000
0000
1000
,
0100
0010
0000
0010
0000
0010
0001
1000
,
0000
1000
0000
1000
0000
1000
0001
0100
,
0000
0100
0000
0100
0000
0100
0001
0010
,
0100
1000
0001
0100
0010
0100
0000
0100
,
0001
0010
0000
0010
0000
0010
0100
1000
,
1100
0000
0011
0000
1001
1000
0010
0010
,
0000
0100
0001
0010
0100
0010
0001
0100
,
0020
0000
1030
0001
0010
0000
0010
0001
,
0100
0001
0001
0010
0100
1000
0001
0010
,
0000
0000
0001
0100
0010
0100
0001
1000
,
0000
1000
0000
1000
0001
0010
0100
1000
,
1001
0000
0000
1000
0010
0000
0000
0010
0100
0000
0000
0100
0001
0000
0000
0001
,
1000
0100
0010
0000
0001
0100
1000
0100
,
0001
1000
0010
0100
0010
1000
0001
0010
,
0000
0010
0000
0010
0000
0010
0001
1000
,
2002
0000
0000
0000
,
0000
0000
0000
0000
,
3003
0000
0000
0000
;

//---------------dance-single - ----------------
#NOTES:
     dance-single:
     :
     Challenge:
     14:
     0.724,0.777,0.221,0.237,0.423:
0022
0000
0000
0000
0000
0033
0020
0200
,
0000
0000
0000
0330
0100
1000
0010
0100
,
0000
0000
2020
0000
0000
3030
0020
0200
,
0000
0000
0330
0100
0000
0100
0001
1000
,
1001
0000
0011
0000
0200
0010
0000
0310
,
1000
0000
0000
0000
0001
0000
1000
0001
1000
0000
0100
0000
0010
0000
0001
0000
,
0000
0000
0001
0100
0010
1000
0002
1000
,
0000
1000
0000
1003
0001
0010
0100
0000
,
1000
0100
1000
0000
1000
0001
1000
0000
,
1000
0100
1000
0000
1000
0001
1000
0000
,
0001
0100
0001
0000
0001
1000
0001
0000
,
0001
0100
0001
0000
0001
1000
0001
0000
,
0001
0010
0100
1000
0100
0010
0001
0100
,
0010
1000
0010
0100
0010
1000
0001
0010
,
0001
0001
1000
1000
0010
0010
0100
0100
,
0001
0010
0001
0010
0001
0010
0100
1000
0100
1000
0100
1000
0001
0000
0000
0000
,
1000
0001
0000
0000
0001
0000
0100
0010
0000
0000
0010
0000
0000
1000
0000
0000
,
0010
0000
0000
0001
0000
0000
0010
0000
0000
1000
0000
0000
0001
1000
0001
0000
,
0100
0001
0000
0000
0001
0000
0010
0100
0000
0000
0100
0000
0000
1000
0000
0000
,
0100
0000
0000
0001
0000
0000
0100
0000
0000
1000
0000
0000
0001
1000
0001
0000
,
0010
0001
0000
0000
0001
0000
1000
0010
0000
0000
0010
0000
0000
1000
0000
0000
,
0100
0000
0000
0001
0000
0000
0100
0000
0000
1000
0000
0010
0100
0000
0000
0000
,
0110
0010
1000
0100
0010
0100
1000
0010
,
0001
0000
0010
0000
1000
0000
0001
1000
0001
0000
0010
0000
0100
0000
0000
0000
,
1100
0000
0000
0000
1000
0000
0001
0100
0000
0000
0100
0000
0000
0010
0000
0000
,
1000
0000
0000
0100
0000
0000
0001
0000
0000
0100
0000
0000
1000
0001
1000
0000
,
0001
0100
0000
0000
0100
0000
0001
1000
0000
0000
1000
0000
0000
0100
0000
0000
,
0010
0000
0000
0100
0000
0000
1000
0000
0000
0001
0000
0000
0010
0001
0010
0000
,
0002
0000
0000
0000
1003
0000
0000
1000
0001
0000
0000
0001
1000
0000
0000
1000
,
0010
0000
0000
0010
0100
0000
0000
0100
0001
0000
0000
0001
1000
0000
0000
1000
,
0001
0010
1000
0010
0001
0100
1000
0100
,
0001
0010
0100
1000
0001
0010
0100
1000
,
1001
0000
0000
1000
0001
0000
0001
0000
0100
0010
0100
0010
0100
0000
0101
0000
,
0000
2001
0000
0000
3100
0100
0010
0010
,
0100
1000
1001
0000
0001
1000
0100
1100
,
0000
0000
0110
0000
0000
0000
0100
0001
1000
0000
0100
1000
0100
0000
0010
0000
,
0012
0000
0000
0000
1003
0000
0010
0000
0100
0000
0001
0000
0010
0000
0001
1000
,
0001
1000
0001
1000
0001
0000
0010
0000
0100
0000
1000
0010
1000
0010
1000
0000
,
1002
0000
0013
0100
1000
0001
0000
0101
,
0000
0100
0010
0010
1000
1000
0001
0010
,
0011
0000
0000
0001
1000
0000
1000
0000
0010
0000
0100
0000
0001
0000
0010
0000
,
0001
0010
0001
0010
0001
0000
1000
0000
0001
1000
0001
1000
0100
1000
0100
0000
,
0010
0000
0001
0100
0010
0000
0100
0000
0001
0000
0010
0000
0100
0000
2000
0000
,
0000
0000
3001
0000
1000
0000
0010
0000
0100
0000
0010
0100
0010
0000
2000
0000
,
0000
0000
0000
0000
3001
1000
0001
0000
0010
0000
1000
0000
0010
0000
0001
0000
,
1000
0000
0100
0000
0001
0000
0100
0000
1000
0001
1000
0000
0010
0000
0100
0000
,
0001
1000
0001
1000
0001
1000
0001
1000
0100
1000
0100
1000
0100
1000
0200
0000
,
0000
0000
0000
1300
,
0220
0000
0030
0002
,
0000
0000
0000
0303
,
0000
0000
0002
0000
0000
0000
1003
0002
,
0000
0000
0000
1003
0000
0001
1000
0010
,
0120
0000
0130
0000
0001
1000
0000
1002
,
0000
0000
1003
0001
0100
0001
0000
0001
,
0000
0000
2001
0000
0000
3100
0000
0120
,
0000
0100
0000
0130
0000
0001
0001
1000
,
1000
0000
0000
1000
0001
0000
0010
0000
0100
0000
0000
0100
1000
0000
0010
0000
,
0100
0000
0000
0100
0001
0000
1000
0100
1000
0000
0100
0000
0010
0000
0001
0000
,
1000
0000
0000
1000
0001
0000
0100
0000
0010
0000
0000
0010
1000
0000
0100
0000
,
0010
0000
0000
0010
0001
0000
1000
0010
1000
0000
0100
0000
0010
0000
0001
0000
,
1000
0000
0100
0000
0010
0000
0100
0000
1000
0000
0001
0000
0100
0000
0010
0100
,
0001
0000
1000
0000
0100
0000
1000
0000
0001
0000
0100
0000
0010
1000
0100
0000
,
0010
0001
0010
0001
0010
0001
0010
0001
1000
0001
1000
0001
1000
0001
1000
0001
,
2000
0000
0000
3001
,
1000
0000
0001
0000
0010
0000
0001
0000
1000
0000
0001
0000
0010
0001
1000
0000
,
0100
0001
0100
1000
0100
0001
0100
0010
,
0001
0010
1000
0010
0001
1000
0100
1000
,
0001
0100
1000
0100
0001
1000
0010
0100
,
0101
0000
0001
1000
0100
0000
1000
0000
0001
0000
1000
0000
0100
0000
1000
0000
,
0001
1000
0010
0001
0010
1000
0001
0100
,
0101
0000
1010
0000
1001
0001
0100
0110
,
0000
0000
0010
0000
1000
0000
0100
0000
0010
0000
0100
1000
0100
1000
0010
1000
,
0020
0000
0000
0000
1030
0000
0001
0000
0010
0000
0001
0010
0100
0000
1000
0000
,
0010
1000
1000
0001
0010
1000
0010
0001
,
1000
0100
1000
0001
0100
0010
0100
0001
,
0100
1000
0100
0001
1000
0010
0100
0001
,
1001
0000
1000
0100
1000
0000
0010
0100
0010
0000
0100
0001
0100
0000
0001
1000
,
0001
1000
1000
0001
1000
0100
0001
0100
,
1000
0001
1000
0001
1000
0001
1000
0100
1000
0100
1000
0100
1000
0100
1000
0000
,
0000
0000
1000
0000
0000
0000
1000
0000
0000
0000
1000
0010
0100
0000
0100
0000
,
0220
0000
0000
0000
,
0000
0000
0000
0000
,
0330
0000
0000
0000
;

//---------------dance-single - ----------------
#NOTES:
     dance-single:
     :
     Beginner:
     3:
     0.114,0.158,0.079,0.000,0.000:
0000
0000
0000
0000
,
0000
0000
0000
0000
,
0000
0000
0000
0000
,
0000
0000
0000
0000
,
1000
0000
0001
0000
,
1000
0000
0000
0000
,
0001
0000
1000
0000
,
0001
0000
0000
0000
,
1001
0000
0000
0000
,
0010
0000
0000
0000
,
0100
0000
0000
0000
,
0010
0000
0000
0000
,
0100
0000
0000
0000
,
1000
0000
0000
0000
,
0001
0000
1000
0000
,
0001
0000
0000
0000
,
1001
0000
0000
0000
,
1000
0000
0000
0000
,
0001
0000
0000
0000
,
0100
0000
0000
0000
,
0001
0000
0000
0000
,
1000
0000
0000
0000
,
1001
0000
0000
0000
,
0000
0000
0000
0000
,
0010
0000
0000
0000
,
0100
0000
0000
0000
,
0001
0000
0000
0000
,
0100
0000
0000
0000
,
0010
0000
0000
0000
,
1000
0000
0000
0000
,
1001
0000
0000
0000
,
0001
0000
0000
0000
,
1001
0000
0000
0000
,
0001
0000
0000
0000
,
0100
0000
0000
0000
,
0010
0000
0000
0000
,
1000
0000
0000
0000
,
0001
0000
0000
0000
,
1000
0000
0000
0000
,
0000
0000
0000
0000
,
1001
0000
0000
0000
,
0001
0000
1000
0000
,
0001
0000
0000
0000
,
0010
0000
0000
0000
,
0001
0000
0000
0000
,
1000
0000
0000
0000
,
0001
0000
0000
0000
,
1000
0000
0000
0000
,
1001
0000
0000
0000
,
0000
0000
0000
0000
,
0000
0000
0000
0000
,
0000
0000
0000
0000
,
0001
0000
1000
0000
,
0001
0000
0000
0000
,
0010
0000
0000
0000
,
0001
0000
0000
0000
,
1001
0000
0000
0000
,
1000
0000
0000
0000
,
0100
0000
0000
0000
,
0010
0000
0000
0000
,
0001
0000
1000
0000
,
0001
0000
1000
0000
,
0001
0000
0000
0000
,
0110
0000
0000
0000
,
0100
0000
0010
0000
,
0100
0000
0000
0000
,
0001
0000
1000
0000
,
0001
0000
0000
0000
,
0010
0000
0001
0000
,
0010
0000
0001
0000
,
1000
0000
0001
0000
,
1000
0000
0000
0000
,
0010
0000
1000
0000
,
0010
0000
0100
0000
,
0001
0000
1000
0000
,
0001
0000
0010
0000
,
0100
0000
1000
0000
,
0100
0000
1000
0000
,
0001
0000
0001
0000
,
1000
0000
0000
0000
,
1001
0000
0000
0000
;
