#TITLE:N;
#SUBTITLE:;
#ARTIST:BANYA;
#TITLETRANSLIT:;
#SUBTITLETRANSLIT:;
#ARTISTTRANSLIT:;
#CREDIT:DigiMindAxel;
#BANNER:N.png;
#BACKGROUND:N-bg.png;
#LYRICSPATH:;
#CDTITLE:PUMP IT UP.png;
#MUSIC:N.mp3;
#METERTYPE:DDR X;
#OFFSET:-6.878;
#SAMPLESTART:49.873;
#SAMPLELENGTH:12.000;
#SELECTABLE:YES;
#BPMS:0.000=106.000;
#STOPS:;
#BGCHANGES:-12.000=N.avi=1.000=1=1=0,
99999=-nosongbg-=1.000=0=0=0 // don't automatically add -songbackground-
;

//---------------dance-single - ----------------
#NOTES:
     dance-single:
     :
     Easy:
     5:
     0.222,0.263,0.314,0.039,0.000: // measure 1
1001
0001
1000
0110
,  // measure 2
0001
0110
1000
0001
,  // measure 3
1001
0010
0100
0110
,  // measure 4
1000
0001
1001
0000
,  // measure 5
0020
0000
1030
1000
,  // measure 6
0002
0000
0103
0100
,  // measure 7
0001
0010
0100
1000
,  // measure 8
0001
1000
0001
1000
,  // measure 9
0010
0100
0010
0100
,  // measure 10
0001
0010
0100
1000
,  // measure 11
0000
0000
0000
0000
,  // measure 12
1001
0000
0001
1001
,  // measure 13
1000
0100
0010
0001
,  // measure 14
0100
0010
0100
0010
,  // measure 15
1000
0000
0000
1001
,  // measure 16
0001
0100
0001
1000
,  // measure 17
0010
1000
0010
1000
,  // measure 18
0001
1000
0001
1000
,  // measure 19
0100
0000
0000
0000
,  // measure 20
1001
1001
0001
0000
,  // measure 21
1001
1001
1000
0000
,  // measure 22
1001
1001
0001
0000
,  // measure 23
0110
0010
0100
0010
,  // measure 24
0001
0000
0000
0000
,  // measure 25
0000
0000
0000
0000
,  // measure 26
0000
0000
0000
0000
,  // measure 27
0000
0000
0000
0000
,  // measure 28
0000
1000
0001
1000
,  // measure 29
0100
0010
0001
0010
,  // measure 30
0100
1000
0001
1000
,  // measure 31
0001
0100
0001
1000
,  // measure 32
1001
0001
0000
0001
,  // measure 33
0000
1001
1001
1000
,  // measure 34
0000
0110
0110
0100
,  // measure 35
0000
1001
1001
0001
,  // measure 36
0000
0110
0100
0010
,  // measure 37
0100
1001
1001
0001
,  // measure 38
0000
0110
0110
0010
,  // measure 39
0000
1001
1001
1000
,  // measure 40
0000
0110
0100
0010
,  // measure 41
0001
2002
0000
0000
,  // measure 42
0000
3003
0000
0000
;

//---------------dance-single - ----------------
#NOTES:
     dance-single:
     :
     Hard:
     10:
     0.480,0.486,0.373,0.049,0.275:
1001
0000
1000
0100
1100
0000
1001
1001
,
0100
0000
0110
0110
0001
0010
0100
1000
,
0001
0000
0000
0000
1000
0000
0010
0000
0100
0000
0110
0000
0110
0000
0001
1000
,
0001
0000
0000
0000
0010
0001
0100
0010
0100
0000
0000
0000
0100
0000
0000
0000
,
0001
1000
0020
0000
1030
0001
1001
0000
,
0001
0100
0010
1000
0010
0100
0001
1000
,
1001
0000
0001
0010
0001
0000
0010
0000
0100
0000
1000
0000
1001
0000
0001
0000
,
1000
0000
0100
0000
0010
0000
0001
0000
0100
0000
0010
0100
0000
0100
0000
0000
,
0001
1000
0001
1000
0001
0000
0000
0000
1000
0100
1000
0000
0001
0000
0100
0000
,
0010
0100
0000
0100
0010
0000
1000
0000
0100
0000
0010
0000
0001
0000
0000
0000
,
1001
0000
0100
0000
1100
1000
1001
0000
,
0001
0000
1000
0010
1000
0000
0001
0000
0010
0000
0100
0000
1000
0000
0000
0000
,
0010
0000
1000
0001
1000
0000
0100
0000
0010
0000
0001
0000
1000
0000
0000
0000
,
0100
0000
0010
0100
0010
0000
0001
0000
1000
0000
0010
0000
0100
0000
0000
0000
,
2001
0100
0001
3100
,
1000
0000
0001
0010
0001
0000
1000
0000
0010
0000
0100
0000
0001
0000
0000
0000
,
0010
0000
0100
0010
0100
0000
1000
0000
0010
0000
0100
0000
0010
0000
0000
0000
,
0100
0000
0001
1000
0001
0000
0010
0000
0100
0000
1000
0000
0001
0000
0000
0000
,
2001
0100
0001
3100
,
1000
0100
1000
0000
1000
0001
1000
0000
0001
0000
0100
0000
0101
0000
0000
0000
,
0010
0100
0010
0000
0010
1000
0010
0000
1000
0000
0001
0000
1001
0000
0000
0000
,
0001
0010
0001
0000
0001
1000
0001
0000
1000
0000
0010
0000
0110
0000
0000
0000
,
0010
1000
0010
0000
0100
0010
0100
0000
0001
1000
0001
0000
0010
0000
0100
0000
,
1100
1000
0000
0000
,
0000
0000
0000
0000
,
0000
0000
0000
0000
,
0000
0000
0000
0000
,
0000
0000
0000
0000
1000
0001
1000
0001
1000
0000
0010
0100
0001
0000
0100
0000
,
0101
0000
0000
0000
0001
0000
1000
0100
1000
0100
0010
0000
0001
0100
0001
0100
,
0010
0000
0000
0000
1000
0001
1000
0000
0001
0100
0001
0000
1000
0010
1000
0000
,
1001
0000
0000
0000
0001
0000
0100
0010
0100
0000
0001
0000
1000
0000
0000
0000
,
1001
0000
0000
0000
0001
0000
0001
0000
1000
0001
1000
0000
0100
0000
0100
0000
,
1100
0000
0000
0000
1000
0001
1000
0000
1000
0010
1000
0000
0001
0000
0011
0000
,
1001
0000
0000
0000
0100
1000
0100
0000
0100
0010
0100
0000
1000
0000
1001
0000
,
0011
0000
0000
0000
0001
1000
0001
0000
0001
0010
0001
0000
1000
0000
1010
0000
,
1001
0000
0000
0000
0001
0010
0100
0000
0010
0001
0010
0000
0100
1000
0010
0000
,
0110
0000
0000
0000
0100
0001
0100
0000
0100
0010
0100
0000
0001
0000
1001
0000
,
1100
0000
0000
0000
1000
0001
1000
0000
1000
0100
1000
0000
0010
0000
0110
0000
,
0101
0000
0000
0000
0001
0010
0001
0000
0001
1000
0001
0000
1000
0000
1001
0000
,
0110
0000
0000
0000
0100
1000
0010
0000
0100
0010
0100
0000
0001
0010
0100
0000
,
1000
2002
0000
0000
,
0000
3003
0000
0000
;

//---------------dance-single - ----------------
#NOTES:
     dance-single:
     :
     Challenge:
     13:
     0.621,0.628,0.461,0.098,0.623:
1001
0000
0000
0000
0001
0100
0010
0100
0001
0000
1000
0000
0100
0000
0100
0000
,
1000
0000
0001
0000
0100
0000
0100
0000
0001
0000
0010
0100
1000
0100
0010
0001
,
0100
0000
0010
0100
0010
0100
0001
0000
1001
0000
0110
0000
1001
0000
1000
0010
,
0100
0001
0000
0000
0001
0010
0100
1000
0001
0000
0100
0000
0110
0000
0000
0000
,
0100
0010
0001
0010
0200
0000
0000
0000
1300
0001
0100
0000
0101
0000
0000
0000
,
0010
1000
0010
1000
0100
0010
0001
0000
1000
0000
1100
0000
0100
1000
0010
1000
,
0100
0000
1000
0100
0010
0000
0010
0000
0101
0000
0110
0000
1010
0000
0110
0000
,
0100
1000
0100
0010
0001
0000
0001
0000
1001
0000
1000
0010
0000
1000
0000
0000
,
0001
0010
0001
0010
0100
0000
0000
0000
1000
0010
1000
0010
0100
0000
0001
0000
,
0010
0100
0000
1000
0001
1000
0000
0010
0100
0000
0100
0000
0101
0000
0000
0000
,
0001
0001
1001
0000
1000
1000
1001
0000
,
1200
0000
0000
0000
1000
0000
1300
0001
0100
0010
0100
0000
0101
0000
0000
0000
,
0100
0000
0001
0000
0010
0001
0000
1000
0100
0010
0100
0000
0110
0000
0000
0000
,
0010
0000
1000
0000
0100
0000
1000
0001
1000
0010
0100
0000
0110
0000
0000
0000
,
0201
0010
0302
1000
,
0203
0000
0000
0000
0010
0000
0310
1000
0100
0010
0001
0000
0011
0000
0000
0000
,
0010
0000
1000
0000
0100
1000
0000
0001
1000
0100
0010
0100
1000
0000
0000
0000
,
0001
0000
0010
0000
0001
1000
0001
1000
0010
0100
0001
0100
0010
0000
0000
0000
,
0201
0000
0010
0000
0302
1000
1003
0000
,
1001
0001
0100
0000
1001
0001
0100
0000
0001
1000
0100
0010
0001
1000
0001
0000
,
1001
1000
0100
0000
1001
1000
0100
0000
1000
0001
0100
0010
1000
0001
1000
0000
,
1001
0001
0010
0000
1001
0001
0010
0000
0001
1000
0010
0100
0001
1000
0001
0000
,
1000
0100
1000
0000
1000
0010
0100
0000
0100
0001
0010
0100
1000
0100
0010
0000
,
1001
0020
0000
0000
,
0000
0000
0000
0000
,
0000
0000
0000
0000
,
0000
0000
0000
0000
,
0130
0000
0000
0000
0001
0010
0100
0010
0001
0000
1000
0001
0100
0000
0100
0000
,
1010
0000
0110
0000
0010
0000
1000
0100
0010
0100
1000
0000
0001
0100
0010
1000
,
0001
0000
0000
0000
1000
0100
0001
0100
1000
0001
1000
0001
1000
0010
0001
0010
,
1000
0001
1000
0001
1000
0000
0100
1000
0010
0100
0010
0000
0110
0000
0100
0000
,
0101
0000
0000
0000
0001
0000
0001
0000
0001
0010
0100
0000
1000
0000
1000
0000
,
1010
0000
0000
0000
1001
1000
0100
0000
1001
1000
0100
0000
1000
0001
0100
0010
,
0100
0001
1000
0000
1001
0001
0010
0000
1001
0001
0010
0000
0001
1000
0010
1000
,
0001
1000
0010
0000
1001
1000
0010
0000
1001
1000
0010
0000
1000
0001
0010
0001
,
1000
0001
0010
0000
0001
1000
0001
0000
0001
0010
0100
0000
0100
1000
0010
0100
,
0001
1000
0001
0000
1001
1000
0010
0000
1001
1000
0010
0000
1000
0001
0010
0100
,
1000
0001
1000
0000
1001
0001
0100
0000
1001
0001
0100
0000
0001
1000
0100
0010
,
0001
1000
0001
0000
1001
1000
0100
0000
1001
1000
0100
0000
1000
0001
0100
0010
,
1000
0001
1000
0000
0001
0010
0100
0000
0100
1000
0001
0000
0001
1000
0100
0010
,
0001
0100
0010
0000
2002
0000
0000
0000
0000
0000
0000
0000
0000
0000
0000
0000
,
0000
3003
0000
0000
;

//---------------dance-single - ----------------
#NOTES:
     dance-single:
     :
     Medium:
     7:
     0.331,0.304,0.452,0.020,0.000:
1001
0000
0010
0100
0001
0000
0101
0000
,
0100
0000
0110
0000
1000
0010
0100
0000
,
1001
0000
0001
0010
0100
0100
0100
0000
,
1100
1000
1001
0000
,
1001
0100
0010
0001
,
0100
0010
0100
0010
1000
0001
1000
0000
,
1001
0100
0010
0101
,
0100
0110
0001
1001
,
1000
0011
0001
1100
,
0110
1001
0110
1001
,
0001
0000
0001
0000
0001
0000
0001
1000
,
0100
0010
0001
0110
,
1000
0100
1000
0000
0001
0010
0001
0000
,
1000
0001
1000
0100
0010
0001
0010
0100
,
1000
0100
1000
0001
,
0110
1000
0010
0110
,
1000
0001
0100
0101
,
0001
1000
0001
0100
0010
1000
0010
0100
,
0001
0010
0100
1100
,
1001
0000
1001
0000
0010
0010
0010
0000
,
1001
0000
1001
0000
0010
0010
0010
0000
,
1001
0000
1001
0000
0010
0010
0010
0000
,
1000
0100
0010
0001
0010
0100
1000
0000
,
1001
0001
0000
0000
,
0000
0000
0000
0000
,
0000
0000
0000
0000
,
0000
0000
0000
0000
,
0000
1000
0010
0110
,
0000
0000
0100
0001
1000
0100
0010
0001
,
1000
0001
0100
0110
,
0110
0000
0001
0100
0001
0100
0010
0000
,
1001
0000
1000
1000
1000
0000
0001
0001
,
0001
0000
1001
0000
1001
0000
0100
0100
,
0100
0000
1001
0000
1001
0000
0100
0100
,
0100
0000
1001
0000
1001
0000
0100
0100
,
0100
0000
0001
0010
0100
1000
0100
0010
,
0001
0000
1001
0000
1001
0000
0010
0010
,
0010
0000
1001
0000
1001
0000
0010
0010
,
0010
0000
1001
0000
1001
0000
0010
0010
,
0010
0000
1000
0010
0100
0001
0100
0010
,
1000
2002
0000
0000
,
0000
3003
0000
0000
;

//---------------dance-single - ----------------
#NOTES:
     dance-single:
     :
     Beginner:
     2:
     0.109,0.119,0.128,0.000,0.000: // measure 1
0001
0000
0000
1000
,  // measure 2
0000
1000
0000
0000
,  // measure 3
0100
0000
0000
0000
,  // measure 4
0010
0000
0000
0000
,  // measure 5
0001
0000
1000
0000
,  // measure 6
0001
0000
1000
0000
,  // measure 7
0100
0000
0100
0000
,  // measure 8
0010
0000
0010
0000
,  // measure 9
0100
0000
0100
0000
,  // measure 10
1000
0001
1000
0000
,  // measure 11
0000
0000
0000
0000
,  // measure 12
1001
0000
0001
0000
,  // measure 13
1000
0000
0100
0000
,  // measure 14
1000
0000
0010
0000
,  // measure 15
0100
0000
0100
0000
,  // measure 16
0001
0000
1000
0000
,  // measure 17
0001
0000
1000
0000
,  // measure 18
0001
0000
0100
0000
,  // measure 19
0010
0000
0010
0000
,  // measure 20
0110
0000
0000
0000
,  // measure 21
1001
0000
0000
0000
,  // measure 22
0110
0000
0000
0000
,  // measure 23
1001
0000
0001
0000
,  // measure 24
1000
0000
0000
0000
,  // measure 25
0000
0000
0000
0000
,  // measure 26
0000
0000
0000
0000
,  // measure 27
0000
0000
0000
0000
,  // measure 28
0000
1000
0000
0100
,  // measure 29
0000
1000
0000
0000
,  // measure 30
0000
0001
0000
0010
,  // measure 31
0000
0001
0000
0000
,  // measure 32
0000
0110
0000
0000
,  // measure 33
0000
1001
0000
1000
,  // measure 34
0000
1001
0000
0001
,  // measure 35
0000
1001
0000
1000
,  // measure 36
0000
0001
0000
1000
,  // measure 37
0000
1001
0000
0001
,  // measure 38
0000
1001
0000
1000
,  // measure 39
0000
1001
0000
0001
,  // measure 40
0000
0100
0010
0100
,  // measure 41
0000
0110
0000
0000
;
