#TITLE:Mynarco;
#SUBTITLE:;
#ARTIST:positive MAD-crew;
#TITLETRANSLIT:;
#SUBTITLETRANSLIT:;
#ARTISTTRANSLIT:;
#CREDIT:DigiMindAxel;
#BANNER:Mynarco.png;
#BACKGROUND:Mynarco-bg.png;
#LYRICSPATH:Mynarco.lrc;
#CDTITLE:pop'n music.png;
#MUSIC:Mynarco.mp3;
#METERTYPE:DDR X;
#OFFSET:-5.775;
#SAMPLESTART:32.274;
#SAMPLELENGTH:12.000;
#SELECTABLE:YES;
#BPMS:0.000=181.000;
#STOPS:;
#BGCHANGES:;

//---------------dance-single - ----------------
#NOTES:
     dance-single:
     :
     Easy:
     6:
     0.320,0.343,0.037,0.056,0.000:
1001
0000
0000
0000
,
1000
0000
0000
0000
,
0001
0000
1000
0000
,
0001
1000
0001
1000
,
0001
0000
0010
0000
,
0001
0000
0100
0000
,
0001
0000
0010
0000
,
0001
0001
0001
0000
,
1000
0000
0100
0000
,
1000
0000
0010
0000
,
1000
0000
0100
0000
,
1000
1000
1000
0000
,
0010
0000
0100
0000
,
0001
0000
0010
0000
,
0100
0000
0010
0000
,
0001
0001
0001
0000
,
0100
0000
0010
0000
,
1000
0000
0100
0000
,
0010
0000
0100
0000
,
1000
1000
1000
0000
,
1001
0000
1000
0001
,
1000
0000
0100
0010
,
0100
0000
1000
0001
,
1000
0100
1000
0100
,
1000
0001
1000
0000
,
0010
0100
0010
0000
,
0100
0001
0100
0000
,
0001
1000
0001
1000
,
0001
0010
0001
0000
,
0100
0010
0100
0000
,
0001
1000
0001
1000
,
0001
0010
0100
1000
,
0010
0100
0010
0000
,
0100
0001
0100
0000
,
0001
1000
0001
1000
,
0001
0100
0010
1000
,
0002
0000
2003
0000
,
3002
0000
2003
0000
,
3020
0000
0230
0000
,
0310
0000
0000
0000
,
1001
1000
0001
1000
,
0100
1000
0001
1000
,
0100
1000
0001
1000
,
0100
1000
0001
0000
,
0010
0001
0100
0010
,
0100
0001
0010
0001
,
0100
0010
0100
0001
,
0010
0001
1000
0001
,
1000
0100
0010
0100
,
1000
0100
0010
0100
,
1000
0100
0010
0100
,
1000
0010
0100
0001
,
0010
0100
0010
0001
,
0100
0010
0100
0001
,
0010
0100
0010
0001
,
0100
0010
0100
0001
,
1000
0001
1000
0000
,
0100
1000
0100
0000
,
1001
0000
0001
1000
,
0001
0000
0010
0001
,
0010
0001
0010
0001
,
1000
0000
0010
0000
,
0100
0001
0100
0001
,
1000
0000
0100
1000
,
0100
1000
0100
0000
,
1000
0001
1000
0100
,
1000
0010
0100
0000
,
0010
0100
0010
0100
,
0001
1000
0100
0010
,
0001
1000
0001
1000
,
0010
0100
0010
0100
,
0001
1000
0001
1000
,
0001
0010
0100
1000
,
0100
0010
0001
1000
;

//---------------dance-single - ----------------
#NOTES:
     dance-single:
     :
     Medium:
     8:
     0.493,0.514,0.065,0.186,0.000:
1001
0000
0000
0000
,
1000
0000
0001
0000
,
1000
0100
1000
0100
,
1000
0001
1000
0000
0001
1000
0001
0000
,
1000
0000
0000
0100
0000
0000
0010
0000
,
0100
1000
0100
0000
0010
0100
0010
0000
,
0001
0000
0000
0100
0000
0000
0010
0000
,
0100
0001
0100
0000
0010
1000
0010
0000
,
1000
0000
0000
0100
0000
0000
0010
0000
,
0100
1000
0001
0100
,
0001
0000
0000
0100
0000
0000
0010
0000
,
0100
0010
0100
0000
0001
1000
0001
0000
,
1000
0000
0000
0001
0000
0000
0010
0000
,
0100
0010
0001
0010
,
0100
0000
0000
1000
0000
0000
0010
0000
,
0100
0010
0100
0000
0001
1000
0001
0000
,
0100
0000
0000
0010
0000
0000
0100
0000
,
0001
0010
0100
1000
,
0001
0100
0001
0000
1000
0010
1000
0000
,
0001
0010
0100
1000
0001
0000
0001
0000
,
0200
0001
0010
0301
,
2000
0000
0000
3100
,
0010
0001
1000
0100
,
1000
0001
1000
0000
0001
1000
0001
0000
,
0020
0100
0130
0001
,
0020
0000
0000
0031
,
1000
0100
1000
0001
,
0100
0010
0100
0000
0010
0100
0010
0000
,
2000
0010
3100
0010
,
0002
0000
0000
1003
,
0001
0010
0100
1000
,
0010
0100
0010
0100
0010
0100
0010
0000
,
1000
0001
1000
0100
,
0010
0001
0010
0100
,
1000
0010
1000
0000
0001
0100
0001
0000
,
0010
0100
0010
0000
0100
1000
0100
0000
,
2000
0001
3001
0100
,
0020
0100
0100
0130
,
0001
0010
0100
0000
1000
0010
0100
0000
,
2002
0000
0000
3003
,
1001
0000
0001
0100
0010
0100
0001
0000
,
0010
0100
1000
0001
,
1000
0001
1000
0000
1000
0100
0010
0100
,
1000
0010
0100
0001
,
1001
0000
1000
0010
0100
0010
1000
0000
,
0100
0010
0001
1000
,
0001
1000
0001
0000
0001
0010
0100
0010
,
0001
1000
0100
0010
,
1001
0000
1000
0100
1000
0100
1000
0000
,
0010
0100
0010
0100
0010
0000
1000
0010
,
1000
0010
1000
0000
0100
0010
0100
0010
,
0100
0000
1000
0001
1000
0001
1000
0000
,
1001
0000
0001
0010
0001
0010
0001
0000
,
0100
0010
0100
0010
0100
0000
0001
1000
,
0001
1000
0001
0000
1000
0010
1000
0010
,
1000
0000
0100
0010
0100
0010
0100
0000
,
1000
0000
0010
0100
0010
0000
1000
0000
,
0001
0000
0001
0000
0100
0010
0100
0000
,
2001
0100
3001
1000
,
0200
0010
0310
1000
,
0010
1000
0100
0010
,
0001
0100
0010
0000
0100
0010
0100
0000
,
0002
0010
0100
0013
,
0200
1000
1300
0001
,
0200
0010
0320
1000
,
1030
0100
0010
0000
0001
1000
0001
0000
,
2000
0100
0010
3100
,
0020
0001
0031
1000
,
0001
0010
0100
1000
,
0010
0100
0001
0000
1000
0001
1000
0000
,
0002
0010
0100
0013
,
0200
1000
1300
0001
,
1000
0100
0010
0001
1000
0000
1000
0000
,
0001
0100
0010
1000
0001
0000
0001
0000
;

//---------------dance-single - ----------------
#NOTES:
     dance-single:
     :
     Hard:
     12:
     0.656,0.584,0.335,0.288,0.000:
2002
0000
0000
3003
,
0002
0000
2003
0000
,
3100
0000
0100
0000
0100
0010
0100
0000
,
1000
0100
0010
0001
0010
0100
1000
0000
,
0002
0000
0000
0203
0000
0000
0310
0000
,
1000
0100
0010
0100
1000
0010
0100
0000
,
0020
0000
0000
2030
0000
0000
3100
0000
,
0010
0100
1000
0010
0100
0001
0100
0000
,
0002
0000
0000
0023
0000
0000
0130
0010
,
0001
1000
0010
0100
0010
0000
0010
0000
,
0200
0000
0000
0302
0000
0000
1003
0100
,
0010
0001
0010
0100
1000
0001
0100
0001
,
1000
0000
1000
0100
0000
0010
0100
0000
,
1000
0010
0100
0010
1000
0001
0010
0000
,
0001
0000
0001
0100
0000
0010
0100
0000
,
0001
0010
0100
1000
0100
0010
0001
0000
,
0010
0000
0001
1000
0000
0100
0010
0000
,
0100
1000
0010
0000
0010
1000
0100
0010
,
0001
0100
1000
0100
0001
0000
1000
0100
,
0001
0100
1000
0001
0100
0001
1000
0000
,
1020
0130
0101
0110
,
1010
0000
0100
0001
0010
0000
0100
0010
,
0002
1003
0110
1001
,
0100
0010
0001
1000
0010
0100
0001
0010
,
0200
0310
0101
0110
,
1010
0000
0010
1000
0100
0000
0010
0100
,
2000
3010
0002
0013
,
1000
0100
0010
0001
0100
0010
1000
0001
,
2000
3100
1100
0110
,
0011
0000
0100
1000
0010
0000
0100
0001
,
2000
3001
0110
1001
,
0100
0010
0001
0100
0010
1000
0100
0010
,
0001
0100
0010
0000
0100
0001
0010
0000
,
0100
0010
0001
0010
0100
1000
0001
0000
,
1000
0100
0010
0000
0100
0010
0001
0000
,
1000
0010
0100
0001
0100
0010
1000
0100
,
0010
0001
0010
0000
0101
0000
0100
0000
,
0100
1000
0100
0000
1010
0000
0010
0000
,
1000
0100
0001
0000
0001
0100
1000
0000
,
2002
0000
0000
3003
,
1001
0000
1000
0100
0001
0100
1000
0000
,
0001
0100
1000
0100
0001
0000
1000
0100
,
0001
0100
1000
0000
0001
0100
1000
0100
,
0001
0000
0010
0100
1000
0001
0001
0000
,
1001
0000
0001
0010
1000
0010
0001
0000
,
1000
0010
0001
0010
1000
0000
0001
0010
,
1000
0010
0001
0000
1000
0010
0001
0010
,
1000
0000
0100
0010
0001
1000
1000
0000
,
1001
0000
0001
0010
1000
0010
0001
0000
,
1000
0010
0001
0010
1000
0000
0001
0100
,
1000
0100
0001
0000
1000
0100
0001
0100
,
1000
0000
0010
0100
0001
0010
0100
1000
,
0001
0000
1000
0100
0001
0100
1000
0000
,
0001
0100
1000
0100
0001
0000
1000
0010
,
0001
0010
1000
0000
0001
0010
1000
0010
,
0001
0000
0010
0100
1000
0100
0010
0001
,
0200
0000
0310
1000
0200
0000
1300
0001
,
0010
0100
1000
0100
0010
0001
1000
0000
,
1002
0013
1100
0011
,
2001
0000
0100
0000
3001
0000
1000
0010
,
0100
0101
0110
1010
,
1000
0100
0001
0100
1000
0010
0001
0010
,
2000
3001
0101
0110
,
2010
0000
0100
0000
3010
0000
1000
0001
,
0010
0011
0100
0110
,
0001
0010
1000
0010
0001
0100
1000
0100
,
0002
1003
1010
0110
,
0102
0000
1000
0000
0103
0000
0001
1000
,
0020
0130
0002
1003
,
0001
0010
1000
0010
0001
0100
1000
0100
,
0001
1000
0010
1000
0001
0000
0001
0000
,
0010
0100
1000
0000
0010
1000
0001
0000
,
1000
0100
0001
0100
1000
0010
0001
0010
,
1000
0100
0010
0001
0010
0100
1000
0001
;

//---------------dance-single - ----------------
#NOTES:
     dance-single:
     :
     Challenge:
     15:
     0.850,0.996,0.093,0.242,0.451:
2002
0000
0000
3003
,
0002
0023
0230
2300
,
3001
0000
0000
0000
0001
0000
0000
1000
0001
0000
0010
0000
0100
0000
0000
0000
,
1000
0000
0001
0000
1000
0100
1000
0000
0001
0000
0001
0000
0010
0000
0100
0000
,
1000
0000
0100
0010
0000
0100
1000
0000
,
0001
0100
0010
0100
0001
0010
0100
1000
,
0001
0000
0010
0100
0000
0010
0001
0000
,
1000
0000
1000
0000
0001
0000
0001
0000
0100
0000
0100
0000
0010
0100
0010
0000
,
1000
0000
0100
0010
0000
0100
1000
0001
,
0010
0100
1000
0001
0100
0010
0100
0000
,
0001
0000
0010
0100
0000
0010
0001
1000
,
0010
0100
0010
0000
0200
0000
0000
0000
0301
1000
0001
0000
2000
0000
0000
0000
,
3001
0000
0100
0001
0000
0010
0100
0000
,
1000
0100
0001
0100
1000
0010
0100
0000
,
0001
0000
0100
0001
0000
0010
0100
0000
,
1000
0010
1000
0010
0100
0000
0010
0000
1000
0001
0010
0001
0010
0000
0100
0000
,
1000
0000
0010
1000
0000
0100
0010
0000
,
0001
0010
1000
0010
0001
1000
0010
0100
,
0001
1000
0001
1000
0001
1000
0001
1000
0001
0000
0000
0000
0010
0000
0100
0000
,
1000
0010
1000
0000
0100
0000
0010
0000
0001
0100
0001
0000
0010
0000
0100
0000
,
1000
0001
1000
0001
1000
0010
0100
0001
,
1000
0000
1000
0001
0010
0000
0100
0010
,
0001
1000
0001
1000
0001
0100
0010
1000
,
0001
0010
0001
0000
0010
0001
0010
0000
0100
1000
0100
0000
1000
0100
1000
0000
,
0001
1000
0001
1000
0001
0010
0100
1000
,
0001
0000
0001
1000
0100
0000
0010
0100
,
1000
0100
0001
0000
0001
0100
1000
0000
,
0001
0100
0001
0000
0200
0000
0000
0000
0310
1000
0010
0000
2000
0000
0000
0000
,
3001
0100
0001
0100
0001
1000
0100
0010
,
0100
1000
0010
0000
0010
1000
0100
0010
,
0001
0100
0001
0100
0001
1000
0100
0010
,
0001
0100
0001
0100
0010
0000
0100
0000
0010
1000
0010
1000
0001
1000
0001
1000
,
0001
0100
0010
0100
0001
0010
0100
0010
,
0001
1000
0010
0100
0010
1000
0001
0010
,
0100
1000
0100
1000
0100
1000
0100
0000
1000
0001
1000
0001
1000
0001
1000
0000
,
0001
0010
0001
0010
0100
0000
0010
0000
0100
1000
0100
1000
0010
0100
0010
0000
,
2000
0001
3001
0000
0200
0001
0301
0000
,
1000
0001
1000
0000
0100
0000
1000
0000
0001
1000
0001
0000
0100
0000
0001
0000
,
1000
0100
1000
0100
1000
0100
1000
0000
0001
1000
0001
1000
0001
1000
0001
1000
,
0002
0000
0000
0003
,
1001
0000
1000
1000
0001
0100
1000
0000
,
0100
0001
1000
0100
0010
0000
0001
0010
,
1000
0010
0001
0000
1000
0100
0010
0100
,
1000
0001
1000
0001
1000
0001
1000
0001
1000
0000
0000
0000
0001
0100
0001
0100
,
0001
0000
0101
0010
0100
1000
0001
0000
,
0110
0001
0010
0100
1000
0000
1010
0100
,
0010
0001
1000
0000
0110
1000
0100
0010
,
0001
1000
0001
0000
0200
0000
0000
0000
0310
0100
0010
0000
2000
0000
0000
0000
,
3001
0000
1100
0010
0100
1000
0010
0000
,
0101
0010
0100
0010
0001
0000
0110
1000
,
0010
0100
0001
0000
0110
0001
0100
0010
,
1000
0001
1000
0001
1000
0001
1000
0001
1000
0000
0010
0000
0100
0010
0100
0010
,
0100
0000
0002
0100
0103
0010
1000
0000
,
0200
0010
0010
0301
1000
0000
0020
1000
,
1030
0001
0010
0000
0200
0010
0310
0001
,
1000
0001
1000
0000
0020
0000
0000
0000
0130
0010
0100
0000
0002
0000
0000
0000
,
1003
1000
0100
0010
0002
0000
1003
0001
,
0010
0000
0100
0000
1000
0000
0001
0000
0010
0001
0010
0001
0100
0010
0100
0000
,
0001
1000
0001
1000
0001
0010
0100
0010
,
0001
0100
0010
0000
0100
0001
0010
0100
,
1000
0001
1000
0001
1000
0010
0100
0010
,
1000
0010
1000
0010
1000
0001
1000
0001
1000
0010
1000
0010
1000
0001
1000
0001
,
1000
0100
1000
0100
1000
0001
0010
1000
,
0010
0001
0100
0000
0001
0010
0100
1000
,
0002
0100
0103
0000
0020
1000
1030
0000
,
0001
1000
0001
0000
0020
0000
0000
0000
0031
1000
0001
0000
0200
0000
0010
0000
,
0310
1000
0001
1000
0001
0100
0010
0100
,
0001
0010
0100
0000
0010
0001
1000
0000
,
0100
0010
0100
0010
0100
1000
0010
0100
,
0001
1000
0001
1000
0001
0010
0001
0010
0001
1000
0001
1000
0001
0010
0001
0010
,
0001
1000
0001
1000
0001
0010
1000
0010
,
0001
0100
0010
0100
0001
0010
0100
1000
,
0001
0100
0001
0100
0010
0100
0010
0000
1000
0100
1000
0100
0010
0001
0010
0000
,
0001
1000
0001
1000
0001
0100
0001
0100
0010
1000
0010
1000
0100
0010
0001
0000
;

//---------------dance-single - ----------------
#NOTES:
     dance-single:
     :
     Beginner:
     3:
     0.142,0.205,0.084,0.000,0.000: // measure 1
0000
0000
0000
0000
,  // measure 2
0000
0000
0000
0000
,  // measure 3
0000
0000
0000
0000
,  // measure 4
0000
0000
0000
0000
,  // measure 5
0001
0000
0000
0000
,  // measure 6
1000
0000
0000
0000
,  // measure 7
0001
0000
0000
0000
,  // measure 8
1000
0000
0000
0000
,  // measure 9
0010
0000
0000
0000
,  // measure 10
0100
0000
0000
0000
,  // measure 11
0010
0000
0000
0000
,  // measure 12
0010
0000
0000
0000
,  // measure 13
1000
0000
0000
0000
,  // measure 14
0001
0000
0000
0000
,  // measure 15
1000
0000
0000
0000
,  // measure 16
0001
0000
0000
0000
,  // measure 17
0100
0000
0000
0000
,  // measure 18
0010
0000
0000
0000
,  // measure 19
0100
0000
0000
0000
,  // measure 20
0100
0000
0000
0000
,  // measure 21
1001
0000
0000
0000
,  // measure 22
1000
0000
0000
0000
,  // measure 23
0001
0000
1000
0000
,  // measure 24
0001
0000
0000
0000
,  // measure 25
1001
0000
0000
0000
,  // measure 26
0001
0000
0000
0000
,  // measure 27
1000
0000
0001
0000
,  // measure 28
1000
0000
0000
0000
,  // measure 29
0110
0000
0000
0000
,  // measure 30
0100
0000
0000
0000
,  // measure 31
0010
0000
0100
0000
,  // measure 32
0010
0000
0000
0000
,  // measure 33
0110
0000
0000
0000
,  // measure 34
0010
0000
0000
0000
,  // measure 35
0100
0000
0010
0000
,  // measure 36
0100
0000
0010
0000
,  // measure 37
1000
0000
1000
0000
,  // measure 38
1000
0000
0000
0000
,  // measure 39
0001
0000
0001
0000
,  // measure 40
0001
0000
0000
0000
,  // measure 41
1001
0000
1000
0000
,  // measure 42
0001
0000
1000
0000
,  // measure 43
0010
0000
0100
0000
,  // measure 44
0010
0000
0000
0000
,  // measure 45
1001
0000
0001
0000
,  // measure 46
1000
0000
0001
0000
,  // measure 47
0100
0000
0010
0000
,  // measure 48
0100
0000
0000
0000
,  // measure 49
1001
0000
1000
0000
,  // measure 50
0001
0000
1000
0000
,  // measure 51
0100
0000
0010
0000
,  // measure 52
0100
0000
0000
0000
,  // measure 53
1001
0000
0001
0000
,  // measure 54
1000
0000
0001
0000
,  // measure 55
0010
0000
0100
0000
,  // measure 56
0010
0000
0000
0000
,  // measure 57
0001
0000
0000
0000
,  // measure 58
1000
0000
0000
0000
,  // measure 59
1001
0000
0001
0000
,  // measure 60
1000
0000
0000
0000
,  // measure 61
0001
0000
1000
0000
,  // measure 62
0001
0000
0000
0000
,  // measure 63
1000
0000
0001
0000
,  // measure 64
1000
0000
0000
0000
,  // measure 65
0001
0000
1000
0000
,  // measure 66
0001
0000
0000
0000
,  // measure 67
0010
0000
0100
0000
,  // measure 68
0010
0000
0000
0000
,  // measure 69
0100
0000
1000
0000
,  // measure 70
0100
0000
0000
0000
,  // measure 71
1000
0000
0010
0000
,  // measure 72
1000
0000
0000
0000
,  // measure 73
0010
0000
0100
0000
,  // measure 74
0010
0000
0010
0000
;
