#TITLE:Moon Over The Castle;
#SUBTITLE:(A-spec mix);
#ARTIST:Masahiro Andoh arranged by pentagon;
#TITLETRANSLIT:;
#SUBTITLETRANSLIT:;
#ARTISTTRANSLIT:;
#GENRE:;
#CREDIT:DigiMindAxel;
#BANNER:Moon Over The Castle (A-spec mix).png;
#BACKGROUND:Moon Over The Castle (A-spec mix)-bg.png;
#LYRICSPATH:;
#CDTITLE:DigiMindAxel original simfile.png;
#MUSIC:Moon Over The Castle (A-spec mix).mp3;
#METERTYPE:DDR X;
#OFFSET:-5.202;
#SAMPLESTART:42.206;
#SAMPLELENGTH:12.000;
#SELECTABLE:YES;
#BPMS:0.000=206.000
,80.000=103.000
,92.000=206.000
;
#STOPS:
;
#BGCHANGES:;
#KEYSOUNDS:;
#ATTACKS:;

//---------------dance-single - ----------------
#NOTES:
     dance-single:
     :
     Easy:
     4:
     0.268,0.265,0.149,0.105,0.000,185.000,17.000,12.000,0.000,0.000,0.000,0.268,0.265,0.149,0.105,0.000,185.000,17.000,12.000,0.000,0.000,0.000: // measure 0
1001
0000
0000
1001
,  // measure 1
0000
0000
0000
0000
,  // measure 2
1001
0000
0000
0000
,  // measure 3
1000
0000
0000
0000
,  // measure 4
0001
0000
1000
0000
,  // measure 5
0001
0000
1000
0000
,  // measure 6
0100
0000
0010
0000
,  // measure 7
0100
0000
0010
0000
,  // measure 8
0001
0000
0100
0000
,  // measure 9
0001
0000
1000
0000
,  // measure 10
0100
0000
1000
0000
,  // measure 11
0100
0000
1000
0000
,  // measure 12
0010
0000
0100
0000
,  // measure 13
0010
0000
0100
0000
,  // measure 14
0001
0000
1000
0000
,  // measure 15
0001
0000
1000
0000
,  // measure 16
0100
0000
0010
0000
,  // measure 17
0100
0000
0010
0000
,  // measure 18
1001
0000
0000
1001
,  // measure 19
0000
0000
0000
0000
,  // measure 20
0110
0000
0010
0000
,  // measure 21
0100
0000
0010
0000
,  // measure 22
0100
0000
0010
0000
,  // measure 23
0100
0000
0010
0000
,  // measure 24
0100
0000
0010
0000
,  // measure 25
1000
0000
0001
0000
,  // measure 26
1000
0000
0100
0000
,  // measure 27
2000
0000
0000
0000
,  // measure 28
0000
0000
0000
0000
,  // measure 29
3001
1000
0001
0000
,  // measure 30
1000
0001
1000
0000
,  // measure 31
0100
1000
0100
1000
,  // measure 32
0100
1000
0100
0000
,  // measure 33
1000
0001
1000
0001
,  // measure 34
1000
0001
1000
0000
,  // measure 35
1001
0000
0000
0110
,  // measure 36
0000
0000
1001
0000
,  // measure 37
0001
1000
0001
0000
,  // measure 38
0100
0001
0100
0000
,  // measure 39
0010
0100
0010
0100
,  // measure 40
0010
0100
0010
0000
,  // measure 41
1000
0001
1000
0001
,  // measure 42
1000
0001
1000
0000
,  // measure 43
1001
0000
0000
1001
,  // measure 44
0000
0000
0000
0000
,  // measure 45
0020
0000
0100
0000
,  // measure 46
0100
0000
0130
0000
,  // measure 47
0002
0000
1000
0000
,  // measure 48
1000
0000
1003
0000
,  // measure 49
0200
0000
1000
0000
,  // measure 50
1000
0000
1300
0000
,  // measure 51
0020
0000
0100
0000
,  // measure 52
0100
0000
0130
0000
,  // measure 53
0002
0000
0100
0000
,  // measure 54
0100
0000
0103
0000
,  // measure 55
0020
0000
1000
0000
,  // measure 56
1000
0000
1030
0000
,  // measure 57
1001
0000
0000
0000
,  // measure 58
0110
0000
0000
0000
,  // measure 59
1001
0000
0000
0000
,  // measure 60
0110
0000
0000
0000
,  // measure 61
2000
0000
0000
0000
,  // measure 62
3002
0000
0000
0000
,  // measure 63
2003
0000
0000
0000
,  // measure 64
3002
0000
0000
0000
,  // measure 65
1003
0000
0000
0001
0000
0000
1000
0000
,  // measure 66
0000
0001
0000
0000
0000
0000
0000
0000
,  // measure 67
1000
0000
0000
0001
0000
0000
1000
0000
,  // measure 68
0000
0001
0000
0000
0000
0000
0000
0000
,  // measure 69
1000
0100
1000
0000
,  // measure 70
0010
0100
0010
0000
,  // measure 71
1000
0001
1000
0001
,  // measure 72
1000
0001
1000
0000
,  // measure 73
0001
0010
0001
0000
,  // measure 74
0100
0010
0100
0000
,  // measure 75
1001
0000
0000
1000
0000
0000
0001
0000
,  // measure 76
0000
1000
0000
0000
0001
0000
0000
0000
,  // measure 77
0100
0001
0100
0000
,  // measure 78
0010
0100
0010
0000
,  // measure 79
1000
0001
1000
0001
,  // measure 80
1000
0001
1000
0000
,  // measure 81
0100
1000
0100
1000
,  // measure 82
0100
1000
0100
0000
,  // measure 83
1001
0000
0000
0001
0000
0000
1000
0000
,  // measure 84
0001
0000
1000
0100
,  // measure 85
0020
0000
0000
0000
,  // measure 86
0000
0000
0030
0000
;

//---------------dance-single - ----------------
#NOTES:
     dance-single:
     :
     Medium:
     8:
     0.473,0.455,0.193,0.350,0.000,316.000,22.000,40.000,0.000,0.000,0.000,0.473,0.455,0.193,0.350,0.000,316.000,22.000,40.000,0.000,0.000,0.000: // measure 0
2002
0000
3003
0220
,  // measure 1
0000
0000
0000
0330
,  // measure 2
1001
0000
0001
0000
0001
0000
1000
0001
,  // measure 3
0000
0000
0000
0000
,  // measure 4
1000
0100
0010
0100
,  // measure 5
1000
0010
0100
0010
,  // measure 6
1000
0100
1000
0010
,  // measure 7
0100
0010
1000
0100
,  // measure 8
0010
0001
0010
0100
,  // measure 9
1000
0001
0100
0001
,  // measure 10
1000
0100
1000
0010
,  // measure 11
0100
0010
1000
0001
,  // measure 12
0010
0100
0010
0001
,  // measure 13
1000
0100
1000
0001
,  // measure 14
0010
0100
0010
0001
,  // measure 15
1000
0010
1000
0001
,  // measure 16
0100
0010
0100
0001
,  // measure 17
1000
0100
0010
0001
,  // measure 18
1001
0000
0000
1001
0000
0000
1001
0000
,  // measure 19
0000
0110
0000
0000
0010
0000
0100
0000
,  // measure 20
0002
0103
0020
0130
,  // measure 21
0002
1003
0200
1300
,  // measure 22
0020
0130
0002
1003
,  // measure 23
0001
0010
0100
1000
,  // measure 24
0010
0100
0010
1000
,  // measure 25
0001
0010
0100
1000
,  // measure 26
0010
0100
0010
1000
,  // measure 27
0001
0000
1000
0001
0000
0000
0010
0000
,  // measure 28
0100
1000
0100
0010
,  // measure 29
1001
0000
0001
0000
1000
0100
1000
0100
,  // measure 30
1000
0000
0001
0000
0100
0000
0010
0100
,  // measure 31
0020
0000
0000
2030
0000
0000
3010
0000
,  // measure 32
0200
0000
0000
0302
0000
0000
0000
0000
,  // measure 33
2003
0000
0000
3200
0000
0000
0310
0000
,  // measure 34
0200
0000
0000
0300
,  // measure 35
1001
0000
0000
0001
0000
0000
1001
0000
,  // measure 36
0000
1000
0000
0000
1001
0000
1000
0001
,  // measure 37
1000
0000
0100
0000
0010
0100
0010
0100
,  // measure 38
0010
0000
0001
0000
1000
0001
1000
0001
,  // measure 39
2000
0000
0000
3020
0000
0000
0130
0000
,  // measure 40
0002
0000
0000
2003
0000
0000
0000
0000
,  // measure 41
3002
0000
0000
0023
0000
0000
0130
0000
,  // measure 42
2000
0000
0000
3002
0000
0000
1003
0000
,  // measure 43
1001
0000
0000
1001
0000
0000
1001
0000
,  // measure 44
0001
1000
0000
0000
0001
0000
0010
0000
,  // measure 45
0100
1000
0100
0000
0010
0000
0001
1000
,  // measure 46
0001
1000
0100
1000
,  // measure 47
0001
0100
0001
0000
0010
0000
0100
0000
,  // measure 48
1000
0010
1000
0000
0001
1000
0001
1000
,  // measure 49
0001
0010
0100
0010
,  // measure 50
0001
0000
0100
0000
0010
1000
0010
0000
,  // measure 51
1000
0001
1000
0000
0100
0000
0010
0000
,  // measure 52
0001
1000
0000
0000
0010
0000
0100
0000
,  // measure 53
0002
0000
1000
1003
,  // measure 54
0000
0001
0010
0100
,  // measure 55
1000
0010
0100
0002
,  // measure 56
0000
0000
0000
0003
,  // measure 57
1000
0001
0000
1000
0001
0000
1000
0001
,  // measure 58
0000
1000
0001
0000
0100
0000
0000
0000
,  // measure 59
0001
1000
1000
0001
,  // measure 60
0001
0000
0100
0010
0100
0010
0100
0010
,  // measure 61
0200
0000
0000
0000
,  // measure 62
0320
0000
0000
0000
,  // measure 63
2030
0000
0000
0000
,  // measure 64
3002
0000
0000
0000
,  // measure 65
1003
0000
0000
0100
0000
0000
0010
0000
,  // measure 66
0000
0100
0000
0000
1000
0000
0001
0000
,  // measure 67
1001
0000
0000
0001
0000
0000
0100
0000
,  // measure 68
0000
0010
0000
0000
1000
0000
0001
1000
,  // measure 69
0001
0000
0010
0000
0001
1000
0010
1000
,  // measure 70
0001
0000
0010
0000
0100
1000
0100
1000
,  // measure 71
0200
0000
0000
0320
0000
0000
0031
0000
,  // measure 72
2000
0000
0000
3020
0000
0000
0000
0000
,  // measure 73
1030
0000
0001
0100
0001
0000
1000
0000
,  // measure 74
0010
0100
0010
1000
,  // measure 75
1001
0000
0000
1001
0000
0000
0110
0000
,  // measure 76
0000
0110
0000
0000
0100
0000
0010
0100
,  // measure 77
0010
0000
1000
0000
0010
0000
0100
0001
,  // measure 78
0010
0001
0100
0000
0001
0000
1000
0001
,  // measure 79
2000
0000
0000
3020
0000
0000
0130
0000
,  // measure 80
0002
0000
0000
2003
0000
0000
0000
0000
,  // measure 81
3001
0000
1000
0010
1000
0000
0100
0000
,  // measure 82
0010
0000
0001
1000
0001
0000
1000
0000
,  // measure 83
1001
0000
0000
1001
0000
0000
0110
0000
,  // measure 84
0100
0010
0000
0000
1000
0000
0010
0000
,  // measure 85
0200
0000
0000
0000
,  // measure 86
0000
0000
0300
0000
;

//---------------dance-single - ----------------
#NOTES:
     dance-single:
     :
     Hard:
     12:
     0.686,0.682,0.298,0.237,0.083,487.000,34.000,27.000,0.000,0.000,0.000,0.686,0.682,0.298,0.237,0.083,487.000,34.000,27.000,0.000,0.000,0.000: // measure 0
0001
1000
0000
1000
0001
0000
0100
0010
,  // measure 1
0000
0010
0100
0000
0001
1000
0100
0010
,  // measure 2
0001
1000
0000
1000
0010
0000
0010
0200
,  // measure 3
0000
0000
0000
0000
0000
0000
0301
0010
,  // measure 4
0100
1000
0010
0001
,  // measure 5
0010
0000
1000
0000
0001
1000
0100
0010
,  // measure 6
0001
0000
0100
0001
1000
0000
0010
0000
,  // measure 7
0001
0000
0010
0000
1000
0000
0001
0100
,  // measure 8
0020
0000
1000
0000
1030
0000
0010
1000
,  // measure 9
0002
0000
0100
0000
0103
0001
0010
0100
,  // measure 10
1000
0000
0001
1000
0001
0000
0100
0000
,  // measure 11
1000
0000
0100
0000
0001
1000
0100
0010
,  // measure 12
0001
0100
1000
0100
,  // measure 13
0010
0000
1000
0000
0001
1000
0100
0010
,  // measure 14
0001
1000
0100
0010
,  // measure 15
1000
0010
0001
1001
,  // measure 16
0002
0000
0100
0000
0103
0000
0001
1000
,  // measure 17
0100
0000
0010
0001
0000
1000
0001
0100
,  // measure 18
0101
0000
0000
1100
0000
0000
0101
0000
,  // measure 19
0000
1001
0000
0000
1000
0001
0010
0100
,  // measure 20
1100
0000
0000
0000
1000
0000
0010
0100
0002
0000
0000
0100
0000
0000
0103
0000
,  // measure 21
1001
0000
0000
0000
0001
0000
0100
0010
2000
0000
0000
0001
0000
0000
3001
0000
,  // measure 22
0101
0000
0000
0000
0010
0000
0000
0000
0100
1000
0000
1000
0001
0000
0100
0001
,  // measure 23
1000
0100
1000
0000
0001
0010
0001
1000
,  // measure 24
0020
0100
0100
0130
,  // measure 25
0001
1000
0001
0200
0000
0301
1000
0100
,  // measure 26
2000
0001
0001
3001
,  // measure 27
1000
0000
0000
0001
0000
0000
1000
0000
0000
1000
0000
0000
0000
0000
0000
0001
0000
0000
0001
0000
0000
0000
1000
0000
,  // measure 28
0100
0000
1000
0000
0100
0000
0010
0000
0001
0000
0010
0000
0001
0000
0000
0000
0000
0000
1000
0000
0000
0001
0000
0000
,  // measure 29
0200
0000
0301
0000
1000
0010
0001
0010
,  // measure 30
2000
0000
3001
0000
1000
0010
0001
0010
,  // measure 31
1000
0000
0001
0100
0000
0100
0010
0000
,  // measure 32
0100
0000
0001
0020
0000
0000
0130
0000
,  // measure 33
1000
0000
1000
0001
0000
0001
0010
0000
,  // measure 34
1000
0010
0001
1000
,  // measure 35
1001
0000
0000
1100
0000
0000
0101
0000
,  // measure 36
0000
1100
0000
0000
1001
0000
0001
1000
,  // measure 37
0020
0000
1030
0000
0001
0100
1000
0100
,  // measure 38
0002
0000
1003
0000
0001
0100
1000
0100
,  // measure 39
0001
0000
1000
0010
0000
0010
0100
0000
,  // measure 40
0100
0000
0001
0020
0000
0000
0130
0000
,  // measure 41
1001
0000
0001
0010
0000
0010
0100
0000
,  // measure 42
1000
0000
1000
0010
0000
0010
0100
0000
,  // measure 43
1100
0000
0000
0011
0000
0000
1001
0000
,  // measure 44
1000
0001
0000
0001
1000
0000
1000
0000
,  // measure 45
0100
0010
0001
1000
0100
1000
0100
1000
,  // measure 46
0001
0010
0100
1000
0010
0100
0010
0000
,  // measure 47
0100
0001
0010
0001
1000
0001
1000
0001
,  // measure 48
1000
0010
0100
0001
1000
0100
1000
0001
,  // measure 49
0010
0100
1000
0001
0100
0001
0100
0001
,  // measure 50
1000
0100
0010
0001
0100
0010
0100
0000
,  // measure 51
0010
1000
0100
1000
0001
1000
0001
1000
,  // measure 52
0010
0100
0001
0000
0001
0100
0010
1000
,  // measure 53
0200
0000
0010
0000
0310
0001
0100
0000
,  // measure 54
0100
0001
1000
0100
0001
0100
1000
0001
,  // measure 55
1000
0010
0001
0010
1000
0001
1000
0100
,  // measure 56
0020
0000
0100
0000
0130
0000
0001
1000
,  // measure 57
0010
1010
0000
0100
0110
0000
0001
0101
,  // measure 58
0000
1000
1000
0001
1001
0000
0000
1000
,  // measure 59
0001
0100
0101
0000
1000
0100
1000
1100
,  // measure 60
0000
0001
1000
0100
0010
0001
0010
0100
,  // measure 61
1000
0000
0001
1000
0001
0000
1000
0000
0001
0000
0100
0000
0010
0000
1000
0000
,  // measure 62
0100
1000
0000
0100
0000
1000
0001
0010
,  // measure 63
0000
0001
0010
0000
0001
1000
0001
0000
,  // measure 64
0100
0010
0000
0100
0010
1000
0100
0000
,  // measure 65
1001
1000
0000
0010
0100
0000
1001
0001
,  // measure 66
0000
0010
0000
0100
1000
0100
0010
0001
,  // measure 67
1000
0000
0000
1000
0100
0000
0000
0100
0010
0000
0000
0010
0001
0000
0000
0001
,  // measure 68
1000
0000
0000
1000
0010
0000
0000
0010
0100
0000
0000
0000
0001
0000
1000
0000
,  // measure 69
0200
0000
1300
0000
0001
0100
1000
0100
,  // measure 70
0002
0000
1003
0000
0001
0010
1000
0010
,  // measure 71
0001
1000
0100
2000
0000
0000
3001
0000
,  // measure 72
1000
0001
0100
0002
0000
0000
1003
0000
,  // measure 73
0001
0100
0010
0001
0010
0100
0001
0000
,  // measure 74
0010
0100
1000
0000
0010
0000
0100
0000
,  // measure 75
0101
0000
0000
1010
0000
0000
0011
0000
,  // measure 76
0000
1100
0000
0000
1001
0000
1000
0001
,  // measure 77
0020
0000
0031
0000
1000
0010
0001
0010
,  // measure 78
2000
0000
3001
0000
1000
0100
0001
0100
,  // measure 79
1000
0001
0010
0002
0000
0000
1003
0000
,  // measure 80
0001
1000
0010
2000
0000
0000
3001
0000
,  // measure 81
1000
0010
0100
1000
0100
0010
1000
0000
,  // measure 82
0100
0010
0001
0010
0100
0000
1000
0000
,  // measure 83
1100
0000
0000
0011
0000
0000
1001
0000
,  // measure 84
1000
0001
0000
0001
0010
0100
1000
0001
,  // measure 85
0202
0000
0000
0000
,  // measure 86
0000
0000
0303
0000
;

//---------------dance-single - ----------------
#NOTES:
     dance-single:
     :
     Beginner:
     2:
     0.103,0.149,0.105,0.000,0.000,70.000,12.000,0.000,0.000,0.000,0.000,0.103,0.149,0.105,0.000,0.000,70.000,12.000,0.000,0.000,0.000,0.000: // measure 0
0001
0000
0000
0000
,  // measure 1
0000
0000
0000
0000
,  // measure 2
1000
0000
0000
0000
,  // measure 3
0001
0000
0000
0000
,  // measure 4
1001
0000
1000
0000
,  // measure 5
0001
0000
0000
0000
,  // measure 6
1000
0000
0001
0000
,  // measure 7
1000
0000
0000
0000
,  // measure 8
0100
0000
1000
0000
,  // measure 9
0100
0000
0000
0000
,  // measure 10
0010
0000
0001
0000
,  // measure 11
0010
0000
0000
0000
,  // measure 12
0001
0000
1000
0000
,  // measure 13
0001
0000
0000
0000
,  // measure 14
1000
0000
0001
0000
,  // measure 15
1000
0000
0000
0000
,  // measure 16
0010
0000
0000
0000
,  // measure 17
0100
0000
0000
0000
,  // measure 18
0110
0000
0000
0000
,  // measure 19
0000
0000
0000
0000
,  // measure 20
1001
0000
0000
0000
,  // measure 21
0001
0000
0000
0000
,  // measure 22
0001
0000
0000
0000
,  // measure 23
1001
0000
0000
0000
,  // measure 24
1000
0000
0000
0000
,  // measure 25
0001
0000
0000
0000
,  // measure 26
1000
0000
0000
0000
,  // measure 27
0100
0000
0000
0000
,  // measure 28
0000
0000
0000
0000
,  // measure 29
1001
0000
0000
0000
,  // measure 30
1000
0000
0000
0000
,  // measure 31
0001
0000
0000
0000
,  // measure 32
1000
0000
0000
0000
,  // measure 33
0100
0000
0000
0000
,  // measure 34
0000
0000
0000
0000
,  // measure 35
0010
0000
0000
0000
,  // measure 36
0000
0000
0000
0000
,  // measure 37
1001
0000
0000
0000
,  // measure 38
1000
0000
0000
0000
,  // measure 39
0001
0000
0000
0000
,  // measure 40
0000
0000
0000
0000
,  // measure 41
1000
0000
0000
0000
,  // measure 42
0100
0000
0000
0000
,  // measure 43
0010
0000
0000
0000
,  // measure 44
0000
0000
0000
0000
,  // measure 45
0110
0000
0000
0000
,  // measure 46
0000
0000
0000
0000
,  // measure 47
0001
0000
0000
0000
,  // measure 48
0000
0000
0000
0000
,  // measure 49
0010
0000
0000
0000
,  // measure 50
0000
0000
0000
0000
,  // measure 51
0100
0000
0000
0000
,  // measure 52
0000
0000
0000
0000
,  // measure 53
1000
0000
0000
0000
,  // measure 54
0000
0000
0000
0000
,  // measure 55
0001
0000
0000
0000
,  // measure 56
0000
0000
0000
0000
,  // measure 57
0100
0000
0000
0000
,  // measure 58
0000
0000
0000
0000
,  // measure 59
0001
0000
0000
0000
,  // measure 60
0000
0000
0000
0000
,  // measure 61
1000
0000
0000
0000
,  // measure 62
0000
0000
0000
0000
,  // measure 63
1000
0000
0000
0000
,  // measure 64
0000
0000
0000
0000
,  // measure 65
1001
0000
0000
0000
,  // measure 66
0000
0000
0000
0000
,  // measure 67
1001
0000
0000
0000
,  // measure 68
0000
0000
0000
0000
,  // measure 69
0010
0000
0000
0000
,  // measure 70
0100
0000
0000
0000
,  // measure 71
0010
0000
0000
0000
,  // measure 72
0000
0000
0000
0000
,  // measure 73
1000
0000
0000
0000
,  // measure 74
0001
0000
0000
0000
,  // measure 75
1001
0000
0000
0000
,  // measure 76
0000
0000
0000
0000
,  // measure 77
0010
0000
0000
0000
,  // measure 78
0100
0000
0000
0000
,  // measure 79
0010
0000
0000
0000
,  // measure 80
0000
0000
0000
0000
,  // measure 81
1000
0000
0000
0000
,  // measure 82
0001
0000
0000
0000
,  // measure 83
1001
0000
0000
0000
,  // measure 84
1000
0000
0000
0000
,  // measure 85
1001
0000
0000
0000
;
