#TITLE:Magic Spell;
#SUBTITLE:;
#ARTIST:新谷良子;
#TITLETRANSLIT:;
#SUBTITLETRANSLIT:;
#ARTISTTRANSLIT:RYOKO SHINTANI;
#CREDIT:DigiMindAxel;
#BANNER:Magic Spell.png;
#BACKGROUND:Magic Spell-bg.png;
#LYRICSPATH:Magic Spell.lrc;
#CDTITLE:DigiMindAxel original simfile.png;
#MUSIC:Magic Spell.mp3;
#METERTYPE:DDR X;
#OFFSET:-4.698;
#SAMPLESTART:27.056;
#SAMPLELENGTH:12.000;
#SELECTABLE:YES;
#BPMS:0.000=117.980;
#STOPS:;
#BGCHANGES:;

//---------------dance-single - ----------------
#NOTES:
     dance-single:
     :
     Easy:
     3:
     0.198,0.221,0.084,0.095,0.000:
1001
0000
0000
0000
,
0110
0000
0000
0000
,
1001
0000
0001
0000
,
0001
1000
0001
0000
,
1000
0000
0100
0000
,
1000
0000
0100
0000
,
0010
0000
0001
0000
,
1001
0000
1000
0000
,
1000
0000
0001
0000
,
0002
0000
1000
0000
,
2003
0000
0001
0000
,
3001
1000
0001
0000
,
0100
0001
0100
0000
,
0010
1000
0010
1000
,
0002
0000
0000
0000
,
1003
0100
1000
0000
,
0001
0010
0001
0000
,
1000
0100
1000
0100
,
0010
0001
0010
0000
,
0001
1000
0001
1000
,
0020
0000
1030
0000
,
1000
0001
1000
0001
,
0200
0000
0301
0000
,
0001
0100
0001
0100
,
0010
1000
0010
1000
,
0100
1000
0100
0010
,
0002
0000
0003
0000
,
1000
0010
1000
0001
,
0010
0100
1000
0001
,
0100
0001
1000
0100
,
0010
0001
0100
0010
,
1000
0001
1000
0001
,
0010
0100
1000
0010
,
0100
0010
1000
0001
,
0110
0000
1001
0000
,
2002
0000
0000
0000
,
0000
0000
0000
0000
,
3003
0000
0000
0000
;

//---------------dance-single - ----------------
#NOTES:
     dance-single:
     :
     Medium:
     6:
     0.358,0.331,0.537,0.167,0.000:
0220
0000
0000
0330
,
0220
0000
0000
0330
,
1001
0000
1001
0000
,
1001
0100
1001
0100
,
1001
0010
0100
1000
,
0100
0010
0001
1000
,
0010
0000
0100
0000
0001
1000
0001
1000
,
0001
0101
1000
1100
,
0001
0011
1000
1010
,
0001
0110
1000
0110
,
0001
0000
1001
0000
1000
0001
1000
0001
,
1000
1100
0101
1000
,
0001
0101
1100
0001
,
1000
1010
1010
0101
,
0101
0000
1000
0000
0220
0000
0000
0330
,
0001
0011
1010
0001
,
1000
1010
0011
1000
,
0001
0011
0011
1100
,
1100
0000
0001
0000
0220
0000
0000
0330
,
1000
0010
1000
0000
0001
0010
0001
0000
,
0100
0001
1000
1100
,
0001
0100
0001
0000
1000
0100
1000
0000
,
0010
1000
0001
0011
,
1000
0010
1000
0000
0001
0010
0001
0000
,
0100
0010
0100
0000
1001
0000
1001
0000
,
0001
0100
0001
0000
1000
0100
1000
0000
,
0220
0000
0000
0330
,
0001
0010
0100
0000
0010
0100
0010
0000
,
0100
0010
0001
0000
1001
0000
1000
0001
,
1000
0000
0010
0100
0001
0000
1000
0000
,
1002
0000
1003
0001
,
1000
0100
0010
0000
0100
0010
0100
0000
,
0010
0100
1000
0000
1001
0000
0001
1000
,
0001
0000
0100
0010
1000
0000
0100
0000
,
0011
0101
1100
1010
,
2002
0000
0000
0000
0000
3000
0000
0200
,
0000
0000
0000
0000
,
0303
0000
0000
0000
;

//---------------dance-single - ----------------
#NOTES:
     dance-single:
     :
     Hard:
     9:
     0.450,0.420,0.286,0.107,0.131:
0202
0000
0000
0303
,
2200
0000
0000
3300
,
0011
0000
1010
0000
,
2000
0000
0001
0000
0000
0001
0000
0000
3001
0000
1000
0000
0001
0000
1000
0000
,
0001
0100
0001
0000
0100
0001
0100
0000
,
0010
1000
0010
0000
1000
0010
1000
0000
,
0010
0000
0100
0000
0010
0000
0000
1000
0001
0000
0010
0000
0100
0000
1000
0000
,
0001
0000
0000
0001
0100
0000
0000
0000
0010
0000
0000
1000
0100
0000
0000
0000
,
1000
0000
0000
1000
0100
0000
0000
0000
0010
0000
0000
0001
0100
0000
0000
0000
,
0010
0000
0000
0010
0100
0000
0000
0000
0010
0000
0000
1000
0001
0000
0000
0000
,
0010
0000
0000
0010
0100
0000
1000
0001
1000
0000
0000
0000
1001
0000
0000
0000
,
0001
0100
0001
0000
1100
0000
1001
0000
,
0001
0100
0001
0000
1100
0000
1001
0000
,
1000
0100
0001
0000
1000
0010
0001
0000
,
1001
0000
0000
0000
0110
0000
0000
0000
0010
0100
0010
0000
0100
0010
0100
0000
,
0001
0010
0001
0000
1010
0000
1001
0000
,
0001
0010
0001
0000
1010
0000
1001
0000
,
0001
0100
1000
0000
0001
0010
1000
0000
,
1001
0000
0000
0000
0110
0000
0000
0000
0100
0010
0100
0000
0010
0100
0010
0000
,
1000
0010
1000
0010
1000
0010
1000
0001
,
0010
0100
1000
0001
0100
0010
1010
0000
,
0010
0100
0010
0100
0001
0010
0001
1000
,
0100
1100
1100
1001
,
0001
0100
0001
0100
0001
0100
0001
1000
,
0100
0010
0001
1000
0010
0100
0101
0000
,
0100
0010
0100
0010
1000
0100
1000
0001
,
0220
0000
0000
0330
,
0001
0010
0100
0001
0100
1000
0001
1000
,
0100
0001
0100
1000
0100
0010
0001
0000
,
1000
0010
0100
1000
0100
0001
1000
0001
,
0100
0000
0001
0000
1000
0000
0000
0000
0100
0000
0010
0000
0001
1000
0001
1000
,
0001
0100
1000
0100
0010
1000
0001
0010
,
0100
1000
0010
0001
0010
1000
0001
0000
,
1000
0010
0100
1000
0100
0001
1000
0001
,
0100
0001
0100
0001
0100
0010
0000
0000
1000
0100
1000
0100
1000
0001
0000
0000
,
1002
0100
1000
0100
,
2003
0001
0100
0001
,
3100
0000
0000
0000
;

//---------------dance-single - ----------------
#NOTES:
     dance-single:
     :
     Challenge:
     12:
     0.626,0.574,0.358,0.167,0.525: // measure 1
0220
0000
0000
0330
,  // measure 2
2002
0000
0000
3003
,  // measure 3
0101
0100
1010
0010
,  // measure 4
2001
0000
0001
0000
0000
0001
0000
0000
3001
0000
1000
0100
1000
0100
0010
0000
,  // measure 5
0001
0100
0001
0100
0010
1000
0100
1000
,  // measure 6
0100
0001
0100
1000
0100
0010
0100
0010
,  // measure 7
0001
0000
1000
0000
0010
0000
0100
0000
0001
1000
0001
1000
0001
1000
0001
1000
,  // measure 8
0001
0100
0000
0100
0020
0000
0000
0000
0130
0001
0000
0001
1000
0000
1000
0000
,  // measure 9
0010
1000
0000
1000
0200
0000
0000
0000
0310
0001
0000
0001
0100
0000
0100
0000
,  // measure 10
0001
1000
0000
1000
0020
0000
0000
0000
0130
0001
0000
0001
0010
0000
0010
0000
,  // measure 11
0001
1000
0000
1000
0100
0000
0010
0001
0010
0001
0000
1000
0010
0000
0100
0000
,  // measure 12
0001
1000
0000
1000
0020
0000
0000
0000
1030
0001
0000
0001
1000
0000
0000
0000
,  // measure 13
1000
0010
0000
0010
0200
0000
0000
0000
0301
1000
0000
1000
0001
0000
0000
0000
,  // measure 14
0100
0001
0000
0001
1000
0000
0100
0000
1000
0001
0000
0001
0100
0000
0010
0000
,  // measure 15
0100
0001
0000
0001
1000
0000
0100
0000
1000
0001
1001
0000
0001
1000
1001
0000
,  // measure 16
1000
0100
0000
0100
0020
0000
0000
0000
0031
1000
0000
1000
0001
0000
0000
0000
,  // measure 17
0001
0010
0000
0010
0200
0000
0000
0000
1300
0001
0000
0001
1000
0000
0000
0000
,  // measure 18
0010
1000
0000
1000
0001
0000
0010
0000
0001
1000
0000
1000
0010
0000
0100
0000
,  // measure 19
0010
1000
0000
1000
0001
0000
0010
0000
0001
1000
1001
0000
1000
0001
1001
0000
,  // measure 20
0001
0010
0011
0001
1000
0100
1100
1000
,  // measure 21
0001
0100
1000
0010
0001
1000
0001
0000
,  // measure 22
1000
0010
1010
1000
0001
0100
0101
0001
,  // measure 23
1000
0000
0100
0000
0001
0000
0010
0000
1000
0001
1000
0001
0100
0010
0100
0010
,  // measure 24
0100
0001
0101
0100
0001
1000
1001
0001
,  // measure 25
1000
0010
0001
0100
1000
0001
1000
0000
,  // measure 26
0010
0000
1000
0000
1010
0000
0010
0000
0100
0010
0100
0010
1000
0001
1000
0001
,  // measure 27
2000
0000
0000
0000
0000
0000
0000
0000
3000
0000
0000
0000
0001
1000
0001
1000
,  // measure 28
0001
0000
0101
0000
0010
0100
1000
0000
0100
0000
1100
0000
0100
0001
0010
0000
,  // measure 29
0100
0000
0110
0000
0010
0100
1000
0000
0001
0000
0101
0000
0100
0010
0001
0000
,  // measure 30
1000
0000
1100
0000
0100
0001
0010
0000
0001
0000
1001
0000
1000
0010
0100
0000
,  // measure 31
0002
0000
1000
0000
1003
0001
1000
0000
0100
0000
0010
0000
0001
1000
0010
1000
,  // measure 32
0001
0000
1001
0000
1000
0100
0010
0000
0100
0000
0110
0000
0010
1000
0100
0000
,  // measure 33
0010
0000
0011
0000
0001
0010
0100
0000
1000
0000
1010
0000
0010
0100
0001
0000
,  // measure 34
1000
0000
1001
0000
0001
0010
0100
0000
0010
0000
0011
0000
0001
1000
0010
1000
,  // measure 35
0001
0010
0100
1000
0010
1010
0000
0000
0010
1000
0100
0010
0001
0011
0000
0000
,  // measure 36
0001
1000
1000
0100
0100
0001
0001
1000
,  // measure 37
0001
1000
1000
0100
0100
0001
0001
1000
,  // measure 38
0001
0000
0000
0000
;

//---------------dance-single - ----------------
#NOTES:
     dance-single:
     :
     Beginner:
     1:
     0.094,0.132,0.072,0.000,0.000:
0000
0000
0000
0000
,
0000
0000
0000
0000
,
0000
0000
0000
0000
,
0000
0000
0000
0000
,
1000
0000
0000
0000
,
0001
0000
0000
0000
,
1000
0000
1000
0000
,
1001
0000
0000
0000
,
1001
0000
0000
0000
,
1001
0000
0000
0000
,
1001
0000
0000
0000
,
0001
0000
1000
0000
,
0001
0000
1000
0000
,
0001
0000
1000
0000
,
0001
0000
0000
0000
,
0100
0000
0010
0000
,
0100
0000
0010
0000
,
0100
0000
0010
0000
,
0100
0000
0000
0000
,
0010
0000
0000
0000
,
0010
0000
0000
0000
,
0100
0000
0000
0000
,
0100
0000
0000
0000
,
0001
0000
0000
0000
,
0001
0000
0000
0000
,
1000
0000
0000
0000
,
1001
0000
0000
0000
,
1000
0000
0001
0000
,
1000
0000
0001
0000
,
0100
0000
0010
0000
,
1000
0000
1000
0000
,
0001
0000
1000
0000
,
0001
0000
1000
0000
,
0001
0000
0100
0000
,
0010
0000
1000
0000
,
1001
0000
0000
0000
,
0001
0000
0000
0000
,
1000
0000
0000
0000
;
