#TITLE:妄想ダイヤモンド;
#SUBTITLE:;
#ARTIST:sei☆shin feat.Eri;
#TITLETRANSLIT:MOUSOU DIAMOND;
#SUBTITLETRANSLIT:;
#ARTISTTRANSLIT:sei*shin feat.Eri;
#CREDIT:DigiMindAxel;
#BANNER:MOUSOU DIAMOND.png;
#BACKGROUND:MOUSOU DIAMOND-bg.png;
#LYRICSPATH:MOUSOU DIAMOND.lrc;
#CDTITLE:pop'n music.png;
#MUSIC:MOUSOU DIAMOND.mp3;
#METERTYPE:DDR X;
#OFFSET:-3.200;
#SAMPLESTART:58.002;
#SAMPLELENGTH:12.000;
#SELECTABLE:YES;
#BPMS:0.000=173.000;
#STOPS:;
#BGCHANGES:;

//---------------dance-single - ----------------
#NOTES:
     dance-single:
     :
     Easy:
     4:
     0.166,0.266,0.135,0.018,0.000: // measure 1
0001
0000
1000
0000
,  // measure 2
0001
0000
0010
0000
,  // measure 3
0001
0000
1000
0000
,  // measure 4
0001
0000
0010
0010
,  // measure 5
0001
0000
1000
0000
,  // measure 6
0100
0000
1000
0000
,  // measure 7
0001
0000
1000
0000
,  // measure 8
0100
0000
1000
0000
,  // measure 9
0001
0001
1000
1000
,  // measure 10
1001
0000
0000
0000
,  // measure 11
0110
0000
0000
0000
,  // measure 12
0000
0000
0000
0000
,  // measure 13
0010
0000
0000
0000
,  // measure 14
0000
0000
0000
0000
,  // measure 15
0100
0000
0000
0000
,  // measure 16
0000
0000
0000
0000
,  // measure 17
0010
0000
0000
0000
,  // measure 18
0100
0000
0000
0000
,  // measure 19
0110
0000
0010
0000
,  // measure 20
0010
0000
0010
0000
,  // measure 21
1000
0000
1000
0000
,  // measure 22
1000
0000
1000
0000
,  // measure 23
0001
0000
0001
0000
,  // measure 24
0001
0000
0001
0000
,  // measure 25
0001
0000
0010
0000
,  // measure 26
0100
0000
0000
0000
,  // measure 27
1001
0000
0000
0000
,  // measure 28
1000
0000
0000
0000
,  // measure 29
0001
0000
0000
0000
,  // measure 30
1001
0000
0000
0000
,  // measure 31
0010
0000
0000
0000
,  // measure 32
0100
0000
0000
0000
,  // measure 33
0010
0000
0000
0000
,  // measure 34
0100
0000
0000
0000
,  // measure 35
0110
0000
0000
0000
,  // measure 36
0001
0000
0000
0000
,  // measure 37
1000
0000
0000
0000
,  // measure 38
1001
0000
0000
0000
,  // measure 39
0001
0000
1000
0000
,  // measure 40
1001
0000
0000
0000
,  // measure 41
0010
0000
0100
0000
,  // measure 42
0010
0000
0100
0000
,  // measure 43
0001
0000
1000
0000
,  // measure 44
0001
0000
1000
0000
,  // measure 45
0100
0000
1000
0000
,  // measure 46
0100
0000
0000
0000
,  // measure 47
1001
0000
1001
0000
,  // measure 48
1001
0000
0000
0000
,  // measure 49
1000
0000
0001
0000
,  // measure 50
1000
0000
0001
0000
,  // measure 51
0100
0000
0001
0000
,  // measure 52
0100
0000
0001
0000
,  // measure 53
1000
0000
0001
0000
,  // measure 54
1000
0000
0010
0000
,  // measure 55
0100
0000
0000
0000
,  // measure 56
0010
0000
0010
0000
,  // measure 57
0010
0000
0000
0000
,  // measure 58
0110
0000
0000
0000
,  // measure 59
1001
0000
0000
0000
,  // measure 60
1001
0000
1000
0000
,  // measure 61
0001
0000
1000
0000
,  // measure 62
0100
0000
1000
0000
,  // measure 63
0100
0000
1000
1000
,  // measure 64
0001
0000
0010
0000
,  // measure 65
0001
0000
1000
0000
,  // measure 66
0001
0000
0010
0000
,  // measure 67
0100
0000
1000
0000
,  // measure 68
0001
0001
1000
1000
,  // measure 69
0001
0000
0000
0000
,  // measure 70
2002
0000
0000
0000
,  // measure 71
0000
0000
0000
0000
,  // measure 72
0000
0000
0000
0000
,  // measure 73
0000
0000
0000
0000
,  // measure 74
0000
0000
0000
0000
,  // measure 75
3003
0000
0000
0000
;

//---------------dance-single - ----------------
#NOTES:
     dance-single:
     :
     Medium:
     8:
     0.406,0.499,0.261,0.180,0.004: // measure 1
0001
0000
1000
0100
0000
1000
0000
0001
,  // measure 2
0000
1000
0001
0000
0001
0000
0000
0000
,  // measure 3
1000
0000
0001
0100
0000
0001
0000
1000
,  // measure 4
0000
0001
1000
0000
0010
1000
0010
1000
,  // measure 5
0010
0000
0100
0010
0000
0100
0000
0001
,  // measure 6
0000
1000
0001
0000
0001
0000
0000
0000
,  // measure 7
1000
0100
1000
0000
0001
0010
0001
0000
,  // measure 8
1000
0001
1000
0000
0001
1000
0001
1000
,  // measure 9
0001
0010
0100
1000
,  // measure 10
2200
0000
0000
3300
,  // measure 11
1001
0000
0000
0000
0000
0001
0000
0000
,  // measure 12
0001
0000
0000
1000
0000
0001
0000
0000
,  // measure 13
1000
0000
0000
0000
0000
1000
0000
0000
,  // measure 14
1000
0000
0000
0001
0000
0000
1000
0000
,  // measure 15
0001
0000
0000
0000
0000
0100
0000
0000
,  // measure 16
0100
0000
0000
0000
0000
0001
0000
0000
,  // measure 17
0001
0000
0000
0000
0000
0010
0000
0000
,  // measure 18
0010
0000
0000
0100
0000
0010
0100
0000
,  // measure 19
0110
0010
0100
0010
,  // measure 20
0100
0010
0100
0010
,  // measure 21
1000
0001
1000
0001
,  // measure 22
1000
0001
1000
0001
,  // measure 23
0010
0001
0010
0001
,  // measure 24
0010
0001
1000
0100
,  // measure 25
0010
0000
0000
0000
0000
0000
0000
0000
0001
0000
0000
0001
0000
0000
0001
0000
,  // measure 26
2000
0000
3001
1000
,  // measure 27
1200
0000
0000
1300
,  // measure 28
0002
0000
0000
0013
,  // measure 29
0002
0000
0000
1003
,  // measure 30
1001
0000
0000
1001
0000
1001
0000
0000
,  // measure 31
0020
0000
0000
0130
0000
0000
0000
0000
,  // measure 32
0002
0000
0000
1003
0000
0000
0000
0000
,  // measure 33
0020
0000
0000
1030
0000
0000
0000
0000
,  // measure 34
0002
0000
0000
0103
0000
0000
0000
0000
,  // measure 35
0002
0000
2003
0000
,  // measure 36
3002
0000
1003
0100
,  // measure 37
0020
0000
0000
0000
,  // measure 38
0130
0000
0000
0110
0000
0110
0000
0000
,  // measure 39
0010
0100
0010
1000
,  // measure 40
0001
0001
0001
0001
0000
0000
0000
0000
,  // measure 41
1001
1000
1100
0100
,  // measure 42
1000
0001
1000
0100
0010
0001
1000
0000
,  // measure 43
1001
0001
0101
0100
,  // measure 44
0001
1000
0001
0100
0010
1000
0010
0000
,  // measure 45
1010
0010
0100
0001
,  // measure 46
0010
0100
1000
0000
,  // measure 47
0001
1000
0001
0000
1000
0100
1000
0000
,  // measure 48
0010
0100
0001
0010
,  // measure 49
1100
1000
1001
0001
,  // measure 50
0100
0001
0100
0000
0001
1000
0001
0000
,  // measure 51
1000
0100
0010
0100
,  // measure 52
0010
0100
0010
0000
0001
0000
0001
0000
,  // measure 53
1000
0100
1000
0000
0010
0100
0010
0000
,  // measure 54
1000
0000
0001
0100
0010
1000
0001
0000
,  // measure 55
1001
1000
1010
0010
,  // measure 56
0110
0110
0101
0101
,  // measure 57
0001
1000
0001
0000
1000
0100
1000
0000
,  // measure 58
1001
0000
0001
0010
0100
1000
0001
0000
,  // measure 59
2002
0000
0000
3003
,  // measure 60
0011
0000
0001
1000
0000
0010
0000
1000
,  // measure 61
0000
0001
1000
0000
1000
0000
0000
0000
,  // measure 62
0100
0000
1000
0001
0000
0010
0000
0001
,  // measure 63
0000
1000
0100
0000
1000
0001
1000
0001
,  // measure 64
1000
0000
0010
0100
0000
0010
0000
0100
,  // measure 65
0000
0001
1000
0000
1000
0000
0000
0000
,  // measure 66
0001
0010
0001
0000
1000
0100
1000
0000
,  // measure 67
0001
1000
0001
0010
0100
1000
0001
0000
,  // measure 68
1001
1000
0110
0001
,  // measure 69
0202
0000
0000
0303
,  // measure 70
0220
0000
0000
0000
,  // measure 71
0000
0000
0000
0000
,  // measure 72
0000
0000
0000
0000
,  // measure 73
0000
0000
0000
0000
,  // measure 74
0000
0000
0000
0000
,  // measure 75
0330
0000
0000
0000
;

//---------------dance-single - ----------------
#NOTES:
     dance-single:
     :
     Hard:
     11:
     0.582,0.633,0.486,0.378,0.081: // measure 1
1000
0001
0010
0100
0000
0001
0000
0100
,  // measure 2
0000
1000
0001
0000
0022
0000
0033
0000
,  // measure 3
0001
1000
0010
0100
0000
1000
0000
0100
,  // measure 4
0000
0001
1000
0100
0010
0001
1000
0001
,  // measure 5
1000
0001
0100
0010
0000
0001
0000
0010
,  // measure 6
0000
1000
0001
0000
0202
0000
0303
0000
,  // measure 7
0001
1000
0100
0001
0000
0100
1000
0002
,  // measure 8
0000
0000
1003
0010
0100
0001
1000
0001
,  // measure 9
1000
0000
0100
0000
0010
0000
0001
0000
0100
0010
0100
0010
0100
0010
0100
0010
,  // measure 10
0200
0000
0000
0300
,  // measure 11
1001
0000
0000
0000
0000
1100
0000
0000
,  // measure 12
1100
0000
0000
1000
0000
0001
1000
0000
,  // measure 13
1001
0000
0000
0000
0000
0101
0000
0000
,  // measure 14
0101
0000
0000
0100
0001
0010
0100
1000
,  // measure 15
0001
0000
0000
0000
0000
0011
0000
0000
,  // measure 16
0011
0000
0000
0000
0000
0001
1000
0000
,  // measure 17
1001
0000
0000
0000
0000
1010
0000
0000
,  // measure 18
1010
0000
0000
0000
0000
0000
0100
0000
0000
0000
0010
0000
0100
0001
0100
0001
,  // measure 19
0100
0000
0000
0001
0000
0001
1000
0000
,  // measure 20
0100
1000
0000
1000
0000
1000
0010
0000
,  // measure 21
0100
0000
0010
0100
0000
0100
0001
0000
,  // measure 22
1000
0001
0000
0001
0000
0001
0010
0000
,  // measure 23
0001
0000
1000
0001
0000
0001
1000
0000
,  // measure 24
0100
1000
0000
1000
0000
1000
0001
0000
,  // measure 25
0101
0000
0000
0000
0000
0000
0000
0000
0001
0000
0000
0100
0000
0000
1000
0000
,  // measure 26
1002
0000
0000
0000
1003
1000
0001
0000
,  // measure 27
0201
0000
0000
0010
0310
0000
0110
0000
,  // measure 28
1020
0000
0000
0100
0130
0001
0010
0100
,  // measure 29
2000
0000
0000
0100
3100
0000
1100
0000
,  // measure 30
1000
1001
0000
0101
0000
1010
0000
0000
,  // measure 31
0100
0001
0010
0200
0000
0000
1300
0000
,  // measure 32
0001
1000
0010
0200
0000
0000
0301
0000
,  // measure 33
0120
0000
0000
1000
0000
0000
1030
0000
,  // measure 34
0210
0000
0000
0001
0000
0000
0301
0001
,  // measure 35
1000
0100
0001
0010
,  // measure 36
1000
0000
0020
0230
,  // measure 37
0301
0010
0100
1000
,  // measure 38
0001
1001
0000
0011
0000
1100
0000
0000
,  // measure 39
1001
0000
1000
0010
0100
0000
0001
1000
,  // measure 40
0100
0100
0100
1100
0000
0000
0000
0000
,  // measure 41
1001
0000
0001
0010
0100
0001
0100
0000
,  // measure 42
1000
0010
0100
1000
0100
0001
1000
0000
,  // measure 43
1001
0000
1000
0010
0100
1000
0100
0000
,  // measure 44
0001
0010
0100
0001
0100
1000
0001
0000
,  // measure 45
1002
0203
2300
3200
,  // measure 46
0302
0023
0130
0110
,  // measure 47
1000
0010
0001
0010
1000
0100
0010
0001
,  // measure 48
1000
0000
0000
1000
0010
0000
0000
0010
0100
0000
0000
0100
0001
0000
0000
0000
,  // measure 49
1001
0000
0001
0100
0010
0001
0010
0000
,  // measure 50
1000
0100
0010
1000
0010
0001
1000
0000
,  // measure 51
1001
0000
0001
0100
0010
0001
0010
0000
,  // measure 52
1000
0100
0010
1000
0010
0001
1000
0000
,  // measure 53
1100
0011
1001
0110
,  // measure 54
0101
0000
0001
0100
1000
0100
0001
0000
,  // measure 55
1002
0013
2100
3001
,  // measure 56
1001
1001
0110
0110
,  // measure 57
0101
0000
0001
1000
0010
0001
0010
0000
,  // measure 58
1010
0000
1000
0001
0100
1000
0100
0001
,  // measure 59
2002
0000
0000
3003
,  // measure 60
0101
0001
1000
0200
0000
0302
0000
0203
,  // measure 61
0000
1300
0001
0000
2002
0000
3003
0000
,  // measure 62
1100
1000
0001
0200
0000
2300
0000
3200
,  // measure 63
0000
0000
0301
0000
1000
0000
0100
0000
0010
0000
0001
0000
1000
0001
1000
0001
,  // measure 64
1000
0001
0010
2000
0000
3020
0000
0032
,  // measure 65
0000
1003
0001
0000
2002
0000
3003
0000
,  // measure 66
1000
0001
0010
1000
0000
0010
0001
2000
,  // measure 67
0000
0000
3001
0000
1000
0000
0010
0000
0100
0000
0001
0000
1000
0001
1000
0001
,  // measure 68
1000
0100
0010
0100
1000
0001
0100
0010
,  // measure 69
0110
0000
0000
0000
0000
0000
0000
0000
1000
0001
1000
0001
1000
0001
1000
0001
,  // measure 70
2000
0000
0000
0000
,  // measure 71
0200
0000
0000
0000
,  // measure 72
0000
0000
0000
0000
,  // measure 73
0000
0000
0000
0000
,  // measure 74
0000
0000
0000
0000
,  // measure 75
3300
0000
0000
0000
;

//---------------dance-single - ----------------
#NOTES:
     dance-single:
     :
     Beginner:
     2:
     0.090,0.155,0.126,0.000,0.000: // measure 1
1001
0000
0000
0000
,  // measure 2
1000
0000
0000
0000
,  // measure 3
0001
0000
0000
0000
,  // measure 4
1000
0000
0000
0000
,  // measure 5
0110
0000
0000
0000
,  // measure 6
0010
0000
0000
0000
,  // measure 7
0100
0000
0000
0000
,  // measure 8
0010
0000
0000
0000
,  // measure 9
1000
0000
0000
0000
,  // measure 10
1001
0000
0000
0000
,  // measure 11
0001
0000
0000
0000
,  // measure 12
0000
0000
0000
0000
,  // measure 13
0010
0000
0000
0000
,  // measure 14
0000
0000
0000
0000
,  // measure 15
0100
0000
0000
0000
,  // measure 16
0000
0000
0000
0000
,  // measure 17
1000
0000
0000
0000
,  // measure 18
0000
0000
0000
0000
,  // measure 19
1001
0000
0000
0000
,  // measure 20
0000
0000
0000
0000
,  // measure 21
0001
0000
0000
0000
,  // measure 22
0000
0000
0000
0000
,  // measure 23
0100
0000
0000
0000
,  // measure 24
0000
0000
0000
0000
,  // measure 25
0010
0000
0000
0000
,  // measure 26
0000
0000
0000
0000
,  // measure 27
0110
0000
0000
0000
,  // measure 28
1000
0000
0000
0000
,  // measure 29
0001
0000
0000
0000
,  // measure 30
1001
0000
0000
0000
,  // measure 31
1000
0000
0000
0000
,  // measure 32
0010
0000
0000
0000
,  // measure 33
0100
0000
0000
0000
,  // measure 34
0001
0000
0000
0000
,  // measure 35
0100
0000
0000
0000
,  // measure 36
0000
0000
0000
0000
,  // measure 37
0010
0000
0000
0000
,  // measure 38
0110
0000
0000
0000
,  // measure 39
0100
0000
0000
0000
,  // measure 40
1001
0000
0000
0000
,  // measure 41
0001
0000
0000
0000
,  // measure 42
0010
0000
0000
0000
,  // measure 43
0100
0000
0000
0000
,  // measure 44
0010
0000
0000
0000
,  // measure 45
0001
0000
0000
0000
,  // measure 46
0000
0000
0000
0000
,  // measure 47
1001
0000
0000
0000
,  // measure 48
1000
0000
0000
0000
,  // measure 49
0110
0000
0000
0000
,  // measure 50
0100
0000
0000
0000
,  // measure 51
0010
0000
0000
0000
,  // measure 52
0100
0000
0000
0000
,  // measure 53
1000
0000
0000
0000
,  // measure 54
0001
0000
0000
0000
,  // measure 55
1001
0000
0000
0000
,  // measure 56
0001
0000
0000
0000
,  // measure 57
0100
0000
0000
0000
,  // measure 58
0010
0000
0000
0000
,  // measure 59
0110
0000
0000
0000
,  // measure 60
0100
0000
0000
0000
,  // measure 61
0000
0000
0000
0000
,  // measure 62
0001
0000
0000
0000
,  // measure 63
0000
0000
0000
0000
,  // measure 64
1000
0000
0000
0000
,  // measure 65
0000
0000
0000
0000
,  // measure 66
0100
0000
0000
0000
,  // measure 67
0000
0000
0000
0000
,  // measure 68
0010
0000
0000
0000
,  // measure 69
0110
0000
0000
0000
,  // measure 70
1001
0000
0000
0000
;
