#TITLE:MODEL FT3;
#SUBTITLE:;
#ARTIST:Mutsuhiko Izumi;
#TITLETRANSLIT:;
#SUBTITLETRANSLIT:;
#ARTISTTRANSLIT:;
#CREDIT:DigiMindAxel;
#BANNER:MODEL FT3.png;
#BACKGROUND:MODEL FT3-bg.png;
#LYRICSPATH:;
#CDTITLE:GITADORA.png;
#MUSIC:MODEL FT3.mp3;
#METERTYPE:DDR X;
#OFFSET:-7.840;
#SAMPLESTART:13.595;
#SAMPLELENGTH:12.000;
#SELECTABLE:YES;
#BPMS:0.000=310.000;
#STOPS:312.000=0.968
,471.000=0.581
;
#BGCHANGES:;

//---------------dance-single - ----------------
#NOTES:
     dance-single:
     :
     Easy:
     8:
     0.335,0.448,0.245,0.141,0.000:
1001
0000
0000
1001
,
0000
0000
0000
0000
,
0110
0000
0000
0110
,
0000
0000
0000
0000
,
0010
0000
0100
0000
,
0010
0000
0100
0000
,
0002
0000
0000
0000
,
0003
0000
0000
0000
,
1000
0000
0100
0000
,
1000
0000
0100
0000
,
2000
0000
0000
0000
,
3000
0000
0000
0000
,
0001
0000
1000
0000
,
0001
0000
1000
0000
,
0200
0000
0000
0000
,
0300
0000
0000
0000
,
1000
0000
0001
0000
,
1000
0000
0100
0000
,
1000
0000
0001
0000
,
1000
0000
0100
0000
,
0010
0000
0001
0000
,
0010
0000
0001
0000
,
2002
0000
0000
0000
,
0000
3003
0000
0000
,
1000
0000
0100
0000
,
1000
0000
0100
0000
,
0010
0000
0000
1001
,
0000
0000
0000
0000
,
0001
0000
1000
0000
,
0010
0000
1000
0000
,
0001
0000
0000
1001
,
0000
0000
0000
0000
,
0100
0000
0010
0000
,
0100
0000
0010
0000
,
0001
0000
1000
0000
,
0001
0000
1000
0000
,
0100
0000
0100
0000
,
0100
0000
0100
0000
,
2002
0000
0000
0000
,
0000
3003
0000
0000
,
0010
0000
0100
0000
,
0010
0000
1000
0000
,
0001
1000
0001
0000
,
1000
0000
0100
0000
,
1000
0000
0010
0000
,
0100
0000
0001
0000
,
1000
0000
0001
0000
,
1000
0001
0000
0000
,
1000
0000
0100
0000
,
1000
0000
0100
0000
,
0010
0000
0001
0000
,
0100
0010
0100
0000
,
0001
0000
1001
0000
,
1000
0000
1001
0000
,
0220
0000
0000
0330
,
0110
0000
0000
0000
,
0010
0000
0100
0000
,
0001
0000
0001
0000
,
0010
0000
0001
0000
,
0100
0000
0100
0000
,
0010
0000
1000
0000
,
0001
0000
0001
0000
,
1000
0000
0100
0000
,
1000
0000
1000
0000
,
0010
0100
0010
0000
,
1000
0000
0001
0000
,
1000
0100
1000
0000
,
0001
0000
1000
0000
,
0001
0010
0001
0000
,
0100
0010
0100
0000
,
2002
0000
0000
0000
,
3003
0000
0000
0000
,
1000
0000
0100
0000
,
1000
0000
0100
0000
,
0010
0000
0001
0000
,
0010
0000
0001
0000
,
0100
0000
0100
0000
,
0100
0000
0100
0000
,
0110
0000
0000
0010
,
0000
0100
0000
0010
,
0000
0100
0000
0002
,
0000
0000
0000
0000
,
0000
0003
0000
0100
,
0000
0010
0000
0100
,
0000
0010
0000
2000
,
0000
0000
0000
0000
,
0000
3000
0000
1001
,
0000
0000
1001
0000
,
0000
0000
0000
0110
,
0000
0000
0110
0000
,
0000
0000
0000
0010
,
0000
0010
0000
0010
,
0000
0010
0000
0220
,
0000
0000
0000
0000
,
0330
0000
0000
1000
,
0100
1000
0000
0001
,
1000
0001
0000
0010
,
0000
0001
0000
0100
,
0000
0010
0000
0100
,
0010
0100
0000
0001
,
1000
0001
0000
1000
,
0100
1000
0000
0001
,
0010
0001
0000
1000
,
0001
1000
0000
0001
,
0100
0001
0000
1000
,
0000
0100
0000
1000
,
0000
1000
0000
0001
,
1000
0001
1000
0100
,
1000
0100
0000
1001
,
0000
0000
0000
1001
,
0000
0000
0000
0110
,
0000
0000
0010
0000
,
0000
0100
0000
0010
,
0000
0000
1000
0000
,
0000
0001
0000
1000
,
0000
0000
0100
0000
,
0000
0010
0000
1001
,
0000
0000
0000
1001
,
0110
0000
0000
0000
,
0110
0000
0000
0000
;

//---------------dance-single - ----------------
#NOTES:
     dance-single:
     :
     Medium:
     10:
     0.598,0.560,0.433,0.461,0.000:
2002
0000
3003
2002
,
0000
3003
0000
0000
,
0220
0000
0330
0220
,
0000
0330
0000
0000
,
0010
0100
0010
0100
,
0001
0010
0100
1000
,
2002
0000
0000
3003
,
1001
0000
0000
0000
,
0001
0010
0100
1000
,
0001
1000
0100
0010
,
0002
0000
1000
1003
,
0000
0000
0001
1000
,
0001
0100
0010
1000
,
0001
1000
0010
0100
,
0002
0000
1000
1003
,
0000
0000
0001
1000
,
0002
0000
0103
0202
,
0000
0303
0010
0100
,
0020
0000
0130
0220
,
0000
0330
0100
0010
,
1000
0100
0010
0001
,
0010
0100
1000
0001
,
1001
0000
0000
0000
1000
0000
0000
0001
,
0000
0001
1000
0001
,
1000
0100
0010
0100
,
1000
0001
0100
0010
,
0100
0100
0100
1001
,
0000
0000
0001
1000
,
0001
0100
0010
0100
,
0001
0010
0100
1000
,
0010
0010
0010
1001
,
0000
0000
1000
0001
,
2000
0000
3100
2200
,
0000
3300
1000
0001
,
0200
0000
0301
0202
,
0000
0303
0001
1000
,
0100
0010
0001
1000
,
0100
0010
0001
1000
,
1001
0000
0000
0000
0001
0000
0000
1000
,
0000
1000
0001
0010
,
0100
1000
0010
1000
,
0100
1000
0010
1000
,
0100
0010
0001
0000
,
1001
0000
0110
0000
,
0100
0001
0010
0100
,
0010
0001
0100
0010
,
1000
0010
0100
0000
,
0001
1001
0000
0000
,
0001
1000
0100
1000
,
0001
1000
0100
1000
,
0001
0100
0001
0000
,
1001
0000
0110
0000
,
0100
0010
0001
0010
,
0100
1000
0010
0100
,
0210
0000
0000
0000
0000
0010
0000
0310
,
0000
0000
1000
0001
,
2000
0000
0000
3100
,
1000
0010
0100
0001
,
0020
0000
0230
0000
,
1300
0001
0100
0001
,
1000
0100
1000
0100
,
0010
0100
0010
0001
,
0010
0001
0010
0100
,
2000
0000
3001
0000
,
1000
0010
0100
0010
,
1000
0100
0010
0001
,
1000
0010
0100
0010
,
1000
0100
0010
0001
,
1000
0100
1000
0100
,
0010
0100
0010
0001
,
2002
0000
0000
3003
,
0001
0010
0100
1000
,
0002
0000
0013
0000
,
0200
0000
0310
0000
,
0200
0000
1300
0000
,
0002
0000
1003
0000
,
0110
0000
0000
0010
0000
0100
0000
0010
,
0000
0100
0000
0010
0000
0100
0000
0000
,
0110
0020
0000
0130
,
0010
0000
0001
0100
,
0000
0010
1000
0001
,
0010
0001
0010
0000
,
0000
0002
0000
1003
,
0100
0000
0010
0001
,
0000
0100
0010
1000
,
0010
1000
0020
0000
,
0000
0000
0030
2002
,
0000
3003
2002
0000
,
3003
0000
0000
0220
,
0000
0330
0220
0000
,
0330
0000
0000
0001
,
0010
0100
1000
0100
,
0010
0001
0100
0110
,
0000
0000
0010
0000
0000
0100
0000
0000
,
0100
0001
1000
0001
,
0010
0100
0010
0001
,
1000
0010
0100
0010
,
1000
1001
0000
0110
,
0000
0110
0000
0100
,
0001
0010
0100
1000
,
0100
0010
0001
1000
,
0010
0100
0001
0100
,
0010
1000
0000
0001
,
0100
0010
0100
0001
,
1000
0100
0010
0100
,
1000
1001
0000
0110
,
0000
0110
0000
0001
,
0010
0100
1000
0100
,
0010
0001
1000
1002
,
0000
0000
0000
1000
0000
1003
0000
0000
,
0000
0010
0100
0110
,
0000
0000
1100
0000
,
0000
0011
0000
1001
,
0000
0000
0101
0000
,
0000
1010
0000
1001
,
0000
0000
0110
0000
,
0000
1001
0000
0200
,
0000
0010
0000
0310
0000
0000
0110
0000
,
0002
0000
0000
1000
0000
1003
0000
0000
,
1001
0000
0000
0000
;

//---------------dance-single - ----------------
#NOTES:
     dance-single:
     :
     Hard:
     14:
     0.863,0.840,0.499,0.452,0.000:
1002
0000
0103
2001
,
0000
3100
1100
0000
,
2001
0000
3010
1002
,
0000
0013
0011
0000
,
0001
1000
1001
1000
,
0010
0100
0010
0100
0010
0100
0010
0000
,
1000
0001
0000
1000
0000
1000
0000
0001
,
1000
0000
0000
0000
0001
1000
0001
1000
,
0002
0100
0103
0020
,
1000
1030
0001
0100
,
0001
0000
1000
0001
1000
0000
1001
0000
,
0000
0000
0000
0000
1000
0001
1000
0001
,
2000
0100
3100
0020
,
0001
0031
1000
0100
,
0010
0000
0001
0100
0001
1000
0000
1001
,
0000
0000
0000
0000
0001
1000
0001
1000
,
0200
1000
1300
0220
,
0000
0330
0100
0001
,
0020
0001
0031
0220
,
0000
0330
0010
0100
,
0001
1000
0001
0000
1000
0001
1000
0000
,
0100
1000
0100
0000
0010
0001
0010
0000
,
0001
1000
0001
1000
0001
0000
1000
0001
,
0000
1000
0001
0000
1000
0100
1000
0100
,
1000
0000
0010
0100
0010
0000
1000
0000
,
0001
0010
0001
0000
1000
0000
0100
0000
,
1100
0000
1000
0001
1000
0000
1001
0000
,
0000
0000
0000
0000
0001
0100
0001
0100
,
0001
0000
0010
0100
0010
0000
0001
0000
,
1000
0010
1000
0000
0001
0000
0010
0000
,
0001
0000
0100
0010
0100
0001
0000
1001
,
0000
0000
0000
0000
1000
0001
1000
0001
,
2000
0100
3100
2002
,
0000
3003
0001
1000
,
0002
0010
0013
2002
,
0000
3003
0001
1000
,
0100
0010
0100
0000
1000
0001
1000
0000
,
0001
0100
0001
0000
1000
0010
1000
0000
,
0001
1000
0001
1000
0001
0000
1000
0001
,
0000
1000
0001
0000
0100
0010
0100
0010
,
0100
0001
0010
1000
,
0010
0001
0010
0100
,
0110
0010
1001
0000
,
2200
3300
0022
0033
,
0001
1000
0001
0000
0100
0001
0100
0000
,
0010
1000
0010
0000
1000
0001
1000
0000
,
0100
1000
0010
0000
0100
0001
0010
0000
,
1001
0000
1001
0000
1000
0001
1000
0001
,
1000
0100
0001
0100
,
1000
0010
0100
0001
,
1001
0100
0110
0000
,
0202
0303
2020
3030
,
1000
0001
1000
0000
0100
1000
0100
0000
,
0010
0001
0010
0000
0001
1000
0010
0000
,
0100
0010
0100
0010
0100
0001
0000
0101
,
0000
0000
0000
0000
0001
1000
0001
1000
,
0200
0000
0000
0000
0000
0000
1300
0001
,
1000
0000
0001
0100
0001
0000
1000
0010
,
1000
0010
0100
0010
0100
0001
1000
0000
,
0001
0000
2000
0000
0000
0000
3001
1000
,
0001
1000
0100
0000
0010
0001
0010
0000
,
0100
0010
0100
0000
1000
0001
1000
0000
,
0010
0000
0100
0000
0010
0000
1000
0002
,
0000
0000
1003
0000
,
0001
0000
1000
0000
0010
1000
0010
0000
,
0100
0001
0100
0001
1000
0000
0001
0000
,
1000
0100
2000
0000
0001
0000
3001
0000
,
1000
0001
0100
0000
,
0101
0001
1001
1000
,
0010
0100
0010
0100
0001
1000
0001
1000
,
0002
0000
0000
0003
,
1000
0100
1000
0100
0010
0001
0010
0001
,
1000
0010
1010
0000
,
0010
0001
0011
0000
,
0001
1000
1001
0000
,
0100
0010
0110
0000
,
0001
1000
0000
0010
0000
0100
0000
0001
,
0000
0100
0000
0010
0000
1000
0001
1000
,
0010
0000
0100
0010
0100
0010
0100
0000
,
0001
0100
0000
0000
0001
0000
0100
0001
,
0000
1000
0100
0010
,
0001
1000
0010
0000
2000
0000
0000
0000
,
0000
0000
3001
1000
0001
1000
0001
0000
,
1000
0100
0000
0000
1000
0000
0001
0010
,
0000
0001
0010
0100
,
1000
0001
0010
0001
0000
0011
0000
0000
,
0000
0000
0001
1000
0001
1000
0002
0000
,
0000
0103
0220
0000
,
0000
0330
0000
2100
,
0000
3100
0220
0000
,
0000
0000
0330
0000
0000
0000
0001
0010
,
0001
0000
0010
0100
0010
0000
0100
1000
,
0100
0000
1000
0001
1000
0000
0010
0100
,
0010
0100
0010
0000
1000
0001
0000
1000
,
0001
0000
0100
0001
0100
0001
1000
0000
,
0100
0010
0100
1000
,
0100
1000
0001
0000
0100
0000
0110
0000
,
0010
1010
0000
0220
,
0330
0000
2002
0000
3003
0000
0010
1000
,
0010
0000
0100
0001
0100
0000
0001
1000
,
0001
0000
0100
0010
0100
0000
0001
0010
,
0001
0000
0010
0100
0010
0000
1001
0000
,
1001
0000
0001
0010
0001
0010
0001
0000
,
0100
0010
0100
0001
,
1000
0001
0100
0000
0101
0000
0100
0000
,
0110
0110
0000
2002
,
3003
0000
0220
0000
0330
0000
1000
0100
,
1000
0000
0100
0010
0100
0000
1000
0001
,
1000
0000
0010
0100
0010
0000
1000
0001
,
0100
0001
0000
1000
0000
1001
0000
0000
,
0000
0000
0010
0100
0010
0100
0001
0000
,
0010
0001
0010
0000
0100
0000
1000
0010
,
1000
0100
0010
0011
,
0010
0001
0010
0000
0100
0000
1000
0010
,
1000
1001
1001
0011
,
0010
0001
0010
0000
0100
0000
1000
0010
,
1000
0000
0100
0000
0010
0000
0001
1000
,
0000
0001
0000
0001
1000
0010
1000
0000
,
0100
0010
0000
0001
0000
0001
1000
0010
,
1000
0000
0000
0000
;

//---------------dance-single - ----------------
#NOTES:
     dance-single:
     :
     Challenge:
     17:
     1.000,0.952,0.602,0.292,0.000: // measure 1
1001
0000
0000
1000
0010
0000
0210
0000
,  // measure 2
0000
0000
0310
0000
0100
0010
0100
0010
,  // measure 3
1000
0000
0000
0010
0100
0000
0120
0000
,  // measure 4
0000
0000
0130
0000
0010
0100
0010
0100
,  // measure 5
0001
1000
0001
1000
0001
1000
0001
1000
,  // measure 6
0100
0010
0100
0010
0001
0100
0001
0100
,  // measure 7
0010
1000
0000
1010
0000
1000
0010
0100
,  // measure 8
0001
0000
0000
0000
1000
0001
1000
0001
,  // measure 9
1000
0000
0001
0100
0001
0000
1000
0000
,  // measure 10
0001
0100
0001
0000
1000
0000
0001
0000
,  // measure 11
1001
0000
1000
0010
0100
0000
0220
0000
,  // measure 12
0000
0000
0330
0000
0001
1000
0001
1000
,  // measure 13
0001
0000
1000
0100
1000
0000
0001
0000
,  // measure 14
1000
0100
1000
0000
0001
0000
1000
0000
,  // measure 15
1001
0000
0001
0010
0100
1000
0000
1100
,  // measure 16
0000
0000
1000
0001
1000
0100
1000
0100
,  // measure 17
0010
0000
0010
0001
0010
0000
0010
0100
,  // measure 18
1000
0000
1000
0010
1000
0000
1000
0001
,  // measure 19
0010
0000
0010
0100
0010
0000
0010
0001
,  // measure 20
0100
0000
0100
0010
0100
0000
0100
0000
,  // measure 21
0001
0010
0001
0010
0100
1000
0100
1000
,  // measure 22
0100
0010
0100
0010
0001
1000
0001
1000
,  // measure 23
0001
0100
0010
0100
0001
0000
0100
0001
,  // measure 24
0000
1000
0100
0000
1000
0100
0010
0001
,  // measure 25
1000
0000
0001
0100
0010
0000
1000
0000
,  // measure 26
0001
0100
0010
0000
1000
0000
1000
0000
,  // measure 27
1001
0000
0001
0100
0010
0000
0220
0000
,  // measure 28
0000
0000
0330
0000
0001
0010
0100
1000
,  // measure 29
0001
0000
1000
0010
0100
0000
0001
0000
,  // measure 30
1000
0010
0100
0000
0001
0000
0001
0000
,  // measure 31
1001
0000
1000
0100
0010
0001
0000
0011
,  // measure 32
0000
0000
1000
0001
1000
0010
0100
0001
,  // measure 33
0100
0000
0100
0001
0010
0000
0010
0100
,  // measure 34
0010
0000
0010
0100
1000
0000
1000
0001
,  // measure 35
1000
0000
1000
0010
0100
0000
0100
0010
,  // measure 36
0100
0000
0100
0001
0010
0000
0010
0000
,  // measure 37
0001
0100
0001
0100
0010
1000
0010
1000
,  // measure 38
0100
0010
0100
0010
0001
1000
0001
1000
,  // measure 39
0001
0010
0100
0010
0001
0000
0010
0001
,  // measure 40
0000
1000
0010
0000
1000
0001
0010
0100
,  // measure 41
1000
0010
0001
0010
,  // measure 42
1000
0000
0001
1000
0100
0000
1000
0000
,  // measure 43
1100
1100
2002
3003
,  // measure 44
0110
0110
2002
3003
,  // measure 45
0001
0100
0001
0100
0010
1000
0010
1000
,  // measure 46
0100
0010
0100
0010
0001
1000
0001
1000
,  // measure 47
0001
0100
0001
0100
0010
1000
0010
0000
,  // measure 48
0110
0000
0110
0000
0100
0001
0010
0100
,  // measure 49
1000
0010
0001
0010
,  // measure 50
1000
0000
0001
1000
0010
0000
1000
0000
,  // measure 51
1010
1010
2002
3003
,  // measure 52
0110
0110
2002
3003
,  // measure 53
0100
0001
0100
0001
0010
0100
0010
0100
,  // measure 54
1000
0010
1000
0010
1000
0001
1000
0001
,  // measure 55
1000
0100
0010
0100
1000
0010
0000
0220
,  // measure 56
0000
0000
0330
0000
0001
0100
0001
0100
,  // measure 57
0020
0000
1000
0000
1030
0001
1000
0001
,  // measure 58
1000
0100
0010
0100
1000
0010
0100
0000
,  // measure 59
0001
0100
0010
0100
0001
0010
0100
1000
,  // measure 60
0100
1000
0001
0010
0001
0000
1000
0001
,  // measure 61
1000
0100
0010
0100
1000
0100
0010
0100
,  // measure 62
1000
0001
0010
0001
0100
0001
0010
0001
,  // measure 63
2000
0000
3010
0000
1000
0100
0010
0001
,  // measure 64
0100
0010
0100
0010
0100
0010
0100
0010
,  // measure 65
0100
0000
0001
0100
0010
0100
0001
0100
,  // measure 66
0001
0010
0100
1000
0100
0010
0001
1000
,  // measure 67
0001
0010
0200
0000
1000
0000
1300
0001
,  // measure 68
1000
0001
1000
0100
0010
0001
0010
0000
,  // measure 69
0001
1000
0001
1000
0100
1000
0001
0010
,  // measure 70
0001
1000
0010
0100
0001
0100
0010
1000
,  // measure 71
0002
0000
0000
0003
,  // measure 72
1000
0100
0010
0001
0010
0100
1000
0010
,  // measure 73
0100
0010
1000
0000
1100
0000
1000
0000
,  // measure 74
0100
1000
0001
0000
0101
0000
0001
0000
,  // measure 75
0010
0100
1000
0000
1100
0000
1000
0000
,  // measure 76
0100
1000
0010
0000
0110
0000
0100
0000
,  // measure 77
0001
1000
0000
1100
0000
1100
0000
0011
,  // measure 78
0000
0011
0000
1001
0000
1000
0010
0100
,  // measure 79
0001
0000
1000
0001
1000
0001
1000
0000
,  // measure 80
0100
1000
0100
0000
1000
0000
0100
1000
,  // measure 81
0100
1000
1000
1001
,  // measure 82
1000
0001
0100
0000
0002
0000
0000
0000
,  // measure 83
0000
0000
1003
0001
1000
0001
1000
0000
,  // measure 84
0010
1000
0010
0000
1000
0000
0010
1000
,  // measure 85
0010
1000
1000
1001
,  // measure 86
0001
0100
0010
1000
0000
1001
0000
0000
,  // measure 87
0000
0000
0001
1000
0001
1000
0002
0000
,  // measure 88
0000
0013
0220
0000
,  // measure 89
0000
0330
0000
2001
,  // measure 90
0000
3010
0220
0000
,  // measure 91
0000
0000
0330
0000
0000
0000
0001
0100
,  // measure 92
0001
0100
0010
1000
0010
1000
0100
0010
,  // measure 93
0100
0010
0001
1000
0001
1000
0001
0100
,  // measure 94
0010
0100
0001
0000
0100
0001
0000
1000
,  // measure 95
0100
0000
1000
0001
0010
0100
1000
0000
,  // measure 96
0001
0100
0001
0000
1000
0010
1000
0000
,  // measure 97
0010
0100
0001
0000
1000
0000
1001
0000
,  // measure 98
1001
1100
0000
1001
,  // measure 99
1001
0000
0220
0000
0330
0000
1000
0100
,  // measure 100
1000
0100
0010
0001
0010
0001
1000
0010
,  // measure 101
0100
0001
0100
0010
1000
0000
0100
0010
,  // measure 102
0100
0010
0001
0100
0010
1000
0010
0000
,  // measure 103
1010
0000
1000
0001
0100
0001
1000
0000
,  // measure 104
0100
1000
0100
0000
0010
0001
0010
0000
,  // measure 105
0001
1000
0010
0000
0110
0000
0110
0000
,  // measure 106
1001
1010
0000
0101
,  // measure 107
0101
0000
2002
0000
3003
0000
0100
0010
,  // measure 108
0100
0010
1000
0010
1000
0010
0100
0001
,  // measure 109
0100
0001
1000
0100
1000
0100
0010
0001
,  // measure 110
1000
0010
1000
0001
0000
1001
0000
0000
,  // measure 111
0000
0000
0001
0010
0100
1000
0001
0000
,  // measure 112
0010
0001
0100
0000
0100
0000
0010
1000
,  // measure 113
0100
0100
1100
1001
,  // measure 114
1000
0100
0010
0000
0110
0000
0001
0100
,  // measure 115
0010
0110
0110
1001
,  // measure 116
1000
0001
0010
0000
0010
0000
0001
1000
,  // measure 117
0010
0000
0010
0000
1001
0000
1000
0001
,  // measure 118
0000
0100
0000
1000
0100
0001
1000
0000
,  // measure 119
0001
1000
0000
0010
0000
0001
0010
1000
,  // measure 120
0001
0000
0000
0000
;

//---------------dance-single - ----------------
#NOTES:
     dance-single:
     :
     Beginner:
     4:
     0.164,0.336,0.245,0.000,0.000:
1000
0000
0000
0000
,
0000
0000
0000
0000
,
1001
0000
0000
0000
,
0000
0000
0000
0000
,
0001
0000
0000
0000
,
0001
0000
0000
0000
,
1001
0000
0000
0000
,
0000
0000
0000
0000
,
0100
0000
0000
0000
,
0010
0000
0000
0000
,
0100
0000
0000
0000
,
0000
0000
0000
0000
,
0010
0000
0000
0000
,
0100
0000
0000
0000
,
0010
0000
0000
0000
,
0000
0000
0000
0000
,
1000
0000
0000
0000
,
0100
0000
0000
0000
,
1000
0000
0000
0000
,
0100
0000
0000
0000
,
0010
0000
0000
0000
,
0010
0000
0000
0000
,
0110
0000
0000
0000
,
0000
0000
0000
0000
,
0001
0000
0000
0000
,
0100
0000
0000
0000
,
0001
0000
0000
0000
,
0000
0000
0000
0000
,
1000
0000
0000
0000
,
0010
0000
0000
0000
,
1000
0000
0000
0000
,
0000
0000
0000
0000
,
0100
0000
0000
0000
,
0010
0000
0000
0000
,
0100
0000
0000
0000
,
0010
0000
0000
0000
,
0001
0000
0000
0000
,
0001
0000
0000
0000
,
1001
0000
0000
0000
,
0000
0000
0000
0000
,
1000
0000
0000
0000
,
0010
0000
0000
0000
,
0100
0000
0000
0000
,
0110
0000
0000
0000
,
0010
0000
0000
0000
,
0010
0000
0000
0000
,
0110
0000
0000
0000
,
0110
0000
0000
0000
,
0001
0000
0000
0000
,
0100
0000
0000
0000
,
0001
0000
0000
0000
,
0100
0000
0000
0000
,
0110
0000
0000
0000
,
0110
0000
0000
0000
,
1001
0000
0000
0000
,
0000
0000
0000
0000
,
1000
0000
0000
0000
,
0100
0000
0000
0000
,
0010
0000
0000
0000
,
0100
0000
0000
0000
,
1000
0000
0000
0000
,
0100
0000
0000
0000
,
1000
0000
0000
0000
,
0001
0000
0000
0000
,
0100
0000
0000
0000
,
0100
0000
0000
0000
,
0010
0000
0000
0000
,
0100
0000
0000
0000
,
0001
0000
0000
0000
,
0001
0000
0000
0000
,
1001
0000
0000
0000
,
0000
0000
0000
0000
,
0100
0000
0000
0000
,
1000
0000
0000
0000
,
0100
0000
0000
0000
,
0010
0000
0000
0000
,
0001
0000
0000
0000
,
0000
0000
0000
0000
,
1001
0000
0000
1001
,
0000
0000
0000
0000
,
0000
0000
0000
1001
,
0000
0000
0000
0000
,
0000
0000
0000
0110
,
0000
0000
0000
0000
,
0000
0000
0000
0110
,
0000
0000
0000
0000
,
0000
0000
0000
0110
,
0000
0000
0000
0000
,
0000
0000
0000
1001
,
0000
0000
0000
0000
,
0000
0000
0000
0001
,
0000
0000
0000
0001
,
0000
0000
0000
1001
,
0000
0000
0000
0000
,
0000
0000
0000
1000
,
0000
0000
0000
0100
,
0000
0000
0000
1000
,
0000
0000
0000
0000
,
0000
0000
0000
0010
,
0000
0000
0000
0010
,
0000
0000
0000
0100
,
0000
0000
0000
0100
,
0000
0000
0000
0001
,
0000
0000
0000
0010
,
0000
0000
0000
0001
,
0000
0000
0000
1001
,
0000
0000
0000
0010
,
0000
0000
0000
0100
,
0000
0000
0000
0001
,
0000
0000
0000
0000
,
0000
0000
0000
1001
,
0000
0000
0000
0000
,
0000
0000
0000
0110
,
0000
0000
0000
0000
,
0000
0000
0000
1001
,
0000
0000
0000
0000
,
0000
0000
0000
1001
,
0000
0000
0000
0000
,
0110
0000
0000
0000
,
0110
0000
0000
0000
;
