#TITLE:水玉のディヴェルティメント;
#SUBTITLE:;
#ARTIST:risette remixed by 杉本清隆 [from orangenoise shortcut];
#TITLETRANSLIT:MIZUTAMA NO DIVERTIMENTO;
#SUBTITLETRANSLIT:;
#ARTISTTRANSLIT:risette remixed by KIYOTAKA SUGIMOTO [from orangenoise shortcut];
#CREDIT:DigiMindAxel;
#BANNER:MIZUTAMA NO DIVERTIMENTO.png;
#BACKGROUND:MIZUTAMA NO DIVERTIMENTO-bg.png;
#LYRICSPATH:;
#CDTITLE:DigiMindAxel original simfile.png;
#MUSIC:MIZUTAMA NO DIVERTIMENTO.mp3;
#METERTYPE:DDR X;
#OFFSET:-10.480;
#SAMPLESTART:20.212;
#SAMPLELENGTH:12.000;
#SELECTABLE:YES;
#BPMS:0.000=98.000,16.000=196.000,177.000=98.000,188.500=196.000,255.000=98.000;
#STOPS:188.500=1.071
;
#BGCHANGES:;

//---------------dance-single - ----------------
#NOTES:
     dance-single:
     :
     Easy:
     5:
     0.182,0.255,0.042,0.017,0.000: // measure 1
1000
0000
0000
0000
,  // measure 2
0100
0000
0000
0000
,  // measure 3
0010
0000
0000
0000
,  // measure 4
0001
0000
0001
0000
0001
0000
0001
1000
,  // measure 5
0001
0000
0010
0000
,  // measure 6
0001
0000
0010
0000
,  // measure 7
0100
0000
1000
0000
,  // measure 8
0100
0000
1000
0000
,  // measure 9
0010
0000
0100
0000
,  // measure 10
0010
0000
0100
0000
,  // measure 11
0001
0000
1000
0000
,  // measure 12
0001
0000
0000
0000
,  // measure 13
0010
0000
0001
0000
,  // measure 14
0100
0000
0010
0000
,  // measure 15
0100
0000
0001
0000
,  // measure 16
0010
0000
0100
0000
,  // measure 17
1000
0000
0001
0000
,  // measure 18
1000
0000
0100
0000
,  // measure 19
1000
0001
0000
0000
,  // measure 20
1000
0000
0000
0001
,  // measure 21
1000
0000
0100
0000
,  // measure 22
0010
0000
0100
0000
,  // measure 23
1000
0000
0001
0000
,  // measure 24
0100
0010
0100
0000
,  // measure 25
0001
0000
0010
0000
,  // measure 26
0100
0000
1000
0000
,  // measure 27
0001
0000
0000
0000
,  // measure 28
0010
0001
0010
0000
,  // measure 29
0001
0000
1000
0000
,  // measure 30
0100
0000
0010
0000
,  // measure 31
0001
0000
1000
0000
,  // measure 32
0100
0000
1000
0000
,  // measure 33
0010
0000
0100
0000
,  // measure 34
0010
0000
1000
0000
,  // measure 35
0001
0010
0100
1000
,  // measure 36
0001
0001
0001
0000
,  // measure 37
1001
0000
1000
0000
,  // measure 38
0100
0000
0010
0000
,  // measure 39
1001
0000
0001
0000
,  // measure 40
1000
0000
0000
0000
,  // measure 41
1001
0000
1000
0000
,  // measure 42
0001
0000
0001
0000
,  // measure 43
1000
0000
1000
0000
,  // measure 44
1000
0000
1000
0000
,  // measure 45
0000
2002
0000
0000
,  // measure 46
0000
0000
0000
0000
,  // measure 47
0000
0000
0000
0000
,  // measure 48
0000
3003
0000
0000
0100
0000
0001
0000
,  // measure 49
1000
0001
0000
1000
,  // measure 50
0100
1000
0000
0001
,  // measure 51
0010
0001
0000
0100
,  // measure 52
0010
0100
0000
0010
,  // measure 53
0100
0010
0000
1000
,  // measure 54
0100
0010
0000
0001
,  // measure 55
1000
0001
0000
0010
,  // measure 56
0100
1000
0000
0001
,  // measure 57
1000
0001
0000
0100
,  // measure 58
0010
1000
0000
0010
,  // measure 59
0100
0001
0000
1000
,  // measure 60
0001
1000
0000
0100
,  // measure 61
1000
0010
0000
0100
,  // measure 62
0001
0010
0000
0001
,  // measure 63
0000
0001
0000
0001
,  // measure 64
0000
0001
0000
1001
,  // measure 65
0000
1000
0000
0100
,  // measure 66
0000
0010
0000
0001
,  // measure 67
0000
0000
0000
0100
,  // measure 68
0000
0000
0000
0010
;

//---------------dance-single - ----------------
#NOTES:
     dance-single:
     :
     Medium:
     8:
     0.330,0.397,0.101,0.084,0.017: // measure 1
0002
0000
0023
0000
,  // measure 2
0032
0000
2003
0000
,  // measure 3
3200
0000
2300
0000
,  // measure 4
3001
1000
0001
1000
0001
1000
0001
0000
,  // measure 5
1000
0100
1000
0000
,  // measure 6
0010
0100
0010
0000
,  // measure 7
1000
0001
1000
0000
,  // measure 8
0100
1000
0100
0000
,  // measure 9
1000
0001
0100
0000
,  // measure 10
0001
1000
0010
0000
,  // measure 11
1000
0100
0010
0000
,  // measure 12
1001
0000
0000
1000
,  // measure 13
0001
0010
0001
0000
,  // measure 14
0100
0010
0100
0000
,  // measure 15
0001
1000
0001
0000
,  // measure 16
0010
0001
0010
0000
,  // measure 17
0001
1000
0100
0000
,  // measure 18
1000
0100
1000
0000
,  // measure 19
0010
0100
0000
0100
0000
0000
0000
0000
,  // measure 20
0110
0000
0000
0001
,  // measure 21
1000
0100
0010
0100
,  // measure 22
1000
0010
0100
0010
,  // measure 23
1000
0000
0100
0000
,  // measure 24
1000
0001
0010
0100
,  // measure 25
1000
0001
0100
0010
,  // measure 26
0100
0001
0100
0010
,  // measure 27
0100
0000
0001
0000
,  // measure 28
0010
0001
0010
0001
,  // measure 29
0100
0010
0100
0001
,  // measure 30
0010
0100
0010
0001
,  // measure 31
1000
0000
0100
0000
,  // measure 32
1000
0010
0100
0010
,  // measure 33
1000
0000
0100
0000
,  // measure 34
0010
0000
0001
0000
,  // measure 35
1000
0001
1000
0000
0001
1000
0001
0000
,  // measure 36
0100
0010
0100
0010
0100
0000
0000
0000
,  // measure 37
1001
1000
0001
0010
,  // measure 38
0100
0010
0001
1000
,  // measure 39
0001
1000
0100
0000
1000
0000
1100
0000
,  // measure 40
1000
0001
0100
0000
0001
0000
0101
0000
,  // measure 41
1001
1000
0001
0010
,  // measure 42
0001
0010
0001
1000
0000
0000
0001
0000
,  // measure 43
1001
1000
1000
1000
,  // measure 44
1000
1000
1000
1000
,  // measure 45
1000
2200
0000
0000
,  // measure 46
0000
0000
0000
0000
,  // measure 47
0000
0000
0000
0000
,  // measure 48
0000
3300
0000
1000
0001
0000
1000
0100
,  // measure 49
0010
0000
0100
0000
0100
0000
1000
0001
,  // measure 50
0100
0000
0001
0000
0001
0000
0010
0100
,  // measure 51
0010
0000
0100
0000
0100
0000
1000
0001
,  // measure 52
0100
0000
0010
0000
0110
0000
0100
0001
,  // measure 53
0010
0001
0100
0000
0001
0000
0010
0100
,  // measure 54
1000
0000
0001
0000
0001
0000
1000
0100
,  // measure 55
0000
1000
0100
0000
1000
0000
0001
0100
,  // measure 56
0001
0100
0001
0000
0101
0000
0100
1000
,  // measure 57
0100
0010
0100
0000
1000
0000
0010
0100
,  // measure 58
0010
0000
1000
0000
1000
0000
0001
0100
,  // measure 59
0010
0000
0100
0000
0100
0000
0001
0010
,  // measure 60
0100
0000
0010
0000
0010
0000
0001
1000
,  // measure 61
0100
1000
0001
0000
1000
0000
0100
0010
,  // measure 62
0100
1000
1000
1001
,  // measure 63
0001
0001
0001
0001
,  // measure 64
0001
0000
0000
0000
0001
0000
0000
0000
0001
0000
0000
0000
1001
0000
0000
0010
,  // measure 65
0000
0000
0100
0000
1000
0000
0000
0010
0000
0000
0100
0000
0001
0000
0000
0010
,  // measure 66
0000
0000
0100
0000
1000
0000
0000
0010
0000
0000
0100
0000
0002
0000
0000
0000
,  // measure 67
0000
1003
0000
0020
,  // measure 68
0000
1030
0000
0001
;

//---------------dance-single - ----------------
#NOTES:
     dance-single:
     :
     Hard:
     12:
     0.557,0.710,0.427,0.042,0.189: // measure 1
1000
0000
1000
0000
0000
0001
0000
0100
0000
0001
0000
1000
0100
0000
0100
0000
,  // measure 2
1001
0000
0001
0000
0000
1000
0000
0010
0000
1000
0000
0100
0010
0000
0010
0000
,  // measure 3
1001
0000
1000
0000
0000
0010
0000
0100
0000
0010
0000
1000
0001
0000
0001
0000
,  // measure 4
1000
0001
1000
0001
1000
0001
1000
0001
1000
0100
0010
0001
1000
0000
1001
0000
,  // measure 5
0001
0000
0101
0000
0100
0001
0010
0000
,  // measure 6
0001
0000
0101
0000
0100
0001
0010
0000
,  // measure 7
0100
0000
1100
0000
1000
0100
0010
0000
,  // measure 8
0100
0000
1100
0000
1000
0100
0010
0000
,  // measure 9
0001
0000
1001
0000
1000
0010
0100
0000
,  // measure 10
0001
0000
1001
0000
1000
0010
0100
0000
,  // measure 11
0010
0000
0110
0000
0100
0001
0010
0000
,  // measure 12
0001
1000
0000
0001
0000
0001
1000
0000
,  // measure 13
0100
0000
1100
0000
0100
1000
0010
0000
,  // measure 14
0100
0000
1100
0000
0100
1000
0010
0000
,  // measure 15
1000
0000
0101
0000
0001
0010
0100
0000
,  // measure 16
1000
0000
0101
0000
0001
0010
0100
0000
,  // measure 17
1000
0000
1001
0000
0001
1000
0010
0000
,  // measure 18
1000
0000
1001
0000
0001
1000
0010
0000
,  // measure 19
1000
0001
0000
1001
0000
0000
0000
0000
,  // measure 20
0001
1000
0000
0001
0000
0001
1001
0000
,  // measure 21
1000
0000
0101
0000
0001
0010
0100
0000
,  // measure 22
1000
0000
0101
0000
0001
0010
0100
0000
,  // measure 23
0010
0000
0101
0000
0001
0100
0010
0000
,  // measure 24
1000
0100
0010
0000
0001
0100
1000
0100
,  // measure 25
0001
0000
1100
0000
1000
0010
0100
0000
,  // measure 26
0001
0000
1100
0000
1000
0010
0100
0000
,  // measure 27
0010
0000
0011
0000
0001
0010
0100
0000
,  // measure 28
1000
0010
0100
0000
0001
0010
1000
0010
,  // measure 29
0001
0000
0110
0000
1000
0100
0010
0000
,  // measure 30
0001
0000
0110
0000
1000
0010
0100
0000
,  // measure 31
1001
0000
1100
0000
1000
0010
0100
0000
,  // measure 32
0001
0000
1001
0000
1000
0100
0010
0000
,  // measure 33
1001
0000
0011
0000
0001
1000
0100
0000
,  // measure 34
1001
0000
1100
0000
1000
0001
0010
0000
,  // measure 35
0001
1000
0001
1000
0001
1000
0001
1000
,  // measure 36
0001
0010
0100
1000
0001
0010
0110
0000
,  // measure 37
1002
0000
0100
0000
1003
0001
0000
0001
,  // measure 38
0100
0000
0101
0000
0010
1000
0001
0000
,  // measure 39
1000
0010
0100
1000
0100
0010
1000
0000
,  // measure 40
0001
0100
0010
0001
0010
0100
0001
0000
,  // measure 41
2001
0000
0100
0000
3001
1000
0000
1000
,  // measure 42
0010
0100
0001
1000
0000
1000
0001
0000
,  // measure 43
0101
0100
0100
0100
,  // measure 44
0100
0100
0100
0100
,  // measure 45
0100
1001
0000
0001
,  // measure 46
1000
0000
0000
0000
0000
0000
0100
0000
0000
0000
0000
0000
0010
0000
0000
0000
0000
0001
0000
0000
0000
1000
0000
0000
0000
0100
0000
0000
0000
0010
0000
0000
,  // measure 47
0000
0000
0001
0000
0000
0000
0000
0000
0000
0010
0000
0000
0000
0000
0000
0000
0100
0000
0000
0000
0000
0000
0000
0000
0000
0000
0000
0000
0000
0000
0000
0000
0000
0000
0000
0000
0000
0000
0000
0000
0000
0000
0000
0000
0000
0000
0000
0000
0000
0000
0000
0000
0000
0000
0000
0000
0000
0000
0000
0000
0000
0000
0000
0000
,  // measure 48
0000
0000
0000
0000
0000
0000
2000
3000
0000
0000
0000
0000
0000
0000
0000
0000
0000
0000
0001
0000
0000
0000
0000
0000
1001
0000
0000
0000
0000
0000
0000
0000
0000
0000
0000
0000
1000
0000
0000
0000
0000
0000
0001
0000
0000
0000
0000
0000
,  // measure 49
0001
0000
0010
0100
1000
0100
0010
1000
,  // measure 50
0010
0001
2000
0001
3001
0000
0100
0001
,  // measure 51
0010
0100
0020
0001
0031
1000
0001
0100
,  // measure 52
1000
0000
0100
0000
0010
0000
0000
0000
1001
0000
0000
0000
0001
1000
0001
1000
,  // measure 53
0001
0000
0100
0010
0100
0000
0001
0000
1000
0000
0000
0000
0100
0000
0010
0000
,  // measure 54
0001
0100
1000
0100
0010
0000
1000
0001
,  // measure 55
0100
0000
0001
0000
1000
0000
0100
0000
0010
0000
0000
0000
0001
0000
1000
0001
,  // measure 56
1000
0000
0010
0000
0100
0000
0000
0000
1001
0000
0000
0000
0001
0010
0001
0010
,  // measure 57
0001
0100
0010
0100
0101
0000
0001
0100
,  // measure 58
1000
0100
0010
1000
0001
0000
1000
0010
,  // measure 59
0001
0010
0100
0001
1000
0000
0100
0010
,  // measure 60
0001
0000
0010
0000
0100
0000
0000
0000
0110
0000
0000
0000
1000
0010
1000
0010
,  // measure 61
1000
0100
0010
0000
0110
0000
0001
0100
,  // measure 62
1000
0100
0001
0010
0100
0000
1100
0000
,  // measure 63
0100
0100
0100
0100
,  // measure 64
0100
0000
0100
0000
0100
0000
1001
0001
,  // measure 65
1000
0010
0000
1000
0010
0000
0100
0001
0000
0000
0000
0000
1001
0000
1000
0000
,  // measure 66
0001
0010
0000
0001
0010
0000
0100
1000
0000
0000
0000
0000
0110
0000
0010
0000
,  // measure 67
1000
0001
0000
1000
0001
0000
0100
0010
0000
0000
0000
0000
0110
0000
0100
0000
,  // measure 68
0001
1000
0000
0001
1000
0000
0100
0010
0000
0000
0001
0000
1001
0000
0000
0000
;

//---------------dance-single - ----------------
#NOTES:
     dance-single:
     :
     Challenge:
     13:
     0.674,0.823,0.419,0.251,0.398: // measure 1
1001
0000
1000
0000
0001
0010
0000
0010
0100
0000
0100
2000
0000
0000
3001
0000
,  // measure 2
1001
0000
0001
0000
1000
0100
0000
0100
0010
0000
0010
0002
0000
0000
1003
0000
,  // measure 3
1001
0000
1000
0000
0001
0100
0000
0100
0010
0000
0010
2000
0000
0000
3001
0000
,  // measure 4
1000
0100
1000
0100
0001
0100
0001
0100
1000
0010
0100
0001
0100
0001
1001
0000
,  // measure 5
1001
0000
0200
1000
0000
1300
0010
0000
,  // measure 6
0110
0000
0200
0001
0000
0301
1000
0000
,  // measure 7
1001
0000
0001
1000
0001
0010
0100
0000
,  // measure 8
0120
0000
2030
0001
0000
3001
0100
0000
,  // measure 9
0210
0000
0001
0301
0000
1000
0100
0000
,  // measure 10
0100
1000
0000
1000
0010
0000
0010
0000
,  // measure 11
0120
0000
1000
1030
0000
0001
0100
0000
,  // measure 12
0100
0110
0000
0010
0000
0010
0110
0000
,  // measure 13
0200
0000
0302
1000
0000
1003
0100
0000
,  // measure 14
0020
0000
0230
1000
0000
1300
0001
0000
,  // measure 15
1001
0000
2000
0010
0000
3010
0100
0000
,  // measure 16
0002
0000
0203
0001
0000
0301
1000
0000
,  // measure 17
1001
0000
1000
0000
0001
0100
0000
0001
,  // measure 18
0000
0001
0000
1000
0100
0000
1100
0000
,  // measure 19
1100
0000
1001
0000
0000
0000
1001
0000
0000
0000
0000
0000
0000
0000
0001
0100
,  // measure 20
0001
1001
0000
1000
0000
1000
1001
0000
,  // measure 21
0101
0000
0020
0100
0000
0130
0001
0010
,  // measure 22
0001
0000
1000
0010
1000
0100
0010
0000
,  // measure 23
0110
0000
0200
0001
0000
0301
1000
0000
,  // measure 24
0100
1000
0001
0000
0001
0010
0100
1000
,  // measure 25
0001
0000
0020
0001
0000
0031
1000
0010
,  // measure 26
1000
0000
0001
0010
0001
0100
0010
0000
,  // measure 27
0110
0000
0020
1000
0000
1030
0001
0000
,  // measure 28
1001
1000
0010
0000
0010
1000
0100
0010
,  // measure 29
0001
0000
0200
0001
0000
0301
1000
0100
,  // measure 30
1000
0000
0100
0010
0001
0100
0001
0000
,  // measure 31
1001
0000
0020
0001
0000
0031
1000
0010
,  // measure 32
0000
0010
0000
0010
0100
0000
0110
0000
,  // measure 33
1001
0000
1000
0100
0010
0100
1000
0000
,  // measure 34
1100
0000
1000
0001
0100
0001
1000
0000
,  // measure 35
0001
0010
0001
0010
1000
0010
1000
0010
,  // measure 36
0001
1000
0001
1000
0001
1000
0001
1000
0001
1000
0001
0000
1001
0000
0000
0000
,  // measure 37
1200
0000
1000
1000
0000
0010
0310
0001
,  // measure 38
2000
0000
0010
0010
0000
0001
3001
0000
,  // measure 39
1000
0000
0100
1000
0100
1000
0010
0000
0100
0000
0010
0000
0110
0000
0000
0000
,  // measure 40
0001
0000
0001
0000
0010
0001
0010
0001
0100
0000
0010
0000
0110
0000
0000
0000
,  // measure 41
0021
0000
0001
0001
0000
0100
0130
0000
,  // measure 42
1000
0000
0100
1000
0100
0000
1100
0000
0000
0000
1000
0000
1001
0000
0000
0000
,  // measure 43
0010
0000
0000
0010
0100
0000
0000
0010
0100
0000
0000
0010
0100
0000
0000
0010
,  // measure 44
0100
0000
0000
0010
0100
0000
0000
0010
0100
0000
0000
0010
0100
0000
0000
0010
,  // measure 45
0100
0120
0000
1030
,  // measure 46
0001
0000
0000
0000
0000
0000
0010
0000
0000
0000
0000
0000
0100
0000
0000
0000
0000
1000
0000
0000
0000
0001
0000
0000
0000
0010
0000
0000
0000
0100
0000
0000
,  // measure 47
0000
0000
1000
0000
0000
0000
0000
0000
0000
0100
0000
0000
0000
0000
0000
0000
0020
0000
0000
0000
0000
0000
0000
0000
0000
0000
0000
0000
0000
0000
0000
0000
0000
0000
0000
0000
0000
0000
0000
0000
0000
0000
0000
0000
0000
0000
0000
0000
0000
0000
0000
0000
0000
0000
0000
0000
0000
0000
0000
0000
0000
0000
0000
0000
,  // measure 48
0000
0000
0000
0000
0000
0000
0000
0000
0000
0000
0000
0000
0000
0000
0000
0000
0000
0000
0000
0000
0000
0000
0000
0000
0002
0000
0000
0000
0003
0000
0030
0000
0000
0000
0000
0000
0000
0000
0000
0000
0000
0000
0000
0000
0000
0000
0000
0000
0000
0000
0000
0000
0000
0000
0000
0000
0000
0000
0000
0000
0000
0000
0000
0000
0000
0000
0000
0000
0000
0000
0000
0000
0011
0000
0000
0000
0000
0000
0000
0000
0000
0000
0000
0000
0000
0000
0000
0000
0000
0000
0000
0000
0000
0000
0000
0000
1001
0000
0000
0000
0000
0000
0000
0000
0000
0000
0000
0000
0000
0000
0000
0000
0000
0000
0000
0000
0000
0000
0000
0000
0000
0000
0000
0000
0000
0000
0000
0000
0000
0000
0000
0000
0000
0000
0000
0000
0000
0000
0000
0000
0000
0000
0000
0000
0001
0000
0000
0000
0000
0000
0000
0000
0000
0000
0000
0000
0000
0000
0000
0000
0000
0000
0000
0000
0000
0000
0000
0000
1000
0000
0000
0000
0000
0000
0000
0000
0000
0000
0000
0000
0010
0000
0000
0000
0000
0000
0000
0000
0000
0000
0000
0000
,  // measure 49
1000
0000
0010
0000
0100
0000
0100
0000
0001
0000
0001
0000
1000
0000
0100
1000
,  // measure 50
0100
1000
0100
1000
0200
0000
1000
0000
1300
0000
0000
0000
0001
0000
0100
0001
,  // measure 51
0100
0001
0100
0001
0200
0000
0001
0000
0301
0000
1000
0000
0100
0000
0010
0001
,  // measure 52
0100
0010
0100
0000
0010
0000
0000
0000
0110
0000
0000
0000
0100
0001
0100
0001
,  // measure 53
0100
0001
0100
0001
0100
0000
0001
0000
1001
0000
0000
0000
1000
0000
0001
0010
,  // measure 54
0001
0010
0001
0000
1000
0000
0010
0000
0100
0000
0000
0000
0001
1000
0001
0000
,  // measure 55
1000
0000
0100
1000
0100
0000
0010
0100
0010
0000
0000
0000
0001
0000
1000
0010
,  // measure 56
1000
0010
1000
0010
1000
0000
0000
0000
1001
0000
0000
0000
0100
1000
0100
1000
,  // measure 57
0100
1000
0100
0000
1000
0000
0001
0000
1001
0000
0000
0000
1000
0000
0010
1000
,  // measure 58
0010
0000
1000
0000
0001
0010
0001
0000
1001
0000
0000
0000
0001
0000
0100
0001
,  // measure 59
0100
0000
0001
0000
1000
0100
1000
0000
0001
0000
0010
0000
0100
1000
0100
1000
,  // measure 60
0010
0000
0100
0000
0001
0000
1000
0000
1001
0000
0000
0000
0100
0001
0100
0001
,  // measure 61
0100
0001
0100
0000
0001
0000
1000
0000
1001
0000
0000
0000
0001
0000
1000
0001
,  // measure 62
0100
0000
0001
0000
0100
0000
0010
0000
1000
0000
0001
0000
0100
0000
0000
0010
,  // measure 63
0100
0000
0000
0010
0100
0000
0000
0010
0100
0000
0000
0010
0100
0000
0000
0010
,  // measure 64
0100
0000
0000
0010
0100
0000
0000
0010
0100
0000
0000
0000
0110
0000
0100
0000
,  // measure 65
0001
1000
0000
1000
0100
0000
0100
0010
0000
0000
0100
0000
0110
0000
0010
0000
,  // measure 66
1000
0001
0000
0001
0100
0000
0100
0010
0000
0000
1000
0000
1001
0000
0001
0000
,  // measure 67
0100
0001
0000
0001
1000
0000
1000
0100
0000
0000
1000
0000
1001
0000
0001
0000
,  // measure 68
0010
0001
0000
0001
1000
0000
1000
0010
0000
0000
0010
0000
0110
0000
0000
0000
;

//---------------dance-single - ----------------
#NOTES:
     dance-single:
     :
     Beginner:
     2:
     0.071,0.114,0.034,0.000,0.000: // measure 1
0001
0000
0000
0000
,  // measure 2
0001
0000
0000
0000
,  // measure 3
0001
0000
0000
0000
,  // measure 4
0001
0000
0000
0000
,  // measure 5
1001
0000
0000
0000
,  // measure 6
1000
0000
0000
0000
,  // measure 7
0001
0000
0000
0000
,  // measure 8
0000
0000
0000
0000
,  // measure 9
1000
0000
0000
0000
,  // measure 10
0000
0000
0000
0000
,  // measure 11
0001
0000
0000
0000
,  // measure 12
0000
0000
0000
0000
,  // measure 13
0100
0000
0000
0000
,  // measure 14
0010
0000
0000
0000
,  // measure 15
0100
0000
0000
0000
,  // measure 16
0010
0000
0000
0000
,  // measure 17
1000
0000
0000
0000
,  // measure 18
0000
0000
0000
0000
,  // measure 19
0001
0000
0000
0000
,  // measure 20
0000
0000
0000
0000
,  // measure 21
0010
0000
0000
0000
,  // measure 22
0001
0000
0000
0000
,  // measure 23
0010
0000
0000
0000
,  // measure 24
0000
0000
0000
0000
,  // measure 25
0100
0000
0000
0000
,  // measure 26
1000
0000
0000
0000
,  // measure 27
0100
0000
0000
0000
,  // measure 28
0000
0000
0000
0000
,  // measure 29
1000
0000
0000
0000
,  // measure 30
0001
0000
0000
0000
,  // measure 31
1000
0000
0000
0000
,  // measure 32
0000
0000
0000
0000
,  // measure 33
0001
0000
0000
0000
,  // measure 34
1000
0000
0000
0000
,  // measure 35
0001
0000
0000
0000
,  // measure 36
0000
0000
0000
0000
,  // measure 37
1001
0000
0000
0000
,  // measure 38
0010
0000
0000
0000
,  // measure 39
0100
0000
0000
0000
,  // measure 40
0100
0000
0000
0000
,  // measure 41
0010
0000
0000
0000
,  // measure 42
0001
0000
0000
0000
,  // measure 43
1000
0000
0000
0000
,  // measure 44
0000
0000
0000
0000
,  // measure 45
0000
1001
0000
0000
,  // measure 46
0000
0000
0000
0000
,  // measure 47
0000
0000
0000
0000
,  // measure 48
0000
0000
0000
1000
,  // measure 49
0000
0000
0000
0001
,  // measure 50
0000
0000
0000
0010
,  // measure 51
0000
0000
0000
0100
,  // measure 52
0000
0000
0000
0010
,  // measure 53
0000
0000
0000
0001
,  // measure 54
0000
0000
0000
0100
,  // measure 55
0000
0000
0000
0010
,  // measure 56
0000
0000
0000
0100
,  // measure 57
0000
0000
0000
0001
,  // measure 58
0000
0000
0000
1000
,  // measure 59
0000
0000
0000
0100
,  // measure 60
0000
0000
0000
0010
,  // measure 61
0000
0000
0000
0100
,  // measure 62
0000
0000
0000
1000
,  // measure 63
0000
0000
0000
0000
,  // measure 64
0000
0000
0000
1001
,  // measure 65
0000
0000
0000
1000
,  // measure 66
0000
0000
0000
1000
,  // measure 67
0000
0000
0000
1000
,  // measure 68
0000
0000
0000
1000
;
