#TITLE:みんなのうた;
#SUBTITLE:;
#ARTIST:きゃりーぱみゅぱみゅ;
#TITLETRANSLIT:MINNA NO UTA;
#SUBTITLETRANSLIT:;
#ARTISTTRANSLIT:KYARYPAMYUPAMYU;
#CREDIT:DigiMindAxel;
#BANNER:MINNA NO UTA.png;
#BACKGROUND:MINNA NO UTA-bg.png;
#LYRICSPATH:MINNA NO UTA.lrc;
#CDTITLE:DigiMindAxel original simfile.png;
#MUSIC:MINNA NO UTA.mp3;
#METERTYPE:DDR X;
#OFFSET:-7.530;
#SAMPLESTART:14.894;
#SAMPLELENGTH:12.000;
#SELECTABLE:YES;
#BPMS:0.000=130.000;
#STOPS:;
#BGCHANGES:;

//---------------dance-single - ----------------
#NOTES:
     dance-single:
     :
     Easy:
     3:
     0.189,0.284,0.181,0.150,0.000:
0001
0000
0000
0000
,
0010
0000
0000
0000
,
0100
0000
0000
0000
,
1000
0000
0000
0000
,
1001
0000
0000
0000
,
0010
0000
0000
0000
,
1001
0000
0000
0000
,
0010
0000
0000
0000
,
1001
0000
0000
0000
,
0100
0000
0000
0000
,
1001
0000
0000
0000
,
0100
0000
0000
0000
,
1001
0000
1000
0000
,
1001
0000
0001
0000
,
1001
0000
1000
0000
,
1001
0000
0001
0000
,
0110
0000
1000
0000
,
0110
0000
0001
0000
,
0110
0000
1000
0000
,
0110
0000
0001
0000
,
1000
0000
0100
0000
,
1000
0000
0100
0000
,
0010
0000
0001
0000
,
0010
0000
0001
0000
,
0100
0000
0010
0000
,
0100
0000
0010
0000
,
1000
0000
0001
0000
,
1000
0000
0001
0000
,
1001
0000
1000
0000
,
1001
0000
0001
0000
,
0110
0000
0100
0000
,
0110
0000
0010
0000
,
1001
0000
1000
0000
,
1001
0000
0001
0000
,
0110
0000
0100
0000
,
0110
0000
0010
0000
,
2000
0000
3001
0000
,
1000
0001
1000
0000
,
0002
0000
1003
0000
,
0001
1000
0001
0000
,
0200
0000
0301
0000
,
0100
0001
0100
0000
,
0020
0000
1030
0000
,
0010
1000
0010
0000
,
2000
0000
3002
0000
,
1003
0100
0010
0000
,
0002
0000
2003
0000
,
3001
0100
0010
0000
,
2000
0000
3002
0000
,
1003
0010
0100
0000
,
0002
0000
2003
0000
,
3001
0010
0100
0000
,
2000
0000
3100
1000
,
0200
0000
0310
0001
,
0020
0000
0031
0100
,
0002
0000
1003
0010
,
2000
0000
3100
0010
,
0200
0000
1300
0001
,
0200
0000
0301
1000
,
0010
0110
0010
0110
,
1001
0000
0000
0000
;

//---------------dance-single - ----------------
#NOTES:
     dance-single:
     :
     Medium:
     6:
     0.338,0.355,0.229,0.221,0.000:
1000
1000
0100
0100
,
1000
1000
0100
0100
,
0010
0010
0001
0001
,
1000
1000
0001
0001
,
2002
0000
3003
0000
,
2200
0000
3300
0000
,
2002
0000
3003
0000
,
0022
0000
0033
0000
,
0220
0000
0330
0000
,
2002
0000
3003
0000
,
0202
0000
0303
0000
,
2020
0000
3030
0000
,
0001
0000
0001
0000
0001
0001
0001
0000
,
1000
0000
1000
0000
1000
1000
1000
0000
,
0001
0000
0001
0000
0001
0001
0001
0000
,
1000
0000
1000
0000
1000
1000
1000
0000
,
0001
0000
0001
0000
0001
0001
0001
0000
,
1000
0000
1000
0000
1000
1000
1000
0000
,
0001
0000
0001
0000
0001
0001
0001
0000
,
1000
0000
1000
0000
1000
1000
1000
0000
,
0010
0100
0010
0000
1000
0000
1000
0000
,
0100
0010
0001
1000
,
0100
0010
0100
0000
1000
0000
1000
0000
,
0010
0100
0001
0100
,
0001
1000
0001
0000
0010
0000
0100
0000
,
0010
0010
0001
0001
,
1000
0001
1000
0000
0100
0000
0010
0000
,
0100
0000
1000
0000
0100
1000
0100
0000
,
1000
1100
0100
0000
,
1000
0010
0100
0010
0100
0000
0000
0000
,
0001
0011
0010
0000
,
0001
0100
0010
0100
0010
0000
0010
0000
,
1010
0010
0110
0000
,
1000
0100
1000
0100
0010
0000
0000
0000
,
0101
0100
0110
0010
,
1000
0000
0001
1000
0001
0000
0000
0000
,
0100
0001
0100
0000
0101
0000
0000
0000
,
0001
0010
0001
0010
0100
0000
0000
0000
,
1000
0010
1000
0000
1010
0000
0000
0000
,
1000
0100
1000
0100
0010
0000
0010
0000
,
0011
0001
1001
0000
,
0001
0010
0001
0100
0010
0000
0000
0000
,
1100
1000
1001
0000
,
1000
0100
1000
0010
0100
0000
0100
0000
,
0210
0310
0200
0310
,
1000
0001
1000
0001
0100
0000
0100
0000
,
0120
0130
0020
0130
,
0001
1000
0001
1000
0100
0000
0100
0000
,
0210
0310
0200
0310
,
1000
0001
1000
0001
0010
0000
0010
0000
,
0210
0310
0200
0310
,
1000
0001
1000
0001
0100
0000
0100
0000
,
0020
0000
0000
0000
0100
0100
0130
0000
,
0001
0010
0100
1000
,
0020
0000
0000
0000
0100
0100
0130
0000
,
0001
0100
0010
1000
,
0200
0000
0000
0000
0010
0010
0310
0000
,
0001
0010
0100
1000
,
0200
0000
0000
0000
0010
0010
0310
0000
,
1001
1001
0110
0110
,
1001
0000
0000
0000
;

//---------------dance-single - ----------------
#NOTES:
     dance-single:
     :
     Hard:
     12:
     0.569,0.591,0.339,0.110,0.331: // measure 1
0001
0000
0000
0100
0000
0000
0010
0000
1000
0000
0000
1000
0000
0000
1000
0000
,  // measure 2
0001
0000
0000
0100
0000
0000
0010
0000
1000
0000
0000
1000
0000
0000
1000
0000
,  // measure 3
0001
0000
0000
0010
0000
0000
0100
0000
1000
0000
0000
1000
0000
0000
1000
0000
,  // measure 4
0001
0000
0000
0010
0000
0000
0100
0000
1000
0000
0000
1000
0000
0000
1000
0000
,  // measure 5
2100
0000
0000
0001
0001
0001
3001
0000
,  // measure 6
2100
0000
0000
0001
0001
0001
3001
0000
,  // measure 7
0012
0000
0000
1000
1000
1000
1003
0000
,  // measure 8
0012
0000
0000
1000
1000
1000
1003
0000
,  // measure 9
0101
0000
0001
0100
0010
0001
0010
0000
,  // measure 10
0101
0000
0001
0100
0010
0001
0010
0000
,  // measure 11
1100
0000
1000
0010
0001
0010
1000
0000
,  // measure 12
1100
0000
0000
0000
1000
0000
0010
0000
0001
0000
0010
0000
1000
0000
0001
1000
,  // measure 13
0001
0000
0011
0000
0010
0010
0011
0000
,  // measure 14
1000
0000
1100
0000
0100
0100
1100
0000
,  // measure 15
0110
0000
0010
0000
0100
0100
0101
0000
,  // measure 16
0110
0000
0100
0000
0010
0010
1010
0000
,  // measure 17
1001
0000
1000
0000
0100
0100
1100
0000
,  // measure 18
1001
0000
0001
0000
0010
0010
0011
0000
,  // measure 19
1001
0000
1001
0000
0010
1010
1010
0000
,  // measure 20
1001
0000
1001
0000
0100
0101
0101
0000
,  // measure 21
1000
0010
1000
0010
0100
0000
0001
0000
1000
0000
1000
0000
0001
0000
0001
0010
,  // measure 22
0100
0000
0100
0000
0010
0000
0010
0001
0100
0000
0100
0000
0010
1000
0100
0010
,  // measure 23
0001
0100
0001
0100
0010
0000
1000
0000
0001
0000
0001
0000
1000
0000
1000
0100
,  // measure 24
0010
0000
0010
0000
0100
0000
1000
0000
0010
0100
0001
0000
0001
0000
0000
0000
,  // measure 25
1000
0001
0100
0001
0100
0000
0001
0000
1000
0000
1000
0000
0010
0000
0010
0100
,  // measure 26
0001
0000
0001
0000
0010
0000
0010
0100
1000
0000
0001
0000
1000
0010
0100
0001
,  // measure 27
1000
0100
1000
0100
0010
0000
0010
0000
0100
0000
0100
0000
1000
0000
1000
0100
,  // measure 28
0010
0000
0010
0000
0110
0000
0100
0001
0100
0001
1000
0000
1001
0000
0001
1000
,  // measure 29
0001
0000
0000
0001
0100
0000
0000
0100
1000
0000
0001
0000
0001
0000
1000
0000
,  // measure 30
0001
0010
0100
0001
0100
1000
0001
0000
,  // measure 31
1000
0000
0000
1000
0100
0000
0000
0100
0001
0000
1000
0000
1000
0000
0001
0000
,  // measure 32
1000
0010
0100
1000
0100
0001
1000
0000
,  // measure 33
0001
0000
0000
0001
0010
0000
0000
0010
1000
0000
0001
0000
0001
0000
1000
0000
,  // measure 34
0001
0100
0010
0001
0010
1000
0001
0000
,  // measure 35
1000
0000
0000
1000
0010
0000
0000
0010
0001
0000
1000
0000
1000
0000
0001
0000
,  // measure 36
1000
0010
0100
1000
0100
0001
1000
1000
,  // measure 37
1001
0000
0001
0010
0000
0001
0010
0000
0001
0000
1000
0000
0100
0000
0000
0000
,  // measure 38
1000
0000
0010
0100
0000
0010
0100
0000
0010
0000
1000
0001
0000
1000
0001
0000
,  // measure 39
1000
0000
0010
1000
0000
0010
1000
0000
0001
0000
0010
0000
0100
0000
0000
0000
,  // measure 40
0010
0000
0001
1000
0000
0001
1000
0000
0100
0000
0010
0001
0000
0010
0001
0000
,  // measure 41
1000
0000
0001
0100
0000
0001
0100
0000
0001
0000
0010
0000
0100
0000
0000
0000
,  // measure 42
1000
0000
0001
1000
0000
0001
1000
0000
0010
0000
0100
0001
0000
0100
0001
0000
,  // measure 43
1000
0010
0001
0010
1000
0100
0001
0100
,  // measure 44
1000
0000
0000
0001
0000
0000
1000
0000
0010
0000
0010
0000
0010
0000
0100
0001
,  // measure 45
2000
0000
3100
0100
2000
0000
3100
0100
,  // measure 46
1000
0000
0001
0100
0000
0100
0010
0000
0100
0000
0001
0000
1000
0000
0000
0000
,  // measure 47
1002
0000
0013
0010
0002
0000
0013
0010
,  // measure 48
0001
0000
1000
0010
0000
0010
0100
0000
0010
0000
1000
0000
0100
0000
0000
0000
,  // measure 49
2001
0000
3010
0010
2000
0000
3010
0010
,  // measure 50
1000
0000
0001
0010
0000
0010
0100
0000
0010
0000
0001
0000
0100
0000
0000
0000
,  // measure 51
1002
0000
0103
0100
0002
0000
0103
0100
,  // measure 52
0001
0000
1000
0100
0000
0100
0010
0000
0100
0000
0000
0000
1100
0000
0000
0000
,  // measure 53
1000
0001
1000
0000
0020
0000
0000
0000
0100
0000
0130
0000
0101
0000
0001
0000
,  // measure 54
1000
0000
0100
1000
0000
1000
0100
0000
0010
0000
0001
0000
0101
0000
0000
0000
,  // measure 55
0001
1000
0200
0000
0010
0310
0011
0001
,  // measure 56
1000
0000
0010
1000
0000
1000
0010
0000
0100
0000
0001
0000
0011
0000
0000
0000
,  // measure 57
0010
0000
0100
1000
0000
1000
0100
0000
0010
0000
0010
0000
0110
0000
0100
0000
,  // measure 58
0001
0000
0010
0001
0000
0001
0010
0000
0100
0000
1000
0000
1010
0000
0000
0000
,  // measure 59
1000
0000
0001
0010
0000
0010
0001
0000
0100
0000
0100
0000
0110
0000
0000
0000
,  // measure 60
0010
0010
1000
0001
0001
0010
0100
0100
1000
0001
0000
0000
,  // measure 61
1001
0000
0000
0000
;

//---------------dance-single - ----------------
#NOTES:
     dance-single:
     :
     Beginner:
     2:
     0.104,0.142,0.134,0.000,0.000:
1000
0000
0100
0000
,
1000
0000
0000
0000
,
0100
0000
0010
0000
,
0100
0000
0000
0000
,
0010
0000
0000
0000
,
0010
0000
0000
0000
,
0001
0000
0000
0000
,
0001
0000
0000
0000
,
0100
0000
0000
0000
,
0100
0000
0000
0000
,
0010
0000
0000
0000
,
0010
0000
0000
0000
,
1001
0000
0000
0000
,
1001
0000
0000
0000
,
0110
0000
0000
0000
,
0110
0000
0000
0000
,
1001
0000
0000
0000
,
1001
0000
0000
0000
,
0110
0000
0000
0000
,
0110
0000
0000
0000
,
0001
0000
0000
0000
,
0010
0000
0000
0000
,
0100
0000
0000
0000
,
1000
0000
0000
0000
,
0010
0000
0000
0000
,
0100
0000
0000
0000
,
0001
0000
0000
0000
,
1000
0000
0000
0000
,
1001
0000
0000
0000
,
0001
0000
0000
0000
,
0010
0000
0000
0000
,
0001
0000
0000
0000
,
1000
0000
0001
0000
,
1000
0000
0000
0000
,
0100
0000
1000
0000
,
0100
0000
0000
0000
,
1001
0000
0000
0000
,
0010
0000
0100
0000
,
0010
0000
0000
0000
,
0100
0000
0010
0000
,
0100
0000
0000
0000
,
0001
0000
1000
0000
,
0001
0000
0000
0000
,
1000
0000
0000
0000
,
1001
0000
0001
0000
,
0001
0000
0000
0000
,
1001
0000
1000
0000
,
1000
0000
0000
0000
,
0110
0000
0010
0000
,
0010
0000
0000
0000
,
0110
0000
0100
0000
,
0100
0000
0000
0000
,
1001
0000
0000
0000
,
0001
0000
0010
0000
,
0001
0000
0000
0000
,
1000
0000
0001
0000
,
1000
0000
0000
0000
,
0100
0000
1000
0000
,
0100
0000
0000
0000
,
0110
0000
0000
0000
,
1001
0000
0000
0000
;
