#TITLE:めざせポケモンマスター;
#SUBTITLE:;
#ARTIST:Starving Trancer feat. puchi;
#TITLETRANSLIT:MEZASE POKEMON MASTER;
#SUBTITLETRANSLIT:;
#ARTISTTRANSLIT:;
#CREDIT:Tyma & DigiMindAxel;
#BANNER:MEZASE POKEMON MASTER.png;
#BACKGROUND:MEZASE POKEMON MASTER-bg.png;
#LYRICSPATH:MEZASE POKEMON MASTER.lrc;
#CDTITLE:DigiMindAxel original simfile.png;
#MUSIC:MEZASE POKEMON MASTER.mp3;
#METERTYPE:DDR X;
#OFFSET:-1.280;
#SAMPLESTART:47.507;
#SAMPLELENGTH:12.000;
#SELECTABLE:YES;
#BPMS:0.000=144.000;
#STOPS:;
#BGCHANGES:;

//---------------dance-single - ----------------
#NOTES:
     dance-single:
     :
     Medium:
     9:
     0.386,0.428,0.401,0.029,0.000:
0000
0000
0000
0000
,
0000
0000
0000
0000
,
0000
0000
0000
0000
,
0000
0000
0000
0000
,
0000
0000
0000
0000
,
1000
0000
0100
0000
0010
0000
0100
0100
,
0100
0000
1000
0000
0001
0000
0100
0100
,
0100
0000
1001
0000
,
0101
0100
1001
1000
,
1100
0100
0010
0001
,
1000
0010
1000
0000
0100
0000
0010
0000
,
0001
0100
0010
0100
0001
0000
1001
0000
,
1000
0001
0100
0010
,
1000
0010
0100
0010
1000
0000
0000
0000
,
1001
1100
0101
1100
,
0001
0100
0001
0100
0010
0000
1000
0000
,
0100
0000
0010
0001
,
0100
0000
0010
1000
,
0100
0010
0001
0010
,
0100
1000
1001
0000
,
0001
0100
0010
1000
0100
0000
1000
0000
,
0001
0000
0000
0000
0220
0330
0000
0000
,
1000
0010
0100
0001
0010
0000
0001
0000
,
1000
0000
0100
0010
0100
0000
0000
0000
,
1001
0000
0110
0000
,
1100
0101
1100
0000
,
0101
0110
1100
0110
,
1001
1100
0101
0001
,
1000
0100
1000
0000
0001
0010
0001
0000
,
1000
0010
0100
0001
0100
0000
0101
0000
,
1000
0001
1000
0000
0100
0010
0100
0000
,
0010
0000
0001
1000
0100
0000
0010
0000
,
0001
0010
0001
0000
1000
0100
1000
0000
,
0001
0100
0010
1000
0100
0000
1100
0000
,
1001
0010
0100
0001
,
2100
0000
0001
0000
,
0010
3010
0010
0100
,
0001
0000
0011
0000
,
1100
1001
0101
1001
,
1100
0000
0010
0000
0001
0010
0100
1000
,
0010
1000
0001
0010
,
1000
0000
0101
0000
1000
0100
0010
0001
,
0100
0001
0100
0010
,
1000
0010
1000
0000
0001
0100
0001
0000
,
1000
0010
0100
0000
0010
0100
0001
0000
,
1000
0010
0100
0001
0010
0100
1000
0000
,
0001
0101
1001
1100
,
1000
0000
0001
0100
0010
1000
0100
0010
,
0001
0100
0010
1000
,
1010
0000
1001
0000
0010
0100
0010
0100
,
0010
0001
0100
0010
,
0110
0000
1000
0000
0010
0100
0010
1000
,
0100
0010
0001
0010
,
0110
0000
1000
0000
0010
0100
0010
0000
,
0100
0010
0100
0000
0001
0010
0001
0000
,
1000
0100
1000
0010
0100
0001
0100
0000
,
1001
0000
0000
0000
;

//---------------dance-single - ----------------
#NOTES:
     dance-single:
     :
     Easy:
     5:
     0.225,0.258,0.134,0.067,0.000: // measure 1
0000
0000
0000
0000
,  // measure 2
0000
0000
0000
0000
,  // measure 3
0000
0000
0000
0000
,  // measure 4
0000
0000
0000
0000
,  // measure 5
0000
0000
0000
0000
,  // measure 6
1000
0000
0000
0000
,  // measure 7
0001
0000
0000
0000
,  // measure 8
1000
0000
0001
0000
,  // measure 9
1000
1000
0001
0001
,  // measure 10
0200
0000
0300
0000
,  // measure 11
1000
0000
0001
0000
,  // measure 12
1000
0100
1000
0000
,  // measure 13
0001
1000
0100
1000
,  // measure 14
0001
0100
0001
0000
,  // measure 15
0100
0100
0100
0100
,  // measure 16
0010
0000
0000
0000
,  // measure 17
1001
0000
0110
0000
,  // measure 18
1000
0000
0001
0000
,  // measure 19
1000
0100
1000
0001
,  // measure 20
0100
0001
2000
0000
,  // measure 21
3001
0010
0001
1000
,  // measure 22
0010
0000
2000
0000
,  // measure 23
3001
0010
0001
1000
,  // measure 24
0100
0000
0000
0000
,  // measure 25
1100
0000
0101
0000
,  // measure 26
1000
0001
1000
0000
,  // measure 27
0001
0010
0001
0100
,  // measure 28
0010
1000
0100
0000
,  // measure 29
1000
1000
0001
0001
,  // measure 30
1000
0001
1000
0000
,  // measure 31
0001
0001
1000
1000
,  // measure 32
0001
0000
0000
0000
,  // measure 33
1000
0100
1000
0010
,  // measure 34
0100
0001
0100
0000
,  // measure 35
0101
0000
1100
0000
,  // measure 36
1001
0000
0000
0000
,  // measure 37
0000
0000
0000
0000
,  // measure 38
1100
0000
0101
0000
,  // measure 39
1000
0100
0010
0001
,  // measure 40
1000
0000
0001
0100
,  // measure 41
0001
0000
0000
0000
,  // measure 42
1000
0100
0010
0001
,  // measure 43
0100
0000
0000
0000
,  // measure 44
1001
0000
1001
0000
,  // measure 45
1100
0000
0101
0000
,  // measure 46
0001
0100
0010
1000
,  // measure 47
0100
0000
0000
0000
,  // measure 48
1000
0000
0001
0100
,  // measure 49
0010
1000
0001
0000
,  // measure 50
1001
0000
1000
0100
,  // measure 51
1000
0001
0100
0001
,  // measure 52
2000
0000
3100
0000
,  // measure 53
0002
0000
0103
0000
,  // measure 54
0001
0010
0001
1000
,  // measure 55
0100
1000
0001
0100
,  // measure 56
0001
1000
0010
1000
,  // measure 57
0002
0000
1003
0000
,  // measure 58
2000
0000
3001
0000
,  // measure 59
0100
0000
0010
0000
,  // measure 60
1000
0000
0001
0000
,  // measure 61
0100
0000
0000
0000
;

//---------------dance-single - ----------------
#NOTES:
     dance-single:
     :
     Hard:
     12:
     0.595,0.601,0.105,0.086,0.258:
0000
0000
0000
0000
,
0000
0000
0000
0000
,
0000
0000
0000
0000
,
0000
0000
0000
0000
,
0000
0000
0000
0000
,
0101
0000
0100
0000
0100
0000
0100
0100
,
0010
0000
0010
0000
0010
0000
0010
0010
,
1001
1000
1001
0001
,
0011
0000
0000
0010
0000
0000
0010
0000
0100
0000
0000
0100
0000
0000
0100
0000
,
1000
0001
0100
0010
1000
0001
0100
0010
,
1000
0100
0001
1000
0010
0001
1000
0000
,
0100
0010
0001
0010
0100
1000
0010
0000
,
1000
0100
0001
1000
0010
0001
1000
0000
,
0010
0100
0001
0100
0010
0000
1000
1000
,
0001
0100
1000
0001
0010
1000
0001
0010
,
0100
0010
0001
0100
0010
0000
0100
0010
,
1000
0100
0001
1000
0010
0001
1000
0010
,
0100
0000
0000
0000
0010
0000
0000
0000
0100
0000
0000
0010
0100
0000
0001
0000
,
1000
1000
0100
0100
1000
1000
0001
0001
,
0100
0000
0100
0000
0001
0000
0001
0000
1000
0000
0000
0010
0100
0000
0100
0000
,
0001
1000
0001
0000
0010
0000
0100
0000
0010
0000
0000
0000
0001
0000
0100
0000
,
1000
0000
0100
0000
0001
0000
0000
0000
0200
0000
0000
0010
0000
0310
0000
0000
,
1000
0001
1000
0000
0010
0000
0100
0000
0010
0000
0000
0000
1000
0000
0100
0000
,
0001
0100
1000
0020
0000
0130
0110
0000
,
0001
0010
1000
0010
0001
1000
1000
0000
,
0001
0100
1000
0100
0001
1000
1000
0000
,
0001
0100
1000
0100
0010
1000
0100
0010
,
0001
0000
1000
0000
0001
0100
0001
0100
0001
0000
0000
0000
1000
0000
1000
0000
,
0001
0000
0000
0100
0001
0000
1000
0000
0100
0000
0000
0010
0100
0000
1000
0000
,
0001
0000
0000
0100
0001
0000
0010
0000
0100
0000
0000
0010
0001
0000
1000
0000
,
0010
0000
0000
1000
0001
0000
0010
0000
0100
0000
0000
1000
0010
0000
0100
0000
,
0001
0000
0000
0010
0100
0000
1000
0000
0010
0000
0100
0000
0100
0000
0010
0000
,
1000
0000
0000
0010
1000
0000
0100
0000
0010
0000
0000
0001
0100
0000
0010
0000
,
0110
0000
0000
0000
0110
0000
0000
0000
1001
0000
0000
0001
1000
0000
0010
0000
,
0100
0000
0000
0010
1000
0000
0001
0000
0010
0000
0000
0100
0010
0000
0001
0000
,
2000
0000
0000
0100
0000
0000
0100
0000
0001
0000
0000
0001
0000
0000
3001
0000
,
0200
0000
0000
0010
0000
0000
0010
0000
0001
0000
0000
0001
0000
0000
0301
0000
,
1000
0100
0010
0001
1000
0010
0100
0001
,
1000
0001
1000
0000
0100
0000
0010
0000
0001
0100
0001
0000
0010
0000
0001
0000
,
2000
0000
0000
0010
0000
0000
3010
0000
1000
0000
0100
0000
0001
0000
0100
0000
,
1000
0000
0000
0001
0000
0000
0100
0000
1000
0000
0000
0100
0000
0000
0001
0000
,
2000
0000
0000
0100
0000
0000
3100
0000
1000
0000
0010
0000
0001
0000
0010
0000
,
1000
0000
0000
0100
0000
0000
0010
0000
0001
1000
0010
1000
0001
0000
0000
0000
,
1001
1000
0001
0010
0100
1000
0001
1000
,
0100
0010
1000
0010
0001
1000
0010
1000
,
1001
0001
1000
0100
0010
0001
1000
0001
,
0010
0100
0001
0100
1000
0001
0100
0001
,
1002
0000
0000
1000
0000
0000
1003
0000
0001
0000
1000
0000
0010
0000
0001
0000
,
0010
0000
1000
0001
0000
0000
0100
0000
0001
0000
1000
0001
0000
1000
0001
0000
,
0200
0000
0000
0010
0000
0000
0310
0000
1000
0000
0001
0000
0100
0000
1000
0000
,
0100
0000
0001
1000
0000
0000
0001
0000
0100
0000
0001
1000
0000
0001
1000
0000
,
0002
0000
0000
0010
0000
0000
0013
0000
0001
0000
1000
0000
0010
0000
0001
0000
,
0010
0000
1000
0001
0000
0000
0010
0000
0100
0000
1000
0001
0000
1000
0001
0000
,
0010
0100
1000
0010
0100
1000
0100
0001
,
0100
0010
1000
0100
0010
1000
0010
0001
,
1000
0000
0100
0000
0010
0000
0001
0000
1000
0010
1000
0010
1000
0010
1000
0010
,
1000
0001
0010
0001
1000
0010
0001
0010
,
1000
0001
0100
0001
1000
0100
0001
0100
,
1000
0000
0001
0000
1000
0000
0001
0100
0001
0000
0010
0000
0100
0000
1000
0000
,
0100
0000
0010
0100
0010
0000
0001
1000
0001
0000
0100
0000
0010
0000
1000
0000
,
0001
0000
0000
0000
;

//---------------dance-single - ----------------
#NOTES:
     dance-single:
     :
     Beginner:
     2:
     0.104,0.143,0.086,0.000,0.000:
0000
0000
0000
0000
,
0000
0000
0000
0000
,
0000
0000
0000
0000
,
0000
0000
0000
0000
,
0000
0000
0000
0000
,
0001
0000
0000
0000
,
0001
0000
0000
0000
,
1001
0000
0000
0000
,
1000
0000
0000
0000
,
1001
0000
0000
0000
,
0010
0000
0000
0000
,
0010
0000
0000
0000
,
0010
0000
0000
0000
,
0010
0000
0000
0000
,
1001
0000
0000
0000
,
0100
0000
0000
0000
,
0100
0000
0000
0000
,
0100
0000
0000
0000
,
0110
0000
0000
0000
,
0010
0000
0000
0000
,
1000
0000
0000
0000
,
0100
0000
0000
0000
,
0010
0000
0000
0000
,
0001
0000
0000
0000
,
1001
0000
0000
0000
,
0001
0000
0000
0000
,
1000
0000
0000
0000
,
0001
0000
0000
0000
,
0010
0000
0000
0000
,
0100
0000
0000
0000
,
1000
0000
0000
0000
,
0100
0000
0000
0000
,
0010
0000
0000
0000
,
0001
0000
0000
0000
,
1001
0000
0000
0000
,
1000
0000
0001
0000
,
1000
0000
0000
0000
,
0001
0000
1000
0000
,
0001
0000
0000
0000
,
1001
0000
1000
0000
,
0001
0000
0000
0000
,
1000
0000
0100
0000
,
1000
0000
0000
0000
,
0010
0000
0100
0000
,
0001
0000
0000
0000
,
0010
0000
0100
0000
,
1000
0000
0001
0000
,
1001
0000
0000
0000
,
0001
0000
1000
0000
,
0010
0000
0000
0000
,
1000
0000
0001
0000
,
0100
0000
0000
0000
,
0010
0000
0000
0000
,
0100
0000
0010
0000
,
0100
0000
0100
0000
,
0100
0000
0000
0000
,
1001
0000
0000
0000
,
0001
0000
0000
0000
,
0100
0000
0000
0000
,
0010
0000
0000
0000
,
1000
0000
0000
0000
;
