#TITLE:MAX! 乙女心;
#SUBTITLE:;
#ARTIST:SUPER☆GiRLS;
#TITLETRANSLIT:MAX! OTOMEGOKORO;
#SUBTITLETRANSLIT:;
#ARTISTTRANSLIT:SUPER*GiRLS;
#CREDIT:DigiMindAxel;
#BANNER:MAX! OTOMEGOKORO.png;
#BACKGROUND:MAX! OTOMEGOKORO-bg.png;
#LYRICSPATH:MAX! OTOMEGOKORO.lrc;
#CDTITLE:DigiMindAxel original simfile.png;
#MUSIC:MAX! OTOMEGOKORO.mp3;
#METERTYPE:DDR X;
#OFFSET:-9.220;
#SAMPLESTART:72.637;
#SAMPLELENGTH:12.000;
#SELECTABLE:YES;
#BPMS:0.000=140.000;
#STOPS:;
#BGCHANGES:-21.000=MAX! OTOMEGOKORO.avi=1.000=1=1=0,
99999=-nosongbg-=1.000=0=0=0 // don't automatically add -songbackground-
;

//---------------dance-single - ----------------
#NOTES:
     dance-single:
     :
     Easy:
     4:
     0.205,0.261,0.110,0.126,0.000:
0001
1000
0001
0000
,
1000
0001
1000
0000
,
0100
1000
0100
0000
,
0010
0001
0010
0001
,
1000
0000
0100
0000
,
0010
0000
0100
1000
,
0001
0000
0010
0000
,
0100
0000
0010
0001
,
1000
0000
0010
0000
,
0100
0000
0010
1000
,
0001
0000
0010
0000
,
2002
0000
0000
3003
,
0100
0000
0100
0000
,
0100
0000
0000
0000
,
0010
0000
0010
0000
,
0010
0000
0000
0000
,
0100
0000
0100
0000
,
0100
0000
0000
0000
,
0010
0000
0010
0000
,
0220
0000
0000
0330
,
0001
1000
0001
0000
,
0100
0001
0100
0000
,
0010
1000
0010
0000
,
1000
0001
1000
0001
,
0100
0001
0100
0000
,
0010
1000
0010
0000
,
1000
0001
1000
0001
,
1000
0000
0100
0000
,
2000
0000
3002
0000
,
1003
0001
1000
0000
,
0020
0000
0230
0000
,
0310
0100
0010
0000
,
2000
0000
3002
0000
,
1003
0001
1000
0000
,
1001
0000
0110
0000
,
1001
0000
1001
0000
,
2002
0000
0000
3003
,
0010
0100
0010
0000
,
1000
0100
0010
0000
,
0100
0010
0100
0000
,
0010
0100
1000
0000
,
0002
0000
2003
0000
,
3001
1000
0001
0000
,
0010
0000
0100
0000
,
1000
0000
0000
0000
,
0010
0100
0010
0000
,
1000
0010
0100
0000
,
0010
0100
0010
0000
,
0100
0010
1000
0000
,
0001
0000
0010
0000
,
0100
0010
0100
0000
,
0010
0000
0010
0000
,
0010
0000
0000
0000
,
1001
0000
0110
0000
,
0000
1001
1001
0000
,
0001
0000
0010
0000
,
0100
0010
0100
0000
,
1000
0000
0001
0000
,
1000
0001
1000
0001
,
0100
0000
0010
0000
,
1000
0010
1000
0000
,
0100
0000
0010
0000
,
1001
0000
1001
0000
,
0220
0000
0000
0000
,
0000
0000
0000
0000
,
0000
0000
0000
0000
,
0000
0000
0330
0000
;

//---------------dance-single - ----------------
#NOTES:
     dance-single:
     :
     Medium:
     6:
     0.315,0.470,0.251,0.251,0.000:
0001
1000
0001
1000
,
0001
1000
0001
1000
,
0010
0100
0010
0100
,
0001
0001
0001
0001
,
1001
0000
0100
0000
1100
0000
0000
0001
,
0000
0001
0000
1000
0001
0000
0000
0000
,
1001
0000
0100
0000
0101
0000
0000
1000
,
0000
1000
0000
1000
0000
0010
0100
0000
,
0000
0000
1001
0000
0001
0000
0000
1000
,
0000
1000
0000
0010
0000
0100
0010
0000
,
0100
0000
0001
0000
,
1001
0000
1001
0000
,
0001
0010
0001
0000
,
1000
0100
1000
0000
,
0001
0100
0001
0000
,
1000
0010
1000
0000
,
0001
1000
0001
0000
,
1000
0001
1000
0000
,
0010
0100
0010
0100
,
0220
0000
0000
0330
,
1000
0100
0010
0000
,
0100
0000
1000
0000
0001
1000
0001
0000
,
0010
0100
1000
0000
,
0010
0000
0100
0000
0001
1000
0001
0000
,
0010
0001
0100
0000
,
0010
0000
0100
0000
0001
1000
0001
0000
,
0010
0100
1000
0010
,
0100
0010
0100
0000
0001
0000
1000
0000
,
2002
3003
2200
3300
,
0011
0001
0010
0000
,
2002
3003
0202
0303
,
1010
1000
0010
0000
,
2002
3003
0220
0330
,
1001
0001
1000
0000
,
2200
3300
0220
0330
,
0022
0033
0220
0330
,
2002
0000
0000
3003
,
0001
0000
0100
0001
0000
0001
0000
0000
,
1000
0100
1100
0000
,
1000
0000
0010
1000
0000
1000
0000
0000
,
0001
0010
0011
0000
,
0001
0010
1000
0100
,
0001
1000
0001
0000
1001
0000
0000
0000
,
0010
0000
0100
0000
2000
0000
0000
3001
,
0000
1000
0001
1000
,
0001
0000
0010
0001
0000
0001
0000
0000
,
1000
0010
1010
0000
,
1000
0000
0100
1000
0000
1000
0000
0000
,
0001
0100
0101
0000
,
0001
0100
1000
0010
,
0001
1000
0001
0000
1001
0000
0000
0000
,
0100
0000
0010
0000
0002
0000
0000
1003
,
0000
0001
1000
0001
,
1001
0000
0000
1000
0001
0100
0001
0000
,
0000
0000
1000
0001
0100
0000
0000
0000
,
0001
0000
0010
0000
0100
0000
1000
0010
,
0000
0010
0000
0100
0001
0000
0001
0000
,
1000
0000
0100
0000
0010
0000
0001
0100
,
0000
0010
0000
0010
0000
0100
0001
0000
,
0000
0000
1000
0000
0001
0100
0000
0001
,
0000
0001
0000
0100
0000
0001
1000
0000
,
0100
0010
0100
0010
,
0202
0303
2020
3030
,
0220
0000
0000
0000
,
0000
0000
0000
0000
,
0000
0000
0000
0000
,
0000
0000
0330
0000
;

//---------------dance-single - ----------------
#NOTES:
     dance-single:
     :
     Hard:
     9:
     0.466,0.496,0.495,0.251,0.055: // measure 1
1000
0100
0001
1000
,  // measure 2
0001
0100
1000
0001
,  // measure 3
1000
0010
0100
0001
,  // measure 4
1000
0001
0001
0000
1000
1000
0010
0100
,  // measure 5
0110
0000
0101
0000
0110
0000
1000
0001
,  // measure 6
0000
0100
0000
1000
0100
0000
0101
0000
,  // measure 7
1010
0000
0110
0000
1010
0000
1000
0001
,  // measure 8
0000
0010
0100
0010
0100
1000
0001
0000
,  // measure 9
0101
0000
1001
0000
1000
0001
0000
0100
,  // measure 10
0000
1000
0000
0100
0000
0001
1000
0100
,  // measure 11
0010
0001
0100
0110
,  // measure 12
1000
0000
0000
1000
0000
0000
0001
1000
0001
0000
0000
0000
0000
0000
0000
0000
,  // measure 13
1000
0100
0010
0000
0010
0000
0100
1000
,  // measure 14
0001
0000
0001
0000
0100
0100
0100
0000
,  // measure 15
0001
0100
0010
0000
0010
0000
0100
0001
,  // measure 16
0010
0000
0100
0000
1000
1000
1000
0000
,  // measure 17
0100
0010
0001
0000
0001
0000
0100
0001
,  // measure 18
0010
0000
0100
0000
0010
0010
0010
0000
,  // measure 19
0001
0100
1000
0100
,  // measure 20
0001
0000
1000
0000
1000
0000
0000
0000
0001
0000
0000
1000
0001
0000
0100
0000
,  // measure 21
0001
1000
0100
0010
0001
0000
0001
1000
,  // measure 22
0000
1000
0001
0100
0010
0010
0010
0000
,  // measure 23
1000
0001
0010
0100
1000
0000
1000
0001
,  // measure 24
0000
0001
0010
0100
0010
0010
0010
0000
,  // measure 25
0001
0100
1000
0100
0001
0000
1000
0001
,  // measure 26
0000
0001
0100
0010
1000
1000
1000
0000
,  // measure 27
0002
0203
2300
3100
,  // measure 28
0001
0010
0100
0000
0010
0010
0010
0000
,  // measure 29
0102
1003
0102
1003
,  // measure 30
0101
1100
0101
0100
,  // measure 31
2100
3001
2100
3001
,  // measure 32
1100
0101
1100
0010
,  // measure 33
0012
1003
0012
1003
,  // measure 34
0011
1001
0011
0000
,  // measure 35
0120
0000
0000
0100
0000
0000
0130
0000
0002
0000
0000
1000
0000
0000
1003
0000
,  // measure 36
0200
0000
0000
1000
0000
0000
1300
0000
0020
0000
0000
0001
0000
0000
0031
0000
,  // measure 37
0220
0000
0330
0110
,  // measure 38
1100
0000
0001
0100
0000
1000
0000
0200
,  // measure 39
0000
0010
0310
0000
0110
0000
1001
0000
,  // measure 40
0101
0000
1000
0100
0000
0001
0000
0200
,  // measure 41
0000
0010
0310
0000
0110
0000
1001
0000
,  // measure 42
2000
3200
0302
0203
,  // measure 43
1300
1000
1000
0000
0001
1000
0100
1000
,  // measure 44
0001
0000
0000
0000
0101
0000
0000
0000
0001
0000
0000
1000
0000
0000
1100
0000
,  // measure 45
0000
0000
1000
0000
1000
0000
0000
0001
1000
0000
0010
0000
0100
0000
0001
0000
,  // measure 46
0101
0000
1000
0100
0000
0001
0000
0200
,  // measure 47
0000
0010
0310
0000
0110
0000
1001
0000
,  // measure 48
1100
0000
0001
0100
0000
1000
0000
0200
,  // measure 49
0000
0010
0310
0000
0110
0000
1001
0000
,  // measure 50
0002
0203
2300
3200
,  // measure 51
0301
0001
0001
0000
1000
0001
0100
0001
,  // measure 52
1000
0000
0000
0000
1100
0000
0000
0000
1000
0000
0000
0001
0000
0000
0101
0000
,  // measure 53
0000
0000
0001
0000
0001
0000
0000
1000
0001
0000
0010
0000
0100
0000
1000
0000
,  // measure 54
1100
0000
0000
1001
1001
0000
0001
0000
,  // measure 55
0000
0000
0110
0110
0110
0000
1001
0000
,  // measure 56
1100
0000
0110
0000
1100
0000
0001
0100
,  // measure 57
0000
1000
0000
0100
0001
0000
1001
0000
,  // measure 58
0101
0000
0110
0000
0101
0000
1000
0001
,  // measure 59
0000
0100
0010
1000
0010
0100
0010
0000
,  // measure 60
0110
0000
1001
0000
0001
0100
0000
2000
,  // measure 61
0000
3100
0000
0002
0000
1003
0001
0010
,  // measure 62
0100
0000
0000
0000
1000
0000
0000
0010
0100
0000
0001
0000
0010
0000
0000
0000
,  // measure 63
1001
0000
0000
1001
0000
0000
1000
0001
2000
0000
0000
0000
3000
0000
0000
0000
,  // measure 64
0220
0000
0000
0000
,  // measure 65
0000
0000
0000
0000
,  // measure 66
0000
0000
0000
0000
,  // measure 67
0000
0000
0330
0000
;

//---------------dance-single - ----------------
#NOTES:
     dance-single:
     :
     Beginner:
     2:
     0.100,0.198,0.110,0.000,0.000:
1000
0000
0000
0000
,
1000
0000
0000
0000
,
0001
0000
0000
0000
,
0001
0000
0000
0000
,
1001
0000
0000
0000
,
0000
0000
0000
0000
,
1000
0000
0000
0000
,
0000
0000
0000
0000
,
0100
0000
0000
0000
,
0000
0000
0000
0000
,
0010
0000
0000
0000
,
0001
0000
0000
0000
,
1000
0000
0000
0000
,
0000
0000
0000
0000
,
1000
0000
0000
0000
,
0000
0000
0000
0000
,
0001
0000
0000
0000
,
0000
0000
0000
0000
,
0001
0000
0000
0000
,
1000
0000
0000
0000
,
1001
0000
0001
0000
,
1000
0000
0000
0000
,
0001
0000
1000
0000
,
0001
0000
0000
0000
,
0100
0000
0010
0000
,
0100
0000
0000
0000
,
0010
0000
0100
0000
,
0010
0000
0000
0000
,
1001
0000
0000
0000
,
0001
0000
0000
0000
,
1001
0000
0000
0000
,
1000
0000
0000
0000
,
1001
0000
0000
0000
,
0001
0000
0000
0000
,
1001
0000
1001
0000
,
1001
0000
0000
0000
,
1001
0000
0000
0000
,
1000
0000
0100
0000
,
1000
0000
0000
0000
,
0100
0000
0010
0000
,
0100
0000
0000
0000
,
0010
0000
0001
0000
,
0010
0000
0000
0000
,
0001
0000
1000
0000
,
0001
0000
0000
0000
,
1001
0000
1000
0000
,
0001
0000
0000
0000
,
0010
0000
0001
0000
,
0010
0000
0000
0000
,
0100
0000
0010
0000
,
0100
0000
0000
0000
,
1000
0000
0100
0000
,
1000
0000
0000
0000
,
1001
0000
0000
0000
,
0000
1001
0000
0000
,
0001
0000
1000
0000
,
0001
0000
0000
0000
,
0100
0000
0001
0000
,
0100
0000
0000
0000
,
0010
0000
1000
0000
,
0010
0000
0000
0000
,
1000
0000
0001
0000
,
1001
0000
0000
0000
,
1001
0000
0000
0000
;
