#TITLE:マチ子の唄;
#SUBTITLE:;
#ARTIST:AKIRA YAMAOKA;
#TITLETRANSLIT:MACHIKO NO UTA;
#SUBTITLETRANSLIT:;
#ARTISTTRANSLIT:;
#CREDIT:DigiMindAxel;
#BANNER:MACHIKO NO UTA.png;
#BACKGROUND:MACHIKO NO UTA-bg.png;
#LYRICSPATH:MACHIKO NO UTA.lrc;
#CDTITLE:beatmania IIDX.png;
#MUSIC:MACHIKO NO UTA.mp3;
#METERTYPE:DDR X;
#OFFSET:0.708;
#SAMPLESTART:73.474;
#SAMPLELENGTH:12.000;
#SELECTABLE:YES;
#BPMS:0.000=152.000;
#STOPS:;
#BGCHANGES:1.000=MACHIKO NO UTA.avi=1.000=1=0=1,
99999=-nosongbg-=1.000=0=0=0 // don't automatically add -songbackground-
;

//---------------dance-single - ----------------
#NOTES:
     dance-single:
     :
     Easy:
     5:
     0.226,0.303,0.075,0.091,0.000:
0000
0000
0000
0000
,
0000
0000
0000
0000
,
0000
0000
0000
0000
,
0000
0000
0000
0000
,
0000
0000
0000
0000
,
0000
0000
0000
0000
,
1001
0000
1000
0000
,
1000
0000
0000
0000
,
0001
0000
0001
0000
,
0001
0000
0000
0000
,
1000
0000
0010
0000
,
1000
0000
0001
0000
,
1000
0000
1001
0000
,
1000
0000
0000
0000
,
1001
0000
1000
1000
,
1000
0000
0001
0001
,
0001
0000
1000
1000
,
1000
0000
0001
0001
,
0001
0000
0100
0010
,
0100
0000
0100
0000
,
0100
0010
0100
0000
,
0001
1000
0001
1000
,
0001
0000
0001
0000
,
0001
0000
0001
0000
,
1000
0000
1000
0000
,
1000
0000
1000
0000
,
1001
0000
0001
0000
,
1001
0000
0001
0000
,
1001
0000
1000
0000
,
1001
0000
0000
0000
,
0001
0010
0001
0010
,
0001
0010
0001
0010
,
0100
1000
0100
1000
,
0100
1000
0001
1000
,
0001
0100
0001
0100
,
0001
1000
0001
1000
,
0010
1000
0010
1000
,
0010
1000
0010
0100
,
0020
0000
0000
0000
,
2030
0000
0000
0000
,
3002
0000
0000
0000
,
0203
0000
0000
0000
,
0320
0000
0000
0000
,
2030
0000
0000
0000
,
3200
0000
0000
0000
,
0320
0000
0000
0000
,
0032
0000
0000
0000
,
1003
0000
1000
0001
,
1000
0000
0001
1000
,
0001
0000
0001
0001
,
0100
0010
0100
0010
,
0100
0000
0001
1000
,
0001
0000
1000
0001
,
1000
0000
0010
0100
,
0010
0010
0100
0100
,
0001
0000
1000
0001
,
1000
0000
0001
1000
,
0001
0000
0100
0100
,
0010
0010
0100
0010
,
0100
0000
0001
1000
,
0001
0000
1000
0001
,
1000
0000
0010
0010
,
0100
0010
0100
0010
,
1000
0000
1000
0000
,
1000
0100
0010
0000
,
0001
0000
0001
0000
,
0001
0010
0100
1000
,
1001
1000
0100
0010
,
0001
0001
0010
0100
,
1000
1000
0001
0001
,
0100
0010
2002
0000
,
0000
0000
0000
0000
,
0000
0000
0000
0000
,
3003
0000
0000
0000
;

//---------------dance-single - ----------------
#NOTES:
     dance-single:
     :
     Hard:
     9:
     0.489,0.515,0.506,0.075,0.000:
0000
0000
0000
0000
,
0000
0000
0000
0000
,
0000
0000
0000
0000
,
0000
0000
0000
0000
,
0000
0000
0000
0000
,
0000
0000
0000
0000
,
1001
0000
1000
0000
1000
0100
0010
0001
,
0100
1001
0100
1001
,
1001
0000
0001
0000
0001
0010
0100
1000
,
0010
1001
0010
1001
,
1001
0000
1000
0000
1000
0010
0100
0001
,
0010
1001
0010
1001
,
1001
0001
0101
0110
,
1200
0320
0032
1003
,
1001
0000
1000
0000
1000
0100
1000
0001
,
0010
0000
0010
0000
0010
0001
1000
0100
,
1000
0000
1001
0000
0001
0010
0001
1000
,
0100
0000
0100
0000
0100
1000
0001
0010
,
0001
0000
1001
0000
1000
0010
1000
0001
,
0100
0000
0110
0000
0100
0000
0100
0001
,
1000
0000
1100
0000
1001
0000
0010
1000
,
0001
0011
1001
0011
,
0001
0001
0001
0000
1000
1000
1000
0000
,
0001
0001
0001
0000
1000
0100
0010
0001
,
0100
0100
0100
0000
0010
0010
0010
0000
,
0100
0001
0010
0100
1000
0000
1001
0000
,
1000
1000
1000
0000
0001
0001
0001
0000
,
1000
1000
1000
0000
0001
0010
0100
1000
,
0010
0010
0010
0000
0100
0100
0100
0000
,
0001
1000
0100
0010
0001
0000
1001
0000
,
1100
0000
0100
0000
1000
0001
0100
0000
,
0001
0000
0100
0000
0001
0010
0100
1000
,
0001
0000
0010
0000
0001
1000
0100
0000
,
1000
0000
0100
0000
1000
0001
0010
0100
,
1000
0000
0001
0000
1000
0001
0010
0000
,
0001
0000
0010
0000
0001
1000
0100
0010
,
0001
0000
1000
0000
0010
1000
0001
0000
,
1000
0000
0001
0000
1000
0001
0010
0100
,
2000
0000
0000
0000
0001
0001
3001
0000
,
1000
0001
1000
1000
,
0020
0000
0000
0000
0100
0100
0130
0000
,
0001
1000
0001
0001
,
0200
0000
0000
0000
0010
0010
0310
0000
,
1000
0001
1000
1000
,
0020
0000
0000
0000
0100
0100
0130
0000
,
1001
1000
1000
1000
,
1100
0101
1100
0101
,
1001
0000
0001
0000
1000
0100
0001
0100
,
1000
0001
0001
0000
1000
0100
0001
0100
,
1000
0001
0001
0000
1000
0000
1010
0000
,
0100
0101
0110
0110
,
1001
0000
1000
0000
0001
0100
1000
0100
,
0001
1000
1000
0000
0001
0100
1000
0100
,
0001
1000
1000
0000
0001
0000
0011
0000
,
0100
1100
0110
0110
,
1001
0000
0001
0000
1000
0010
0001
0010
,
1000
0001
0001
0000
1000
0010
0001
0010
,
1000
0001
0001
0000
0010
0000
0011
0000
,
0100
1100
0110
0110
,
1001
0000
1000
0000
0001
0100
1000
0100
,
0001
1000
1000
0000
0001
0010
1000
0010
,
0001
1000
1000
0000
0100
0000
1100
0000
,
0010
0011
0110
0110
,
1001
0000
1000
0000
0001
0010
0100
0010
,
0001
0000
0001
0000
0100
0010
1000
0010
,
0100
0000
1001
0000
0001
0010
0100
0010
,
0001
0011
1001
1001
,
1010
0000
1010
0000
1000
0010
0100
0010
,
1000
0000
1000
0000
0100
0010
0001
0010
,
0100
0000
0110
0000
0110
0000
1000
0001
,
0010
0011
2002
0000
,
0000
0000
0000
0000
,
0000
0000
0000
0000
,
3003
0000
0000
0000
;

//---------------dance-single - ----------------
#NOTES:
     dance-single:
     :
     Challenge:
     12:
     0.595,0.545,0.689,0.050,0.237: // measure 1
0000
0000
0000
0000
,  // measure 2
0000
0000
0000
0000
,  // measure 3
0000
0000
0000
0000
,  // measure 4
0000
0000
0000
0000
,  // measure 5
1001
0000
1000
0000
,  // measure 6
1000
0001
1000
0001
,  // measure 7
1001
0000
0001
0000
0001
0100
0010
1000
,  // measure 8
1100
0101
1100
0101
,  // measure 9
1001
0000
1001
0000
1000
0010
0100
0001
,  // measure 10
0011
1010
0011
1010
,  // measure 11
1001
0000
1001
0000
0001
0010
0100
1000
,  // measure 12
1010
0011
1010
0011
,  // measure 13
0110
0110
1001
1001
,  // measure 14
0011
0110
1100
1001
,  // measure 15
1100
0000
1100
0000
0100
0010
0001
1000
,  // measure 16
0100
0000
0100
0000
0100
1000
0001
0010
,  // measure 17
0100
0000
0101
0000
0100
0001
1000
0100
,  // measure 18
0010
0000
0010
0000
0010
0001
1000
0010
,  // measure 19
0100
0000
0101
0000
0100
1000
0001
0100
,  // measure 20
0010
0000
1010
0000
0010
0000
0010
0100
,  // measure 21
0001
0000
1001
0000
0001
0100
0010
1000
,  // measure 22
1100
0101
1010
0011
,  // measure 23
1000
0001
0011
0000
1000
0001
0011
0000
,  // measure 24
1000
0001
0011
0000
1000
1000
0100
0010
,  // measure 25
0001
1000
1010
0000
0001
1000
1010
0000
,  // measure 26
0001
0001
0010
0100
1000
0001
1001
0000
,  // measure 27
0001
1000
1100
0000
0001
1000
1100
0000
,  // measure 28
0001
1000
1100
0000
0001
0001
0100
0010
,  // measure 29
1000
0001
0011
0000
1000
0001
0011
0000
,  // measure 30
1000
1000
0100
0010
0001
1000
1001
0000
,  // measure 31
1001
0000
0000
0001
0100
0000
0000
0100
1000
0000
0000
1000
0100
0000
0000
0100
,  // measure 32
0001
0000
0000
0001
0100
0000
0000
0100
1000
0000
0000
1000
0001
0000
0000
0001
,  // measure 33
0010
0000
0000
0010
1000
0000
0000
1000
0010
0000
0000
0010
0001
0000
0000
0001
,  // measure 34
0010
0000
0000
0010
1000
0000
0000
1000
0001
0000
0100
0000
0010
0000
0100
0000
,  // measure 35
0100
0000
0000
0100
0001
0000
0000
0001
1000
0000
0000
1000
0100
0000
0000
0100
,  // measure 36
0001
0000
0000
0001
1000
0000
0010
0000
0100
0000
0010
0000
0010
0000
0000
0010
,  // measure 37
1000
0000
0000
1000
0001
0000
0000
0001
0010
0000
0000
0010
1000
0000
0000
1000
,  // measure 38
0001
0000
0000
0001
1000
0000
0010
0000
0100
0000
0010
0000
0010
0000
0000
0000
,  // measure 39
2010
0000
0000
0000
0100
0100
3100
0000
,  // measure 40
1000
0010
0100
0000
0100
0001
0010
0000
,  // measure 41
0102
0000
0000
0000
0010
0010
0013
0000
,  // measure 42
0001
0000
0100
0000
0010
0000
0000
0000
1000
0010
1000
0010
1000
0001
1000
0001
,  // measure 43
2000
0000
0000
0000
0100
0100
3100
0000
,  // measure 44
1000
0010
0100
0000
0100
0001
0010
0000
,  // measure 45
0102
0000
0000
0000
0010
0010
0013
0000
,  // measure 46
1001
1000
1000
1000
,  // measure 47
1010
0110
1010
0110
,  // measure 48
1001
0000
0100
1000
0100
0000
0000
0000
1000
0000
0001
0000
0100
0000
1000
0000
,  // measure 49
0100
0000
0001
1000
0001
0000
0000
0000
1000
0000
0001
0000
0010
0000
1000
0000
,  // measure 50
0010
0000
0001
1000
0001
0000
0000
0000
1001
0000
0000
1000
0001
0000
0000
0001
,  // measure 51
0100
0000
0000
0100
1000
0000
0000
1000
0100
0000
0000
0100
0001
0000
0000
0000
,  // measure 52
1001
0000
0010
0001
0010
0000
0000
0000
0001
0000
1000
0000
0010
0000
0001
0000
,  // measure 53
0010
0000
1000
0001
1000
0000
0000
0000
0001
0000
1000
0000
0100
0000
0001
0000
,  // measure 54
0100
0000
1000
0001
1000
0000
0000
0000
1001
0000
0000
0001
1000
0000
0000
1000
,  // measure 55
0100
0000
0000
0100
0001
0000
0000
0001
0100
0000
0000
0100
1000
0000
0000
0000
,  // measure 56
1001
0000
0010
1000
0010
0000
0000
0000
1000
0000
0001
0000
0010
0000
1000
0000
,  // measure 57
0010
0000
0001
1000
0001
0000
0000
0000
1000
0000
0001
0000
0100
0000
1000
0000
,  // measure 58
0100
0000
0001
1000
0001
0000
0000
0000
1001
0000
0000
0001
0100
0000
0000
0000
,  // measure 59
0110
0110
1100
1100
,  // measure 60
1001
0000
0100
0001
0100
0000
0000
0000
0001
0000
1000
0000
0010
0000
0001
0000
,  // measure 61
0010
0000
1000
0001
1000
0000
0000
0000
0001
0000
1000
0000
0100
0000
0001
0000
,  // measure 62
0100
0000
1000
0001
1000
0000
0000
0000
1001
0000
0000
1000
0001
0000
0000
0001
,  // measure 63
0100
0000
0000
0100
1000
0000
0000
1000
0100
0000
0000
0100
0001
0000
0000
0000
,  // measure 64
1001
0000
0001
0000
1000
0100
0001
0010
,  // measure 65
1000
0000
1100
0000
1000
0100
0001
0010
,  // measure 66
1000
0000
1001
0000
0001
0100
1000
0010
,  // measure 67
0001
0101
1100
0101
,  // measure 68
1001
0000
1001
0000
0001
0010
1000
0100
,  // measure 69
0001
0000
1001
0000
1000
0100
0001
0010
,  // measure 70
1000
0000
1001
0000
0011
0000
0001
1000
,  // measure 71
1001
1100
2002
0000
,  // measure 72
0000
0000
0000
0000
,  // measure 73
0000
0000
0000
0000
,  // measure 74
3003
0000
0000
0000
;

//---------------dance-single - ----------------
#NOTES:
     dance-single:
     :
     Beginner:
     1:
     0.074,0.117,0.066,0.000,0.000:
0000
0000
0000
0000
,
0000
0000
0000
0000
,
0000
0000
0000
0000
,
0000
0000
0000
0000
,
0000
0000
0000
0000
,
0000
0000
0000
0000
,
1001
0000
0000
0000
,
0000
0000
0000
0000
,
1000
0000
0000
0000
,
0000
0000
0000
0000
,
0001
0000
0000
0000
,
0000
0000
0000
0000
,
0100
0000
0000
0000
,
0100
0000
0000
0000
,
1001
0000
0000
0000
,
0000
0000
0000
0000
,
0001
0000
0000
0000
,
0000
0000
0000
0000
,
0100
0000
0000
0000
,
0000
0000
0000
0000
,
0010
0000
0000
0000
,
0000
0000
0000
0000
,
1000
0000
0001
0000
,
1000
0000
0000
0000
,
0001
0000
1000
0000
,
0001
0000
0000
0000
,
0100
0000
0010
0000
,
0100
0000
0000
0000
,
0010
0000
0100
0000
,
0010
0000
0000
0000
,
1000
0000
0000
0000
,
0000
0000
0000
0000
,
0001
0000
0000
0000
,
0000
0000
0000
0000
,
1000
0000
0000
0000
,
0000
0000
0000
0000
,
0001
0000
0000
0000
,
0100
0000
0000
0000
,
1001
0000
0000
0000
,
0000
0000
0000
0000
,
0010
0000
0000
0000
,
0000
0000
0000
0000
,
0100
0000
0000
0000
,
0000
0000
0000
0000
,
0001
0000
0000
0000
,
1001
0000
0000
0000
,
0000
0000
0000
0000
,
1000
0000
0000
0000
,
0010
0000
0000
0000
,
1000
0000
0000
0000
,
0010
0000
0000
0000
,
0100
0000
0000
0000
,
0001
0000
0000
0000
,
0010
0000
0000
0000
,
0001
0000
0000
0000
,
1000
0000
0000
0000
,
0010
0000
0000
0000
,
1000
0000
0000
0000
,
0010
0000
0000
0000
,
0100
0000
0000
0000
,
0001
0000
0000
0000
,
0100
0000
0000
0000
,
0001
0000
0000
0000
,
1001
0000
0000
0000
,
0000
0000
0000
0000
,
1001
0000
0000
0000
,
0000
0000
0000
0000
,
1001
0000
0000
0000
,
0001
0000
0000
0000
,
1000
0000
0000
0000
,
0001
0000
1001
0000
;

//---------------dance-single - ----------------
#NOTES:
     dance-single:
     :
     Medium:
     7:
     0.363,0.454,0.365,0.133,0.000:
0000
0000
0000
0000
,
0000
0000
0000
0000
,
0000
0000
0000
0000
,
0000
0000
0000
0000
,
0000
0000
0000
0000
,
0000
0000
0000
0000
,
1001
0000
1000
0000
,
1000
0001
1000
0001
,
1000
0000
1000
0000
,
1000
0001
1000
0001
,
1000
0000
0001
0000
,
0001
1000
0001
1000
,
0001
0000
1000
0000
,
0220
0000
0000
0330
,
1001
0000
1000
0000
1000
0010
1000
0010
,
1000
0010
0100
0001
,
1001
0000
0001
0000
0001
0100
0001
0100
,
0001
0100
0010
1000
,
1001
0000
1000
0000
1000
0100
1000
0100
,
1000
0000
0001
0000
0001
0000
0001
0010
,
0001
0000
0100
0000
0100
0000
0001
0010
,
0001
1000
1100
1001
,
2000
0000
3002
0000
,
2003
0000
0000
0000
3001
0010
0001
0010
,
0002
0000
2003
0000
,
3001
0100
0001
0100
0001
0000
0000
0000
,
2000
0000
3020
0000
,
0230
0000
0000
0000
0301
1000
0001
1000
,
0001
1001
1000
1001
,
0001
1000
0001
1000
0001
0000
0000
0000
,
1001
0001
0010
0100
,
1000
0010
1000
0010
,
1000
0100
0010
0001
,
0100
0000
0001
0000
0100
0010
0100
0000
,
0001
1000
0001
1000
,
0010
0000
1000
0000
0010
0100
0010
0000
,
1000
0001
1000
0001
,
0100
0000
0001
0000
0100
0010
0100
0000
,
1001
0000
0000
0000
0001
0001
0001
0000
,
0000
0000
1000
0000
,
1001
0000
0000
0000
1000
1000
1000
0000
,
0000
0000
0001
0000
,
1001
0000
0000
0000
0001
0001
0001
0000
,
0000
0000
1000
0000
,
1001
0000
0000
0000
1000
1000
1000
0000
,
0220
0000
0000
0330
,
2002
0000
0000
3003
,
1001
0000
0000
0000
0100
1000
0100
1000
,
0010
0000
0000
0000
0100
0001
0100
0001
,
0010
0000
0001
1000
,
1100
1100
0011
0011
,
1001
0000
0000
0000
0010
0001
0010
0001
,
0100
0000
0000
0000
0010
1000
0010
1000
,
0100
0000
1000
0001
,
0011
0011
1100
1100
,
1001
0000
0000
0000
0010
1000
0010
1000
,
0100
0000
0000
0000
0010
0001
0010
0001
,
0100
0000
0001
1000
,
1010
1010
0101
0101
,
1001
0000
0000
0000
0100
0001
0100
0001
,
0010
0000
0000
0000
0100
1000
0010
1000
,
0010
0000
1000
0001
,
0101
0101
1010
1010
,
1001
0000
0001
0100
,
0001
1000
0010
1000
,
0001
0000
0001
0010
,
0001
1000
0100
1000
,
1001
0000
1000
0000
1000
0001
0100
0000
,
1001
0000
0001
0000
0001
1000
0010
0000
,
1001
1000
1001
0001
,
0110
0110
2002
0000
,
0000
0000
0000
0000
,
0000
0000
0000
0000
,
3003
0000
0000
0000
;

//---------------dance-double - ----------------
#NOTES:
     dance-double:
     :
     Easy:
     6:
     0.245,0.303,0.141,0.075,0.000:
00000000
00000000
00000000
00000000
,
00000000
00000000
00000000
00000000
,
00000000
00000000
00000000
00000000
,
00000000
00000000
00000000
00000000
,
00000000
00000000
00000000
00000000
,
00000000
00000000
00000000
00000000
,
10010000
00000000
10000000
00000000
,
10000000
00000000
00000000
00000000
,
00011000
00000000
00010000
00000000
,
00010000
00000000
00000000
00000000
,
00011000
00000000
00001000
00000000
,
00001001
00000000
00001000
00000000
,
00000001
00000000
00001001
00000000
,
00000001
00000000
00000000
00000000
,
00001001
00000000
00000001
00000010
,
00000001
00000000
00000000
00000000
,
00001000
00000100
00001000
00000100
,
00001000
00000000
00000000
00000000
,
00000001
00000100
00000001
00000100
,
00000001
00000000
00000010
00000000
,
00000100
00001000
00000100
00000000
,
00001000
00010000
00001000
00010000
,
00001000
00000000
00010000
00000000
,
00100000
00000000
01000000
01000000
,
01000000
00000000
10000000
00000000
,
00100000
00100000
00100000
00000000
,
10010000
00000000
10000000
00000000
,
10010000
00000000
00100000
00000000
,
00011000
00000000
00001000
00000000
,
00000100
00000010
00000001
00000000
,
00000010
00000001
00000010
00000001
,
00000010
00000001
00000010
00000001
,
00001000
00000001
00001000
00000001
,
00001000
00000001
00001000
00010000
,
00001000
00010000
00001000
00010000
,
00100000
01000000
10000000
00100000
,
10000000
00100000
10000000
00100000
,
10000000
01000000
00100000
00010000
,
00002000
00000000
00000000
00000000
,
00023000
00000000
00000000
00000000
,
00032000
00000000
00000000
00000000
,
00003200
00000000
00000000
00000000
,
00000320
00000000
00000000
00000000
,
00000032
00000000
00000000
00000000
,
00002003
00000000
00000000
00000000
,
00003001
00000000
00000000
00000000
,
00000001
00000010
00000100
00001000
,
00011000
00000000
00010000
10000000
,
00010000
10000000
00100000
01000000
,
00100000
10000000
00010000
00010000
,
10000000
10000000
00010000
00010000
,
10010000
00000000
10000000
00010000
,
10000000
00100000
01000000
00100000
,
10000000
00010000
00100000
00100000
,
00010000
00010000
00001000
00001000
,
00001001
00000000
00000001
00001000
,
00000001
00001000
00000010
00000100
,
00000010
00001000
00000001
00000001
,
00001000
00001000
00000010
00000010
,
00001001
00000000
00000001
00001000
,
00000001
00001000
00000010
00000100
,
00000010
00001000
00000100
00000100
,
00001000
00001000
00010000
00010000
,
10010000
00000000
10000000
00000000
,
00100000
00000000
01000000
00000000
,
00010000
00000000
00001000
00000000
,
00000100
00000000
00000010
00000000
,
00000001
00000001
00000010
00000100
,
00001000
00001000
00010000
00010000
,
00100000
01000000
10000000
00100000
,
01100000
01100000
20020000
00000000
,
00000000
00000000
00000000
00000000
,
00000000
00000000
00000000
00000000
,
30030000
00000000
00000000
00000000
;
